osu file format v14

[General]
AudioFilename: audio2.mp3
AudioLeadIn: 0
PreviewTime: 59445
Countdown: 0
SampleSet: Soft
StackLeniency: 0.7
Mode: 0
LetterboxInBreaks: 0
WidescreenStoryboard: 1

[Editor]
Bookmarks: 10790,20689,30435,40181,49775,59521,79014,84039,84115,84191,93785,103379,113125,122872,132618,137491,147237,152110,159420,166729,169166,172592,172821,174039,175257,182567,192313,202059,211806,216831,226729,227643,227948
DistanceSpacing: 0.3
BeatDivisor: 4
GridSize: 32
TimelineZoom: 2.2

[Metadata]
Title:BWLAUTE BEIRRD
TitleUnicode:BWLAUTE BEIRRD
Artist:Yumeno Yuki
ArtistUnicode:夢乃ゆき
Creator:Lasse
Version:LMT's Expert.
Source:抜きゲーみたいな島に住んでる貧乳(わたし)はどうすりゃいいですか? 2
Tags:nukitashi 2 Is the prospect LMT AIR or Kalibe Hope or Despair opening full version eroge visual novel blue bird water japanese pop rock english sbeve
BeatmapID:2131275
BeatmapSetID:1014034

[Difficulty]
HPDrainRate:5
CircleSize:4
OverallDifficulty:8.5
ApproachRate:9.2
SliderMultiplier:1.5
SliderTickRate:1

[Events]
//Background and Video events
0,0,"d.jpg",0,0
//Break Periods
2,159620,161286
2,164493,166159
//Storyboard Layer 0 (Background)
//Storyboard Layer 1 (Fail)
//Storyboard Layer 2 (Pass)
//Storyboard Layer 3 (Foreground)
//Storyboard Layer 4 (Overlay)
//Storyboard Sound Samples

[TimingPoints]
1197,304.568527918782,4,2,0,70,1,0
10334,-100,4,2,34,40,0,0
10790,-100,4,2,35,55,0,0
19318,-100,4,2,35,60,0,0
20080,-1000,4,2,35,65,0,0
20613,-1000,4,2,35,10,0,0
20689,-66.6666666666667,4,2,34,68,0,0
25410,-66.6666666666667,4,2,35,68,0,0
25714,-66.6666666666667,4,2,34,68,0,0
27846,-66.6666666666667,4,2,35,68,0,0
30435,-66.6666666666667,4,2,35,50,0,0
38202,-66.6666666666667,4,2,35,40,0,0
38354,-66.6666666666667,4,2,35,50,0,0
38506,-66.6666666666667,4,2,35,40,0,0
38658,-66.6666666666667,4,2,35,50,0,0
38811,-66.6666666666667,4,2,35,40,0,0
38963,-133.333333333333,4,2,35,42,0,0
39115,-133.333333333333,4,2,35,44,0,0
39268,-133.333333333333,4,2,35,46,0,0
39420,-133.333333333333,4,2,35,48,0,0
39572,-133.333333333333,4,2,35,50,0,0
39724,-133.333333333333,4,2,35,52,0,0
39877,-133.333333333333,4,2,35,54,0,0
40029,-133.333333333333,4,2,35,56,0,0
40181,-66.6666666666667,4,2,34,60,0,0
44902,-66.6666666666667,4,2,35,60,0,0
45207,-66.6666666666667,4,2,34,60,0,0
47339,-66.6666666666667,4,2,35,62,0,0
48557,-66.6666666666667,4,2,35,64,0,0
49775,-66.6666666666667,4,2,35,60,0,0
52212,-66.6666666666667,4,2,35,64,0,0
52669,-66.6666666666667,4,2,35,62,0,0
54648,-66.6666666666667,4,2,35,60,0,0
57085,-100,4,2,35,50,0,0
57389,-100,4,2,35,40,0,0
58151,-100,4,2,35,30,0,0
58303,-100,4,2,35,64,0,0
58912,-66.6666666666667,4,2,35,66,0,0
59065,-66.6666666666667,4,2,35,68,0,0
59217,-66.6666666666667,4,2,35,70,0,0
59521,-66.6666666666667,4,2,34,76,0,1
59978,-66.6666666666667,4,2,35,76,0,1
69268,-66.6666666666667,4,2,34,76,0,1
69724,-66.6666666666667,4,2,35,76,0,1
79014,-100,4,2,35,60,0,0
80080,-100,4,2,35,35,0,0
80232,-100,4,2,35,60,0,0
81298,-100,4,2,35,35,0,0
81450,-100,4,2,35,60,0,0
83735,-1000,4,2,35,50,0,0
83963,-1000,4,2,35,5,0,0
84039,-100,4,2,35,48,0,0
88912,-100,4,2,35,50,0,0
92567,-100,4,2,35,52,0,0
93024,-100,4,2,35,54,0,0
93633,-100,4,2,35,48,0,0
93785,-66.6666666666667,4,2,34,60,0,0
98506,-66.6666666666667,4,2,35,60,0,0
108252,-133.333333333333,4,2,35,60,0,0
109318,-133.333333333333,4,2,35,40,0,0
109471,-133.333333333333,4,2,35,62,0,0
110537,-133.333333333333,4,2,35,42,0,0
110689,-100,4,2,35,60,0,0
110993,-100,4,2,35,40,0,0
111755,-100,4,2,35,30,0,0
111907,-133.333333333333,4,2,35,64,0,0
112516,-66.6666666666667,4,2,35,66,0,0
112669,-66.6666666666667,4,2,35,68,0,0
112821,-66.6666666666667,4,2,35,70,0,0
113125,-66.6666666666667,4,2,34,76,0,1
113582,-66.6666666666667,4,2,35,76,0,1
122872,-66.6666666666667,4,2,34,76,0,1
123328,-66.6666666666667,4,2,35,76,0,1
132618,-133.333333333333,4,2,35,60,0,0
133684,-133.333333333333,4,2,35,35,0,0
133836,-133.333333333333,4,2,35,60,0,0
134902,-133.333333333333,4,2,35,35,0,0
135054,-133.333333333333,4,2,35,60,0,0
137034,-66.6666666666667,4,2,35,60,0,0
137491,-66.6666666666667,4,2,34,72,0,0
137948,-66.6666666666667,4,2,35,72,0,0
140156,-66.6666666666667,4,2,35,32,0,0
140232,-66.6666666666667,4,2,35,72,0,0
146019,-66.6666666666667,4,2,35,74,0,0
146933,-66.6666666666667,4,2,35,72,0,0
147085,-66.6666666666667,4,2,35,70,0,0
147237,-66.6666666666667,4,2,34,74,0,0
147694,-66.6666666666667,4,2,35,74,0,0
155765,-66.6666666666667,4,2,35,75,0,0
156983,-66.6666666666667,4,2,35,76,0,0
157745,-66.6666666666667,4,2,35,77,0,0
158354,-66.6666666666667,4,2,35,78,0,0
158963,-66.6666666666667,4,2,35,80,0,0
159420,-66.6666666666667,4,2,35,46,0,0
160638,-66.6666666666667,4,2,35,32,0,0
161856,-66.6666666666667,4,2,35,34,0,0
164293,-100,4,2,35,36,0,0
166273,-100,4,2,35,32,0,0
166729,-100,4,2,35,38,0,0
167948,-100,4,2,35,39,0,0
169166,-100,4,2,35,40,0,0
170384,-100,4,2,35,50,0,0
170993,-66.6666666666667,4,2,35,52,0,0
171603,-66.6666666666667,4,2,35,54,0,0
171907,-66.6666666666667,4,2,35,56,0,0
172212,-66.6666666666667,4,2,35,58,0,0
172516,-66.6666666666667,4,2,35,60,0,0
174039,-66.6666666666667,4,2,35,74,0,0
174344,-66.6666666666667,4,2,35,66,0,0
174496,-66.6666666666667,4,2,35,68,0,0
174648,-66.6666666666667,4,2,35,70,0,0
174801,-66.6666666666667,4,2,35,72,0,0
174953,-66.6666666666667,4,2,35,74,0,0
175105,-66.6666666666667,4,2,35,76,0,0
175257,-66.6666666666667,4,2,34,78,0,0
175714,-66.6666666666667,4,2,35,78,0,1
182567,-66.6666666666667,4,2,34,78,0,1
183024,-66.6666666666667,4,2,35,78,0,1
191400,-66.6666666666667,4,2,35,72,0,1
191552,-66.6666666666667,4,2,35,74,0,1
191856,-66.6666666666667,4,2,35,76,0,1
192161,-66.6666666666667,4,2,35,78,0,1
192313,-66.6666666666667,4,2,34,78,0,1
192770,-66.6666666666667,4,2,35,78,0,0
202059,-66.6666666666667,4,2,34,78,0,0
202516,-66.6666666666667,4,2,35,78,0,0
205181,-66.6666666666667,4,2,35,38,0,0
205257,-66.6666666666667,4,2,35,78,0,0
206933,-66.6666666666667,4,2,35,79,0,0
209369,-66.6666666666667,4,2,35,80,0,0
211653,-66.6666666666667,4,2,35,74,0,0
211806,-66.6666666666667,4,2,35,60,0,0
212872,-66.6666666666667,4,2,35,35,0,0
213024,-66.6666666666667,4,2,35,60,0,0
214090,-66.6666666666667,4,2,35,35,0,0
214242,-66.6666666666667,4,2,35,60,0,0
216526,-1000,4,2,35,50,0,0
216831,-66.6666666666667,4,2,34,68,0,0
217136,-66.6666666666667,4,2,35,68,0,0
226729,-66.6666666666667,4,2,35,37,0,0
226882,-66.6666666666667,4,2,35,38,0,0
227034,-66.6666666666667,4,2,35,39,0,0
227186,-66.6666666666667,4,2,35,40,0,0
227339,-66.6666666666667,4,2,35,41,0,0
227491,-66.6666666666667,4,2,35,42,0,0
227643,-66.6666666666667,4,2,35,60,0,0
227948,-66.6666666666667,4,2,35,40,0,0

[Colours]
Combo1 : 250,190,230
Combo2 : 130,200,230
Combo3 : 255,230,140
Combo4 : 170,245,170

[HitObjects]
128,207,10334,6,0,B|157:180|215:181|215:181|276:217|351:186,1,225,2|14,0:0|0:1,0:0:0:0:
340,188,11095,1,0,0:0:0:0:
400,241,11247,2,0,B|401:267|401:267|386:340,1,75,0|0,0:0|0:0,0:0:0:0:
479,177,11552,2,0,P|432:172|416:136,1,75,0|0,0:0|0:0,0:0:0:0:
403,241,11856,1,0,0:0:0:0:
487,168,12009,2,0,P|425:149|318:172,1,150,0|0,0:0|0:0,0:0:0:0:
237,65,12466,2,0,P|278:84|268:133,1,75,0|0,0:0|0:0,0:0:0:0:
270,186,12770,5,8,0:0:0:0:
116,212,12922,1,8,0:1:0:0:
196,216,13075,1,8,0:0:0:0:
45,180,13227,5,12,0:1:0:0:
45,180,13532,1,0,0:0:0:0:
8,251,13684,2,0,B|30:271|30:271|42:334,1,75,0|0,0:0|0:0,0:0:0:0:
168,317,13988,2,0,P|131:320|119:277,1,75,0|0,0:0|0:0,0:0:0:0:
43,324,14293,1,0,0:0:0:0:
173,310,14445,6,0,B|235:306|235:306|251:315|251:315|309:310|309:310|336:287,1,150,0|0,0:0|0:0,0:0:0:0:
339,231,14902,1,0,0:0:0:0:
130,179,15054,5,8,0:1:0:0:
122,182,15131,1,8,0:1:0:0:
115,184,15207,1,8,0:0:0:0:
263,199,15359,2,0,B|211:209|211:209|193:223,1,75,8|0,0:1|0:0,0:0:0:0:
495,172,15664,5,14,0:1:0:0:
495,172,15968,1,0,0:0:0:0:
398,62,16120,2,0,B|416:80|416:80|432:150,1,75,8|0,0:1|0:0,0:0:0:0:
364,278,16425,1,8,0:0:0:0:
400,200,16577,2,0,L|381:294,1,75,8|0,0:1|0:0,0:0:0:0:
208,118,16882,6,0,P|280:115|314:206,1,150,14|0,0:1|0:0,0:0:0:0:
139,25,17339,1,8,0:1:0:0:
139,35,17415,1,8,0:1:0:0:
139,45,17491,1,8,0:1:0:0:
124,213,17643,1,8,0:0:0:0:
108,125,17795,2,0,L|114:223,1,75,8|0,0:1|0:0,0:0:0:0:
35,350,18100,6,0,P|82:305|193:314,1,150,14|0,0:1|0:0,0:0:0:0:
244,355,18557,1,10,3:2:0:0:
283,272,18709,1,0,3:0:0:0:
285,262,18785,1,0,3:0:0:0:
288,250,18861,1,8,3:1:0:0:
197,190,19014,1,0,3:0:0:0:
199,200,19090,1,0,3:0:0:0:
202,212,19166,1,8,3:2:0:0:
376,330,19318,6,0,B|374:269|374:269|394:237|394:237|389:166,1,150,2|0,3:2|3:0,0:0:0:0:
392,152,19699,1,0,3:0:0:0:
389,128,19775,1,8,3:2:0:0:
351,141,19851,1,0,3:0:0:0:
301,148,19927,1,0,3:0:0:0:
259,128,20004,1,0,3:0:0:0:
231,84,20080,6,0,L|208:81,1,22.5,2|0,0:0|0:0,0:0:0:0:
482,312,20689,6,0,P|396:303|236:289,1,225.000008583069,14|8,0:1|0:0,0:0:0:0:
169,377,21146,1,0,0:0:0:0:
108,206,21298,2,0,P|50:189|-14:172,1,112.500004291535,8|2,0:1|0:0,0:0:0:0:
319,69,21603,5,8,0:0:0:0:
302,150,21755,2,0,P|345:76|498:79,1,225.000008583069,2|0,0:0|0:0,0:0:0:0:
169,80,22212,2,0,P|200:153|215:216,1,112.500004291535,10|0,0:0|0:0,0:0:0:0:
2,52,22516,1,10,0:1:0:0:
95,10,22669,1,2,0:1:0:0:
13,272,22821,5,10,0:0:0:0:
18,174,22973,2,0,P|37:272|153:251,1,225.000008583069,10|8,0:1|0:1,0:0:0:0:
291,366,23430,2,0,P|255:318|224:236,1,112.500004291535,10|0,0:0|0:0,0:0:0:0:
206,180,23735,1,10,0:1:0:0:
262,92,23887,1,2,0:0:0:0:
421,111,24039,5,8,0:0:0:0:
365,50,24191,2,0,P|374:141|379:297,1,225.000008583069,2|0,0:0|0:0,0:0:0:0:
318,173,24648,2,0,P|365:148|429:120,1,112.500004291535,8|0,0:0|0:0,0:0:0:0:
466,208,24953,1,10,0:1:0:0:
274,104,25105,1,10,0:1:0:0:
482,48,25257,1,8,0:0:0:0:
219,221,25410,6,0,P|182:133|31:158,1,225.000008583069,14|8,0:1|0:1,0:0:0:0:
284,304,25867,1,10,0:0:0:0:
345,229,26019,1,0,0:0:0:0:
187,308,26171,2,0,P|125:297|64:291,1,112.500004291535,10|2,0:1|0:0,0:0:0:0:
504,346,26476,5,8,0:0:0:0:
423,379,26628,2,0,P|428:302|437:143,1,225.000008583069,2|0,0:0|0:0,0:0:0:0:
386,297,27085,1,10,0:0:0:0:
471,236,27237,1,0,0:0:0:0:
311,113,27389,2,0,P|327:174|339:231,1,112.500004291535,10|2,0:1|0:0,0:0:0:0:
71,106,27694,5,10,0:0:0:0:
217,48,27846,2,0,P|192:169|94:172,1,225.000008583069,14|8,0:1|0:1,0:0:0:0:
116,264,28303,1,10,3:2:0:0:
101,287,28379,1,0,3:0:0:0:
78,303,28455,1,0,3:0:0:0:
51,312,28531,1,0,3:0:0:0:
24,311,28607,5,8,3:1:0:0:
40,279,28684,1,0,3:0:0:0:
81,263,28760,1,0,3:0:0:0:
126,268,28836,1,0,3:0:0:0:
172,295,28912,1,8,3:1:0:0:
222,315,28988,1,0,3:0:0:0:
272,287,29065,6,0,P|185:320|152:393,1,168.750006437302,2|0,3:2|0:0,0:0:0:0:
211,214,29369,2,0,P|203:179|184:144,1,56.2500021457673,2|0,3:2|3:0,0:0:0:0:
311,146,29521,2,0,P|299:187|291:233,1,56.2500021457673,8|0,0:0|0:0,0:0:0:0:
506,223,29674,2,0,P|405:267|327:261,1,168.750006437302,2|0,3:2|0:0,0:0:0:0:
396,370,29978,2,0,P|368:354|327:343,1,56.2500021457673,2|0,3:2|3:0,0:0:0:0:
509,318,30131,2,0,P|485:358|477:386,1,56.2500021457673,8|0,3:2|0:0,0:0:0:0:
502,145,30283,2,0,P|480:94|453:4,1,112.500004291535,2|14,1:2|0:1,0:0:0:0:
459,46,30740,5,10,0:0:0:0:
385,27,30892,1,0,0:0:0:0:
311,49,31044,1,2,0:0:0:0:
262,105,31197,1,0,0:0:0:0:
129,118,31349,5,10,0:0:0:0:
148,191,31501,1,2,0:2:0:0:
148,191,31806,1,0,0:0:0:0:
119,260,31958,1,10,0:0:0:0:
49,287,32110,1,0,0:0:0:0:
119,260,32262,1,2,0:0:0:0:
182,310,32415,1,8,0:1:0:0:
299,265,32567,5,10,0:0:0:0:
314,188,32719,1,8,0:1:0:0:
314,188,33024,1,8,0:1:0:0:
374,138,33176,5,10,0:0:0:0:
374,138,33481,1,2,0:0:0:0:
234,90,33633,1,0,0:0:0:0:
312,83,33785,1,8,0:0:0:0:
194,152,33938,1,0,0:0:0:0:
48,105,34090,5,2,0:0:0:0:
87,229,34242,1,0,0:0:0:0:
110,158,34394,1,8,0:0:0:0:
18,265,34547,1,0,0:0:0:0:
190,324,34699,5,2,0:0:0:0:
110,312,34851,1,8,0:1:0:0:
256,278,35004,1,10,0:0:0:0:
512,246,35308,5,8,0:1:0:0:
512,246,35613,1,10,0:0:0:0:
321,199,35765,1,0,0:0:0:0:
447,196,35917,1,2,0:0:0:0:
391,250,36070,1,0,0:0:0:0:
456,113,36222,5,10,0:0:0:0:
380,123,36374,1,2,0:2:0:0:
380,123,36679,1,0,0:0:0:0:
307,89,36831,1,10,0:0:0:0:
265,18,36983,1,0,0:0:0:0:
307,89,37136,1,2,0:0:0:0:
278,158,37288,1,8,0:1:0:0:
139,165,37440,5,10,0:0:0:0:
183,231,37592,1,8,0:1:0:0:
183,231,37897,1,10,0:1:0:0:
151,298,38049,5,10,0:0:0:0:
2,246,38354,1,2,0:0:0:0:
440,205,38658,1,10,0:0:0:0:
50,44,38963,6,0,L|22:26,1,28.1250010728836,2|0,0:3|0:0,0:0:0:0:
168,73,39115,2,0,L|140:55,1,28.1250010728836,2|0,0:3|0:0,0:0:0:0:
172,191,39268,2,0,L|132:176,1,28.1250010728836,2|0,0:3|0:0,0:0:0:0:
296,196,39420,2,0,L|303:153,1,28.1250010728836,2|0,0:3|0:0,0:0:0:0:
276,347,39572,2,0,L|235:369,1,28.1250010728836,2|0,0:3|0:0,0:0:0:0:
452,310,39724,2,0,L|482:283,1,28.1250010728836,2|0,0:3|0:0,0:0:0:0:
399,378,39877,1,2,0:3:0:0:
399,378,40029,1,2,0:3:0:0:
499,180,40181,6,0,P|428:176|384:43,1,225.000008583069,14|10,0:1|0:0,0:0:0:0:
336,227,40638,1,8,0:1:0:0:
261,168,40790,1,10,0:1:0:0:
158,159,40943,1,8,0:1:0:0:
311,349,41095,5,10,0:0:0:0:
209,339,41247,2,0,P|273:326|469:294,1,225.000008583069,8|10,0:1|0:1,0:0:0:0:
45,315,41704,1,8,0:0:0:0:
134,277,41856,1,8,0:1:0:0:
224,245,42009,1,10,0:1:0:0:
231,243,42085,1,8,0:1:0:0:
238,239,42161,1,8,0:1:0:0:
114,40,42313,5,10,0:0:0:0:
33,69,42466,2,0,P|120:73|143:203,1,225.000008583069,8|10,0:1|0:1,0:0:0:0:
226,10,42922,1,8,0:0:0:0:
374,137,43075,1,8,0:1:0:0:
270,102,43227,1,10,0:1:0:0:
259,107,43303,1,8,0:1:0:0:
249,113,43379,1,8,0:1:0:0:
467,107,43532,1,10,0:0:0:0:
374,137,43684,1,8,0:1:0:0:
432,292,43836,5,10,0:1:0:0:
508,230,43988,1,8,0:1:0:0:
329,287,44141,1,10,0:0:0:0:
149,235,44293,5,8,0:1:0:0:
150,227,44369,1,4,0:3:0:0:
151,217,44445,1,10,0:1:0:0:
198,323,44598,1,8,0:1:0:0:
68,161,44750,1,10,0:0:0:0:
246,194,44902,6,0,B|121:208|159:283|-1:265,1,225.000008583069,12|10,0:1|0:1,0:0:0:0:
339,121,45359,2,0,P|282:81|213:56,1,112.500004291535,8|8,0:0|0:1,0:0:0:0:
500,239,45664,1,2,0:0:0:0:
454,137,45816,1,8,0:1:0:0:
273,295,45968,5,10,0:0:0:0:
416,351,46120,2,0,P|337:356|347:224,1,225.000008583069,0|10,0:0|0:1,0:0:0:0:
147,261,46577,2,0,P|177:312|201:400,1,112.500004291535,8|8,0:0|0:1,0:0:0:0:
9,145,46882,1,2,0:0:0:0:
104,11,47034,1,8,0:1:0:0:
244,94,47186,1,8,0:0:0:0:
49,253,47339,6,0,B|35:239|8:233|8:233|54:210|105:232|105:232|158:254|206:211,1,225.000008583069,10|8,0:1|0:1,0:0:0:0:
439,103,47795,2,0,P|380:119|332:165,1,112.500004291535,10|0,0:0|0:0,0:0:0:0:
387,375,48100,2,0,P|315:352|286:297,1,112.500004291535,10|10,0:1|0:1,0:0:0:0:
487,16,48405,5,10,0:0:0:0:
410,267,48557,2,0,L|366:6,1,225.000008583069,14|8,0:1|0:1,0:0:0:0:
497,347,49014,1,8,0:0:0:0:
226,197,49166,5,8,0:1:0:0:
244,188,49242,1,8,0:1:0:0:
262,181,49319,1,10,0:0:0:0:
11,259,49471,1,8,0:1:0:0:
11,259,49775,6,0,P|88:264|190:392,1,225.000008583069,14|8,0:1|0:1,0:0:0:0:
27,153,50232,1,0,0:0:0:0:
150,159,50384,2,0,P|71:165|73:29,1,225.000008583069,8|8,0:0|0:1,0:0:0:0:
59,36,50765,1,8,0:1:0:0:
71,27,50841,1,8,0:0:0:0:
272,38,50993,6,0,P|251:134|229:272,1,225.000008583069,10|8,0:1|0:1,0:0:0:0:
179,52,51450,1,2,0:0:0:0:
343,124,51603,2,0,P|328:191|315:255,1,112.500004291535,8|2,0:0|0:0,0:0:0:0:
300,328,51907,1,8,0:1:0:0:
132,243,52059,5,10,0:0:0:0:
128,361,52212,2,0,P|120:276|-11:259,1,225.000008583069,14|8,0:1|0:1,0:0:0:0:
231,262,52669,5,10,0:0:0:0:
222,185,52821,1,8,0:1:0:0:
178,121,52973,1,10,0:1:0:0:
172,115,53049,1,8,0:1:0:0:
165,108,53125,1,8,0:1:0:0:
115,50,53278,1,10,0:0:0:0:
42,32,53430,1,8,0:1:0:0:
307,189,53582,5,10,0:1:0:0:
354,48,53735,1,8,0:1:0:0:
312,115,53887,1,10,0:0:0:0:
424,17,54039,1,8,0:1:0:0:
228,31,54191,5,10,0:0:0:0:
313,278,54344,1,8,0:1:0:0:
313,278,54648,6,0,P|422:258|443:372,1,225.000008583069,14|8,0:1|0:1,0:0:0:0:
204,156,55105,2,0,P|216:217|241:394,1,225.000008583069,8|2,0:0|0:0,0:0:0:0:
89,82,55562,1,8,0:1:0:0:
60,332,55714,5,8,0:0:0:0:
24,193,55867,2,0,P|65:309|134:248,1,225.000008583069,10|8,0:1|0:1,0:0:0:0:
310,214,56323,2,0,P|266:217|184:224,1,112.500004291535,10|0,0:0|0:0,0:0:0:0:
469,153,56628,2,0,P|419:129|338:103,1,112.500004291535,2|8,0:0|0:1,0:0:0:0:
446,273,56933,5,8,0:0:0:0:
447,28,57085,1,14,0:1:0:0:
447,28,57389,5,0,0:0:0:0:
372,18,57542,1,2,3:0:0:0:
301,41,57694,1,0,0:0:0:0:
301,41,57770,2,0,P|252:54|184:42,1,112.5,2|2,3:0|0:0,0:0:0:0:
120,17,58151,1,2,3:3:0:0:
47,35,58303,5,14,0:1:0:0:
472,358,58608,1,14,0:1:0:0:
135,114,58912,5,10,0:1:0:0:
360,281,59065,2,0,L|326:260,2,28.1250010728836,10|0|0,0:0|0:0|0:0,0:0:0:0:
260,208,59217,2,0,L|187:156,1,56.2500021457673,10|0,0:0|0:0,0:0:0:0:
214,175,59521,6,0,P|150:290|77:246,1,225.000008583069,14|8,0:1|0:1,0:0:0:0:
322,137,59978,2,0,P|294:89|268:10,1,112.500004291535,10|0,0:0|0:0,0:0:0:0:
433,163,60283,1,10,0:1:0:0:
507,84,60435,1,2,0:2:0:0:
340,366,60587,5,8,0:0:0:0:
489,307,60740,2,0,B|374:281|403:360|264:330,1,225.000008583069,2|0,0:0|0:0,0:0:0:0:
405,275,61197,1,10,0:0:0:0:
190,378,61349,1,2,0:0:0:0:
340,366,61501,1,10,0:1:0:0:
76,324,61653,1,10,0:1:0:0:
196,247,61806,5,8,0:0:0:0:
189,260,61882,1,8,0:1:0:0:
184,269,61958,2,0,P|163:197|295:175,1,225.000008583069,10|8,0:1|0:1,0:0:0:0:
63,239,62415,2,0,P|41:176|16:107,1,112.500004291535,10|2,0:0|0:0,0:0:0:0:
304,249,62719,1,10,0:1:0:0:
186,284,62872,1,2,0:0:0:0:
68,251,63024,1,10,0:0:0:0:
422,284,63176,6,0,P|426:190|442:54,1,225.000008583069,2|0,0:0|0:0,0:0:0:0:
186,194,63633,2,0,P|172:121|156:53,1,112.500004291535,10|2,0:0|0:1,0:0:0:0:
309,196,63938,1,8,0:0:0:0:
274,74,64090,1,10,0:1:0:0:
338,311,64242,1,8,0:0:0:0:
48,275,64394,6,0,B|176:266|137:359|258:352,1,225.000008583069,14|8,0:1|0:1,0:0:0:0:
3,344,64851,1,10,0:0:0:0:
265,264,65004,1,2,0:0:0:0:
21,182,65156,2,0,P|100:182|172:160,1,112.500004291535,10|0,0:1|0:0,0:0:0:0:
201,9,65460,5,8,0:0:0:0:
41,48,65613,2,0,P|146:16|226:124,1,225.000008583069,2|0,0:0|0:0,0:0:0:0:
436,122,66070,2,0,P|402:176|384:233,1,112.500004291535,8|0,0:0|0:1,0:0:0:0:
295,30,66374,1,10,0:1:0:0:
321,132,66526,1,0,0:0:0:0:
268,315,66679,5,8,0:0:0:0:
263,306,66755,1,8,0:1:0:0:
257,296,66831,2,0,B|300:283|364:308|364:308|400:346|486:343,1,225.000008583069,14|8,0:1|0:1,0:0:0:0:
131,183,67288,1,10,0:0:0:0:
253,187,67440,1,10,0:1:0:0:
27,377,67592,1,10,0:0:0:0:
42,260,67745,1,8,0:1:0:0:
46,251,67821,1,8,0:1:0:0:
50,244,67897,1,10,0:0:0:0:
337,198,68049,6,0,P|240:206|188:357,1,225.000008583069,14|8,0:1|0:1,0:0:0:0:
478,191,68506,2,0,P|489:256|502:327,1,112.500004291535,8|8,0:0|0:1,0:0:0:0:
392,99,68811,1,8,0:3:0:0:
377,78,68887,1,8,0:3:0:0:
363,60,68963,1,4,0:3:0:0:
236,21,69115,1,8,0:0:0:0:
72,177,69268,6,0,B|190:173|157:260|296:250,1,225.000008583069,14|8,0:1|0:1,0:0:0:0:
19,345,69724,2,0,P|72:323|176:308,1,112.500004291535,10|0,0:0|0:0,0:0:0:0:
273,356,70029,1,10,0:1:0:0:
415,308,70181,1,2,0:0:0:0:
293,151,70334,5,10,0:2:0:0:
407,175,70486,2,0,P|349:140|168:96,1,225.000008583069,2|0,0:0|0:0,0:0:0:0:
448,88,70943,1,10,0:0:0:0:
293,151,71095,1,2,0:0:0:0:
499,237,71247,1,10,0:1:0:0:
409,165,71400,1,10,0:1:0:0:
236,254,71552,5,8,0:0:0:0:
245,261,71628,1,8,0:1:0:0:
251,267,71704,2,0,P|212:200|54:212,1,225.000008583069,10|8,0:1|0:1,0:0:0:0:
325,371,72161,2,0,P|332:296|352:228,1,112.500004291535,10|0,0:0|0:0,0:0:0:0:
17,336,72466,2,0,B|141:312|93:393|244:356,1,225.000008583069,10|8,0:1|0:0,0:0:0:0:
512,117,72922,6,0,P|420:91|352:212,1,225.000008583069,2|0,0:0|0:0,0:0:0:0:
197,7,73379,2,0,P|239:81|268:154,1,112.500004291535,10|8,0:0|0:1,0:0:0:0:
61,231,73684,1,8,0:0:0:0:
196,210,73836,1,8,0:1:0:0:
289,312,73988,1,8,0:0:0:0:
7,132,74141,6,0,P|25:217|50:366,1,225.000008583069,14|8,0:1|0:1,0:0:0:0:
120,112,74598,2,0,P|102:40|91:-11,1,112.500004291535,10|2,0:0|0:0,0:0:0:0:
368,206,74902,2,0,P|286:192|254:55,1,225.000008583069,10|8,0:1|0:0,0:0:0:0:
499,311,75359,6,0,B|376:293|403:370|238:322,1,225.000008583069,2|0,0:0|0:0,0:0:0:0:
126,210,75816,2,0,P|153:267|166:351,1,112.500004291535,10|0,0:0|0:0,0:0:0:0:
368,206,76120,1,10,0:1:0:0:
247,69,76273,5,10,0:1:0:0:
244,79,76349,1,8,0:1:0:0:
240,90,76425,1,8,0:0:0:0:
85,68,76577,2,0,P|171:70|225:200,1,225.000008583069,14|8,0:1|0:1,0:0:0:0:
341,6,77034,1,10,3:2:0:0:
349,19,77339,5,10,3:1:0:0:
361,44,77415,1,0,3:1:0:0:
361,76,77491,1,0,3:1:0:0:
345,112,77567,1,0,3:1:0:0:
331,148,77643,1,8,3:2:0:0:
328,192,77719,1,0,0:0:0:0:
342,241,77795,1,2,3:1:0:0:
381,276,77872,1,0,3:0:0:0:
436,273,77948,5,8,3:2:0:0:
424,220,78024,1,0,3:0:0:0:
382,195,78100,1,0,3:0:0:0:
341,189,78176,1,0,3:0:0:0:
304,208,78252,1,8,3:2:0:0:
272,224,78328,1,0,3:0:0:0:
241,223,78405,1,0,3:0:0:0:
217,207,78481,1,0,3:0:0:0:
214,180,78557,6,0,P|226:207|235:250,1,56.2500021457673,8|0,3:2|3:0,0:0:0:0:
222,310,78709,2,0,P|210:346|192:377,1,56.2500021457673,0|0,3:0|3:0,0:0:0:0:
128,384,78861,1,8,3:2:0:0:
9,270,79014,6,0,B|144:254|96:330|251:301,1,225,14|0,0:1|0:0,0:0:0:0:
324,272,79775,1,0,0:0:0:0:
324,272,79927,1,0,0:0:0:0:
162,32,80232,6,0,P|241:38|287:169,1,225,14|0,0:1|0:0,0:0:0:0:
392,169,80993,1,0,0:0:0:0:
392,169,81298,1,0,0:0:0:0:
462,47,81450,5,14,0:1:0:0:
57,342,81755,1,14,0:1:0:0:
468,42,82059,1,14,0:1:0:0:
52,345,82364,1,14,0:1:0:0:
475,33,82669,1,14,0:1:0:0:
252,101,82973,5,10,0:1:0:0:
257,131,83049,1,10,0:1:0:0:
265,166,83125,1,10,0:0:0:0:
217,252,83278,1,8,0:1:0:0:
148,187,83430,5,10,0:2:0:0:
282,309,83582,1,8,0:1:0:0:
350,101,83735,6,0,L|358:88,1,15,2|14,0:0|0:1,0:0:0:0:
364,79,84191,5,0,0:0:0:0:
430,132,84344,1,0,0:0:0:0:
404,202,84496,1,8,0:1:0:0:
430,132,84648,1,8,0:0:0:0:
505,110,84801,1,8,0:1:0:0:
512,227,84953,5,0,0:0:0:0:
491,299,85105,1,8,0:1:0:0:
491,299,85410,1,8,0:0:0:0:
419,332,85562,1,0,0:0:0:0:
323,311,85714,1,8,0:1:0:0:
285,212,85867,1,8,0:0:0:0:
155,196,86019,1,8,0:0:0:0:
82,265,86171,5,8,0:1:0:0:
107,342,86323,1,2,0:2:0:0:
107,342,86628,1,0,0:0:0:0:
82,265,86780,1,0,0:0:0:0:
17,223,86933,1,8,0:1:0:0:
82,265,87085,1,8,0:0:0:0:
107,342,87237,1,8,0:1:0:0:
214,358,87389,5,0,0:0:0:0:
238,286,87542,1,8,0:1:0:0:
238,286,87846,1,8,0:0:0:0:
234,208,87999,1,0,0:0:0:0:
179,122,88151,1,8,0:1:0:0:
52,103,88303,1,8,0:0:0:0:
179,122,88455,1,8,0:0:0:0:
264,88,88608,5,8,0:1:0:0:
284,16,88760,1,2,0:2:0:0:
284,16,89065,1,0,0:0:0:0:
264,88,89217,1,0,0:0:0:0:
312,150,89369,1,8,0:1:0:0:
264,88,89521,1,8,0:0:0:0:
312,150,89674,1,8,0:1:0:0:
424,121,89826,5,0,0:0:0:0:
446,46,89978,1,8,0:1:0:0:
446,46,90283,1,8,0:0:0:0:
424,121,90435,1,0,0:0:0:0:
421,224,90587,1,8,0:1:0:0:
423,238,90664,1,8,0:1:0:0:
426,250,90740,1,8,0:0:0:0:
472,342,90892,1,8,0:0:0:0:
381,383,91044,5,8,0:1:0:0:
316,339,91197,1,2,0:2:0:0:
316,339,91501,1,0,0:0:0:0:
221,318,91653,1,0,0:0:0:0:
128,352,91806,1,8,0:1:0:0:
221,318,91958,1,8,0:0:0:0:
251,226,92110,1,8,0:1:0:0:
163,122,92262,5,0,0:0:0:0:
297,137,92415,1,8,0:1:0:0:
388,30,92567,1,8,0:0:0:0:
388,30,92719,1,8,0:1:0:0:
7,231,93024,5,8,0:1:0:0:
141,242,93176,1,8,0:0:0:0:
141,242,93328,1,8,0:1:0:0:
348,358,93481,5,2,0:2:0:0:
482,366,93633,2,0,L|444:364,1,37.5,2|2,0:2|0:2,0:0:0:0:
161,343,93785,5,14,0:1:0:0:
253,304,93938,1,8,0:1:0:0:
303,218,94090,1,10,0:0:0:0:
300,121,94242,1,8,0:1:0:0:
243,50,94394,1,10,0:1:0:0:
236,44,94471,1,8,0:1:0:0:
229,39,94547,1,8,0:1:0:0:
57,111,94699,5,10,0:0:0:0:
55,254,94851,2,0,P|98:112|126:26,1,225.000008583069,8|10,0:1|0:1,0:0:0:0:
173,171,95308,1,8,0:0:0:0:
189,264,95460,1,8,0:1:0:0:
155,344,95613,1,10,0:1:0:0:
151,353,95689,1,8,0:1:0:0:
146,362,95765,1,8,0:1:0:0:
302,381,95917,5,10,0:0:0:0:
331,290,96070,2,0,P|364:221|503:271,1,225.000008583069,8|10,0:1|0:1,0:0:0:0:
312,157,96526,1,8,0:0:0:0:
378,96,96679,1,8,0:1:0:0:
168,97,96831,5,10,0:1:0:0:
172,107,96907,1,8,0:1:0:0:
177,115,96983,1,8,0:1:0:0:
174,257,97136,1,10,0:0:0:0:
233,186,97288,1,8,0:1:0:0:
278,346,97440,5,10,0:1:0:0:
392,238,97592,1,8,0:1:0:0:
302,268,97745,1,10,0:0:0:0:
484,267,97897,1,8,0:1:0:0:
379,95,98049,5,10,0:1:0:0:
382,104,98125,1,8,0:1:0:0:
385,115,98202,1,8,0:1:0:0:
290,65,98354,1,10,0:0:0:0:
512,106,98506,6,0,P|342:156|296:175,1,225.000008583069,12|10,0:1|0:1,0:0:0:0:
221,233,98963,1,8,0:0:0:0:
131,241,99115,1,8,0:1:0:0:
56,192,99268,1,2,0:0:0:0:
36,100,99420,1,8,0:1:0:0:
12,308,99572,5,10,0:0:0:0:
108,321,99724,2,0,P|172:333|341:391,1,225.000008583069,2|10,0:2|0:1,0:0:0:0:
400,314,100181,5,8,0:0:0:0:
306,166,100334,1,8,0:1:0:0:
324,255,100486,1,2,0:0:0:0:
365,85,100638,1,8,0:1:0:0:
206,151,100790,1,8,0:0:0:0:
445,233,100943,6,0,P|463:156|508:-2,1,225.000008583069,10|8,0:1|0:1,0:0:0:0:
243,358,101400,2,0,P|233:267|230:236,1,112.500004291535,10|0,0:0|0:0,0:0:0:0:
53,196,101704,2,0,P|35:105|27:56,1,112.500004291535,10|10,0:1|0:1,0:0:0:0:
344,38,102009,5,10,0:0:0:0:
151,120,102161,2,0,P|225:128|392:161,1,225.000008583069,14|8,0:1|0:1,0:0:0:0:
99,270,102618,1,8,0:0:0:0:
331,286,102770,1,8,0:1:0:0:
321,267,102846,1,8,0:1:0:0:
310,244,102922,1,10,0:0:0:0:
494,367,103075,1,8,0:1:0:0:
494,367,103379,6,0,P|490:273|488:115,1,225.000008583069,14|8,0:1|0:1,0:0:0:0:
272,101,103836,1,0,0:0:0:0:
353,31,103988,2,0,P|374:101|393:178,1,112.500004291535,8|2,0:0|0:0,0:0:0:0:
346,234,104293,1,8,0:1:0:0:
140,255,104445,5,8,0:0:0:0:
221,203,104598,2,0,P|160:227|59:116,1,225.000008583069,10|8,0:1|0:1,0:0:0:0:
269,297,105054,1,2,0:0:0:0:
82,343,105207,2,0,P|144:346|225:377,1,112.500004291535,8|2,0:0|0:0,0:0:0:0:
415,320,105511,5,8,0:1:0:0:
417,309,105587,1,0,0:0:0:0:
422,296,105664,1,10,0:0:0:0:
499,357,105816,2,0,P|454:287|295:234,1,225.000008583069,14|8,0:1|0:1,0:0:0:0:
399,62,106273,5,10,0:0:0:0:
320,75,106425,1,8,0:1:0:0:
259,121,106577,1,10,0:1:0:0:
254,129,106653,1,8,0:1:0:0:
249,139,106729,1,8,0:1:0:0:
216,209,106882,1,10,0:0:0:0:
211,284,107034,1,8,0:1:0:0:
11,141,107186,5,10,0:1:0:0:
77,185,107339,1,8,0:1:0:0:
108,257,107491,1,10,0:0:0:0:
113,335,107643,1,8,0:1:0:0:
6,256,107795,5,10,0:0:0:0:
313,225,107948,1,8,0:1:0:0:
313,225,108252,6,0,B|411:230|368:283|479:280,1,168.750006437302,14|0,0:1|0:0,0:0:0:0:
265,133,109014,2,0,P|211:143|134:158,1,112.500004291535,0|0,0:0|0:0,0:0:0:0:
363,39,109471,5,14,0:1:0:0:
418,87,109927,1,0,0:0:0:0:
448,156,110232,1,0,0:0:0:0:
449,230,110384,1,0,0:0:0:0:
424,301,110537,1,0,0:0:0:0:
369,351,110689,1,14,0:1:0:0:
369,351,110993,5,0,0:0:0:0:
293,336,111146,1,2,3:0:0:0:
217,351,111298,1,0,0:0:0:0:
217,351,111374,2,0,P|185:304|136:251,1,112.5,2|2,3:0|0:0,0:0:0:0:
81,288,111755,1,2,0:2:0:0:
26,340,111907,5,14,0:1:0:0:
487,28,112212,1,14,0:1:0:0:
155,261,112516,5,10,0:1:0:0:
380,94,112669,2,0,L|346:115,2,28.1250010728836,10|0|0,0:0|0:0|0:0,0:0:0:0:
280,167,112821,2,0,L|207:219,1,56.2500021457673,10|0,0:0|0:0,0:0:0:0:
234,199,113125,6,0,P|210:116|66:93,1,225.000008583069,14|8,0:1|0:1,0:0:0:0:
342,229,113582,2,0,P|314:277|288:356,1,112.500004291535,10|0,0:0|0:0,0:0:0:0:
409,384,113887,1,10,0:1:0:0:
492,279,114039,1,2,0:1:0:0:
380,94,114191,5,8,0:0:0:0:
292,110,114344,2,0,B|407:84|378:163|517:133,1,225.000008583069,2|0,0:0|0:0,0:0:0:0:
178,57,114801,1,10,0:0:0:0:
103,162,114953,1,0,0:0:0:0:
0,89,115105,5,10,0:1:0:0:
195,227,115257,1,10,0:1:0:0:
128,285,115410,5,8,0:0:0:0:
115,278,115486,1,8,0:1:0:0:
106,272,115562,2,0,P|178:251|200:383,1,225.000008583069,10|8,0:1|0:1,0:0:0:0:
334,149,116019,2,0,P|322:209|314:265,1,112.500004291535,10|2,0:0|0:0,0:0:0:0:
85,143,116323,1,10,0:1:0:0:
175,14,116476,1,2,0:0:0:0:
325,43,116628,1,8,0:0:0:0:
0,106,116780,6,0,P|94:110|230:126,1,225.000008583069,2|0,0:0|0:0,0:0:0:0:
68,277,117237,2,0,P|151:239|212:219,1,112.500004291535,10|2,0:2|0:1,0:0:0:0:
271,351,117542,1,8,0:0:0:0:
442,213,117694,1,10,0:1:0:0:
414,316,117846,1,8,0:0:0:0:
284,29,117999,6,0,P|305:101|340:252,1,225.000008583069,14|8,0:1|0:1,0:0:0:0:
221,142,118455,1,10,0:0:0:0:
393,93,118608,1,2,0:0:0:0:
332,264,118760,2,0,P|317:196|296:112,1,112.500004291535,10|0,0:1|0:0,0:0:0:0:
122,282,119064,5,8,0:0:0:0:
0,225,119217,2,0,B|129:196|90:282|255:226,1,225.000008583069,2|0,0:0|0:0,0:0:0:0:
40,38,119674,2,0,P|93:85|123:150,1,112.500004291535,8|0,0:0|0:0,0:0:0:0:
48,323,119978,1,10,0:1:0:0:
0,215,120130,1,0,0:0:0:0:
352,297,120283,5,8,0:0:0:0:
357,288,120359,1,8,0:1:0:0:
365,277,120435,2,0,P|313:258|194:359,1,225.000008583069,14|8,0:1|0:1,0:0:0:0:
467,266,120892,1,10,0:0:0:0:
283,233,121044,1,10,0:1:0:0:
509,357,121197,1,10,0:0:0:0:
386,197,121349,1,8,0:1:0:0:
390,188,121425,1,8,0:1:0:0:
394,181,121501,1,10,0:0:0:0:
146,253,121653,6,0,P|243:261|295:412,1,225.000008583069,14|8,0:1|0:1,0:0:0:0:
136,135,122110,2,0,P|61:129|-28:132,1,112.500004291535,8|8,0:0|0:1,0:0:0:0:
289,82,122415,1,8,2:3:0:0:
321,65,122491,1,8,2:3:0:0:
361,54,122567,1,4,2:3:0:0:
494,155,122719,1,8,2:2:0:0:
393,378,122872,6,0,P|387:302|358:129,1,225.000008583069,14|8,0:1|0:1,0:0:0:0:
164,306,123328,2,0,P|217:284|321:269,1,112.500004291535,10|0,0:0|0:0,0:0:0:0:
477,254,123633,1,10,0:1:0:0:
284,174,123785,5,10,0:1:0:0:
283,161,123861,1,8,0:1:0:0:
280,148,123938,1,10,0:0:0:0:
297,65,124090,2,0,P|258:131|99:123,1,225.000008583069,10|0,0:1|0:0,0:0:0:0:
376,125,124547,1,10,0:0:0:0:
199,115,124699,1,0,0:0:0:0:
294,46,124851,1,10,0:1:0:0:
332,227,125004,1,10,0:1:0:0:
222,251,125156,5,8,0:0:0:0:
214,244,125232,1,8,0:1:0:0:
208,238,125308,2,0,P|280:249|459:290,1,225.000008583069,10|8,0:1|0:1,0:0:0:0:
63,251,125765,2,0,P|139:306|180:339,1,112.500004291535,10|0,0:0|0:0,0:0:0:0:
160,40,126070,2,0,P|128:134|-3:116,1,225.000008583069,10|8,0:1|0:0,0:0:0:0:
512,53,126526,6,0,B|402:40|433:116|281:88,1,225.000008583069,2|0,0:0|0:0,0:0:0:0:
465,268,126983,2,0,P|409:226|342:207,1,112.500004291535,10|8,0:0|0:1,0:0:0:0:
280,372,127288,1,8,0:0:0:0:
131,303,127440,1,8,0:1:0:0:
215,158,127592,1,8,0:0:0:0:
387,357,127745,6,0,P|308:353|218:228,1,225.000008583069,14|8,0:1|0:1,0:0:0:0:
502,350,128202,1,10,0:0:0:0:
278,374,128354,1,2,0:0:0:0:
386,164,128506,2,0,P|419:238|439:307,1,112.500004291535,10|0,0:1|0:0,0:0:0:0:
285,76,128811,1,8,0:0:0:0:
0,144,128963,6,0,B|123:126|96:203|261:155,1,225.000008583069,2|0,0:0|0:3,0:0:0:0:
110,309,129420,2,0,P|30:266|-26:254,1,112.500004291535,10|0,0:0|0:0,0:0:0:0:
254,289,129724,1,10,0:1:0:0:
327,155,129877,5,8,0:1:0:0:
330,145,129953,1,8,0:1:0:0:
334,134,130029,1,8,0:2:0:0:
489,156,130181,2,0,P|403:154|349:24,1,225.000008583069,14|8,0:1|0:1,0:0:0:0:
440,344,130638,2,0,P|399:289|334:248,1,112.500004291535,10|0,3:2|3:0,0:0:0:0:
239,120,130943,5,10,3:1:0:0:
213,130,131019,1,0,3:1:0:0:
188,151,131095,1,0,3:1:0:0:
166,183,131171,1,0,3:1:0:0:
138,219,131247,1,8,3:2:0:0:
94,235,131323,1,0,0:0:0:0:
48,225,131400,1,2,3:1:0:0:
32,187,131476,1,0,3:0:0:0:
53,150,131552,5,8,3:2:0:0:
99,169,131628,1,0,3:0:0:0:
124,205,131704,1,0,3:0:0:0:
135,246,131780,1,0,3:0:0:0:
130,300,131856,1,8,3:2:0:0:
96,336,131933,1,0,3:0:0:0:
55,349,132009,1,0,3:0:0:0:
23,335,132085,1,0,3:0:0:0:
11,312,132161,6,0,P|43:298|90:291,1,56.2500021457673,8|0,3:2|3:0,0:0:0:0:
142,300,132313,2,0,P|193:314|232:334,1,56.2500021457673,0|0,3:0|3:0,0:0:0:0:
263,355,132466,1,8,3:2:0:0:
417,205,132618,6,0,P|398:206|339:327,1,168.750006437302,14|0,0:1|0:0,0:0:0:0:
420,357,133379,1,0,0:0:0:0:
420,357,133531,1,0,0:0:0:0:
392,118,133836,6,0,B|299:95|326:138|210:121,1,168.750006437302,14|0,0:1|0:0,0:0:0:0:
136,94,134598,1,0,0:0:0:0:
136,94,134902,1,0,0:0:0:0:
24,28,135054,5,14,0:1:0:0:
487,353,135359,1,14,0:1:0:0:
19,23,135664,1,14,0:1:0:0:
491,360,135968,1,14,0:1:0:0:
15,18,136273,1,14,0:1:0:0:
281,112,136577,5,10,0:1:0:0:
273,88,136653,1,10,0:1:0:0:
264,65,136729,1,10,0:0:0:0:
222,193,136881,1,8,0:1:0:0:
81,263,137034,6,0,L|207:289,1,112.500004291535,10|8,0:2|0:1,0:0:0:0:
191,285,137339,2,0,L|206:349,1,56.2500021457673,0|0,0:0|0:0,0:0:0:0:
205,340,137491,6,0,B|236:311|236:311|373:301|373:301|439:342,1,225.000008583069,14|8,0:1|0:1,0:0:0:0:
293,212,137948,1,10,0:0:0:0:
306,340,138100,1,2,0:0:0:0:
401,195,138252,5,10,0:1:0:0:
339,115,138405,1,2,0:0:0:0:
238,112,138557,1,10,0:0:0:0:
159,172,138709,1,2,0:0:0:0:
26,70,138861,5,10,0:1:0:0:
72,241,139014,1,2,0:0:0:0:
75,145,139166,1,10,0:0:0:0:
17,306,139318,1,2,0:0:0:0:
72,241,139471,5,10,0:1:0:0:
204,272,139623,1,2,0:0:0:0:
333,307,139775,1,10,0:0:0:0:
440,181,139927,6,0,B|469:179|469:179|447:154|447:154|379:159|379:159|352:178|352:178|279:186,1,225.000008583069,10|10,0:1|0:1,0:0:0:0:
277,187,140308,1,0,0:0:0:0:
260,190,140384,1,8,0:0:0:0:
419,76,140537,2,0,B|393:102|393:102|400:174|400:174|414:193|414:193|425:301,1,225.000008583069,2|2,0:0|0:0,0:0:0:0:
426,292,140917,1,0,0:0:0:0:
428,301,140993,1,10,0:0:0:0:
288,59,141146,2,0,B|355:56|355:56|380:74|380:74|476:69|476:69|494:44,1,225.000008583069,2|0,0:0|0:0,0:0:0:0:
108,124,141603,2,0,L|233:116,1,112.500004291535,8|0,0:0|0:0,0:0:0:0:
7,257,141907,5,10,0:0:0:0:
222,329,142059,1,10,0:1:0:0:
8,374,142212,1,10,0:0:0:0:
347,185,142364,5,14,0:1:0:0:
347,185,142669,1,8,0:1:0:0:
463,242,142821,2,0,B|433:221|433:221|230:210,1,225.000008583069,10|10,0:0|3:1,0:0:0:0:
223,220,143202,1,0,3:0:0:0:
194,244,143278,1,0,3:0:0:0:
160,255,143354,1,0,3:0:0:0:
124,249,143430,1,8,3:2:0:0:
94,224,143506,1,0,3:0:0:0:
97,196,143582,1,0,3:0:0:0:
117,176,143658,1,0,3:0:0:0:
146,179,143735,1,10,3:1:0:0:
67,83,143887,5,0,3:0:0:0:
102,94,143963,1,0,3:0:0:0:
139,85,144039,1,8,3:2:0:0:
167,60,144115,1,0,3:0:0:0:
200,44,144191,1,0,3:0:0:0:
240,51,144268,1,0,3:0:0:0:
258,65,144344,6,0,P|276:51|331:33,1,56.2500021457673,10|0,3:1|3:0,0:0:0:0:
381,37,144496,2,0,P|418:41|461:58,1,56.2500021457673,0|0,3:0|3:0,0:0:0:0:
499,85,144648,1,8,3:2:0:0:
489,250,144801,6,0,B|406:242|406:242|387:218|387:218|257:203,1,225.000008583069,14|8,0:1|0:1,0:0:0:0:
59,283,145257,1,10,0:0:0:0:
193,266,145410,1,10,0:1:0:0:
1,155,145562,1,10,0:0:0:0:
138,140,145714,1,10,0:1:0:0:
195,260,145867,1,10,0:0:0:0:
4,146,146019,6,0,L|258:113,1,225.000008583069,14|8,0:1|0:1,0:0:0:0:
449,101,146476,1,10,0:0:0:0:
324,26,146628,1,10,0:1:0:0:
469,243,146780,5,10,0:0:0:0:
423,237,146856,1,0,0:0:0:0:
375,250,146933,1,10,0:1:0:0:
342,282,147009,1,0,0:0:0:0:
331,328,147085,2,0,P|316:297|287:257,1,56.2500021457673,8|0,0:0|0:0,0:0:0:0:
55,211,147237,6,0,B|115:198|115:198|171:215|171:215|282:191,1,225.000008583069,14|0,0:1|0:0,0:0:0:0:
45,369,147694,2,0,B|85:352|85:352|121:278,1,112.500004291535,8|0,0:2|0:0,0:0:0:0:
178,123,147999,2,0,B|147:60|147:60|107:43,1,112.500004291535,8|0,0:1|0:0,0:0:0:0:
411,47,148303,5,10,0:2:0:0:
314,90,148455,2,0,B|437:74|437:74|391:204,1,225.000008583069,10|0,0:1|0:0,0:0:0:0:
398,185,148836,1,0,0:0:0:0:
392,201,148912,1,8,0:0:0:0:
370,301,149065,5,2,0:0:0:0:
136,265,149217,1,10,0:1:0:0:
269,220,149369,1,2,0:0:0:0:
0,189,149521,5,8,0:0:0:0:
7,178,149598,1,0,0:0:0:0:
16,169,149674,2,0,B|42:143|42:143|264:130,1,225.000008583069,10|8,0:1|0:1,0:0:0:0:
450,33,150131,2,0,B|419:54|419:54|395:152,1,112.500004291535,8|0,0:0|0:0,0:0:0:0:
417,370,150435,2,0,B|402:337|402:337|316:270,1,112.500004291535,8|0,0:1|0:0,0:0:0:0:
76,228,150740,5,10,0:0:0:0:
225,366,150892,2,0,B|216:338|216:338|131:330|131:330|109:351|109:351|17:341,1,225.000008583069,10|0,0:1|0:0,0:0:0:0:
213,118,151349,2,0,L|194:248,1,112.500004291535,8|0,0:0|0:0,0:0:0:0:
75,129,151653,1,8,0:0:0:0:
344,160,151806,1,8,0:1:0:0:
201,236,151958,1,8,0:0:0:0:
215,17,152110,5,14,3:1:0:0:
256,44,152187,1,0,3:0:0:0:
300,59,152263,1,0,3:0:0:0:
350,56,152339,1,0,3:0:0:0:
396,36,152415,2,0,P|424:21|461:10,1,56.2500021457673,8|0,3:1|3:0,0:0:0:0:
471,124,152567,5,8,3:2:0:0:
440,152,152643,1,0,3:0:0:0:
419,189,152719,1,0,3:0:0:0:
410,230,152795,1,0,3:0:0:0:
413,272,152871,5,10,3:1:0:0:
387,249,152948,1,0,3:0:0:0:
365,212,153024,1,0,3:0:0:0:
355,166,153100,1,0,3:0:0:0:
358,130,153176,5,8,3:2:0:0:
336,155,153252,1,0,3:0:0:0:
315,169,153328,1,0,3:0:0:0:
294,181,153405,1,0,3:0:0:0:
274,185,153481,5,10,3:1:0:0:
254,166,153557,1,0,3:0:0:0:
227,147,153633,1,0,3:0:0:0:
195,137,153709,1,0,3:0:0:0:
157,142,153785,1,8,3:2:0:0:
121,162,153861,1,0,3:0:0:0:
79,174,153938,1,0,3:0:0:0:
35,160,154014,1,0,3:0:0:0:
13,118,154090,5,10,2:1:0:0:
58,251,154242,1,2,0:0:0:0:
6,363,154394,1,8,0:0:0:0:
7,108,154547,6,0,B|97:87|97:87|125:65|125:65|263:33,1,225.000008583069,14|8,0:1|0:1,0:0:0:0:
428,214,155004,1,10,0:0:0:0:
374,82,155156,1,10,0:1:0:0:
381,55,155232,1,0,0:0:0:0:
389,29,155308,1,10,0:0:0:0:
240,137,155460,1,10,0:1:0:0:
276,311,155613,1,10,0:0:0:0:
436,213,155765,5,14,0:1:0:0:
298,213,155917,1,0,0:0:0:0:
171,265,156070,1,8,0:1:0:0:
110,378,156222,5,10,0:0:0:0:
171,265,156374,1,10,0:1:0:0:
174,234,156450,1,0,0:0:0:0:
179,204,156526,1,10,0:0:0:0:
136,75,156679,1,10,0:1:0:0:
0,45,156831,1,10,0:0:0:0:
256,115,156983,5,14,3:1:0:0:
250,109,157059,1,0,3:0:0:0:
249,102,157136,1,0,3:0:0:0:
255,98,157212,1,0,3:0:0:0:
261,97,157288,1,8,3:1:0:0:
267,100,157364,1,0,3:0:0:0:
272,106,157440,1,8,3:2:0:0:
273,115,157516,1,0,3:0:0:0:
269,127,157592,1,0,3:0:0:0:
260,135,157669,1,0,3:0:0:0:
248,137,157745,5,10,3:1:0:0:
278,136,157821,1,0,3:0:0:0:
303,147,157897,1,0,3:0:0:0:
329,172,157973,1,0,3:0:0:0:
349,207,158049,1,8,3:2:0:0:
384,239,158125,1,0,3:0:0:0:
427,246,158202,1,0,3:0:0:0:
471,232,158278,1,0,3:0:0:0:
498,197,158354,5,10,3:1:0:0:
463,164,158430,1,0,3:0:0:0:
418,153,158506,1,0,3:0:0:0:
375,167,158582,1,0,3:0:0:0:
339,198,158658,1,8,3:2:0:0:
300,218,158735,1,0,3:0:0:0:
256,222,158811,1,0,3:0:0:0:
211,209,158887,1,0,3:0:0:0:
176,172,158963,5,10,2:2:0:0:
21,359,159115,1,10,2:2:0:0:
21,359,159420,1,14,0:1:0:0:
441,357,161856,5,2,0:0:0:0:
441,357,162161,1,0,0:0:0:0:
419,286,162313,1,0,0:0:0:0:
455,217,162466,1,0,0:0:0:0:
419,286,162618,1,0,0:0:0:0:
349,320,162770,1,0,0:0:0:0:
349,320,162922,1,0,0:0:0:0:
269,309,163075,5,0,0:0:0:0:
269,309,163379,1,0,0:0:0:0:
244,235,163532,1,0,0:0:0:0:
171,206,163684,1,0,0:0:0:0:
244,235,163836,1,0,0:0:0:0:
319,211,163988,1,0,0:0:0:0:
319,211,164293,1,2,0:0:0:0:
469,363,166729,5,14,3:1:0:0:
402,328,167034,1,0,3:0:0:0:
326,326,167186,1,0,3:0:0:0:
257,359,167339,1,0,3:0:0:0:
257,359,167415,2,0,P|192:372|137:372,1,112.5,2|2,3:0|0:0,0:0:0:0:
75,359,167795,1,0,3:0:0:0:
33,291,167948,5,2,3:2:0:0:
99,247,168252,1,0,3:0:0:0:
173,236,168405,1,0,3:0:0:0:
256,254,168557,1,0,3:0:0:0:
256,254,168633,2,0,P|305:283|363:292,1,112.5,2|0,3:0|0:0,0:0:0:0:
431,280,169014,1,0,3:0:0:0:
483,229,169166,5,2,3:2:0:0:
436,170,169471,1,0,3:0:0:0:
367,143,169623,1,0,3:0:0:0:
291,141,169775,1,0,3:0:0:0:
291,141,169851,2,0,P|230:168|170:176,1,112.5,2|2,3:0|0:0,0:0:0:0:
55,149,170232,1,0,3:0:0:0:
8,23,170384,5,14,0:1:0:0:
489,362,170993,1,14,0:1:0:0:
14,28,171603,1,14,0:1:0:0:
210,201,171907,5,8,0:0:0:0:
188,195,171983,1,8,0:0:0:0:
169,190,172059,1,8,0:1:0:0:
184,96,172212,6,0,L|114:73,1,56.2500021457673,10|10,2:1|2:1,0:0:0:0:
261,119,172364,2,0,L|304:131,2,28.1250010728836,10|0|0,2:2|0:0|2:1,0:0:0:0:
363,153,172516,2,0,L|421:171,1,56.2500021457673,10|0,2:2|2:0,0:0:0:0:
416,169,172821,5,0,0:0:0:0:
392,241,173125,1,0,0:0:0:0:
335,289,173278,1,0,0:0:0:0:
264,305,173430,1,0,0:0:0:0:
191,306,173582,1,0,0:0:0:0:
125,268,173735,1,0,0:0:0:0:
75,208,173887,1,0,0:0:0:0:
512,331,174039,6,0,B|417:317|409:397|287:378,1,225.000008583069,14|8,0:1|2:1,0:0:0:0:
211,320,174496,1,2,1:1:0:0:
184,219,174648,1,2,1:1:0:0:
233,128,174801,1,2,1:1:0:0:
329,97,174953,1,2,1:1:0:0:
423,108,175105,1,2,1:1:0:0:
0,226,175257,6,0,P|73:230|91:389,1,225.000008583069,14|8,0:1|0:1,0:0:0:0:
105,70,175714,2,0,P|72:105|-3:119,1,112.500004291535,10|2,0:0|0:0,0:0:0:0:
211,4,176019,1,10,0:1:0:0:
336,66,176171,1,2,0:0:0:0:
353,253,176323,5,10,0:0:0:0:
249,219,176476,2,0,B|384:182|336:266|507:212,1,225.000008583069,2|0,0:0|0:0,0:0:0:0:
143,321,176933,2,0,P|224:365|277:415,1,112.500004291535,10|0,0:0|0:0,0:0:0:0:
6,254,177237,1,10,0:0:0:0:
145,144,177389,1,10,0:1:0:0:
0,38,177542,1,8,0:0:0:0:
389,111,177694,6,0,P|294:118|248:1,1,225.000008583069,14|8,0:1|0:1,0:0:0:0:
502,176,178151,1,10,0:2:0:0:
302,150,178303,1,2,0:0:0:0:
438,33,178455,2,0,P|420:103|396:271,1,225.000008583069,10|8,0:1|0:0,0:0:0:0:
397,266,178836,5,8,0:1:0:0:
398,277,178912,2,0,P|420:228|284:182,1,225.000008583069,14|0,0:1|0:0,0:0:0:0:
499,286,179369,1,8,0:0:0:0:
402,372,179521,1,0,0:0:0:0:
193,257,179674,2,0,P|258:270|329:286,1,112.500004291535,10|0,0:1|0:0,0:0:0:0:
55,140,179978,5,8,0:0:0:0:
213,88,180131,2,0,P|144:93|107:249,1,225.000008583069,14|8,0:1|0:1,0:0:0:0:
333,97,180587,2,0,P|318:135|302:182,3,56.2500021457673,10|8|10|8,0:0|0:1|0:1|0:1,0:0:0:0:
412,215,180892,1,10,0:0:0:0:
376,229,180968,1,0,0:0:0:0:
343,254,181044,1,10,0:1:0:0:
310,276,181120,1,0,0:0:0:0:
266,288,181197,1,10,0:2:0:0:
225,282,181273,1,0,0:0:0:0:
187,255,181349,5,10,3:1:0:0:
221,230,181425,1,0,3:0:0:0:
256,233,181501,1,8,3:2:0:0:
288,257,181577,1,0,3:0:0:0:
311,287,181653,1,0,3:0:0:0:
336,317,181729,1,0,3:0:0:0:
381,336,181806,1,8,3:2:0:0:
424,337,181882,1,0,3:0:0:0:
466,319,181958,1,0,3:0:0:0:
497,289,182034,1,0,3:0:0:0:
504,246,182110,6,0,P|482:272|462:340,1,56.2500021457673,8|0,3:2|3:0,0:0:0:0:
373,181,182262,2,0,P|392:217|402:256,1,56.2500021457673,0|0,3:0|3:0,0:0:0:0:
246,156,182415,1,8,3:2:0:0:
159,362,182567,6,0,P|156:259|22:258,1,225.000008583069,14|8,0:1|0:1,0:0:0:0:
279,379,183024,2,0,P|293:308|303:259,1,112.500004291535,10|0,0:2|0:0,0:0:0:0:
332,107,183328,1,10,0:1:0:0:
485,68,183480,1,2,0:0:0:0:
408,286,183632,5,10,0:0:0:0:
512,252,183785,2,0,B|377:215|425:299|254:245,1,225.000008583069,2|0,0:0|0:0,0:0:0:0:
76,135,184242,2,0,P|157:179|210:229,1,112.500004291535,10|0,0:2|0:0,0:0:0:0:
56,356,184546,1,10,0:1:0:0:
179,304,184699,1,10,0:1:0:0:
25,65,184851,5,10,0:0:0:0:
30,52,184927,1,8,0:1:0:0:
35,41,185004,2,0,P|44:131|47:292,1,225.000008583069,10|8,0:1|0:1,0:0:0:0:
272,37,185460,2,0,P|219:75|176:122,1,112.500004291535,10|0,0:0|0:0,0:0:0:0:
491,250,185765,2,0,P|334:191|274:187,1,225.000008583069,8|8,0:1|0:0,0:0:0:0:
270,193,186146,5,8,0:1:0:0:
264,202,186222,2,0,P|352:203|326:73,1,225.000008583069,10|0,0:1|0:0,0:0:0:0:
203,330,186679,2,0,P|286:318|352:315,1,112.500004291535,10|8,0:0|0:1,0:0:0:0:
11,225,186983,1,8,0:0:0:0:
132,180,187136,1,8,0:1:0:0:
67,363,187287,1,8,0:0:0:0:
46,132,187440,6,0,B|180:107|138:205|297:142,1,225.000008583069,14|8,0:1|0:1,0:0:0:0:
386,113,187897,1,10,0:0:0:0:
460,3,188049,1,2,0:0:0:0:
489,200,188202,2,0,P|460:271|440:358,1,112.500004291535,10|0,0:1|0:0,0:0:0:0:
174,384,188506,5,8,0:0:0:0:
69,333,188658,2,0,P|145:356|174:223,1,225.000008583069,2|0,0:0|0:0,0:0:0:0:
40,132,189115,2,0,P|72:184|90:248,1,112.500004291535,10|0,0:0|0:0,0:0:0:0:
288,155,189420,2,0,P|200:107|173:76,1,112.500004291535,10|8,0:1|0:1,0:0:0:0:
185,88,189648,1,8,0:1:0:0:
178,76,189724,1,8,0:0:0:0:
348,272,189877,6,0,P|373:162|405:54,1,225.000008583069,14|8,0:1|0:1,0:0:0:0:
259,359,190334,1,10,0:0:0:0:
196,182,190486,1,8,0:1:0:0:
435,369,190638,1,10,2:2:0:0:
505,188,190790,1,8,2:1:0:0:
133,325,190943,5,10,2:0:0:0:
255,268,191095,2,0,B|141:252|166:337|-5:277,1,225.000008583069,14|8,0:1|0:1,0:0:0:0:
269,130,191552,1,8,0:2:0:0:
231,103,191628,1,8,0:2:0:0:
222,61,191704,1,8,0:2:0:0:
252,26,191780,1,8,0:2:0:0:
303,20,191856,1,8,0:3:0:0:
345,49,191933,1,8,0:3:0:0:
393,69,192009,1,8,0:3:0:0:
443,73,192085,1,8,0:3:0:0:
492,47,192161,1,8,0:0:0:0:
358,200,192313,6,0,P|463:211|493:341,1,225.000008583069,14|8,0:1|0:1,0:0:0:0:
230,324,192770,2,0,P|303:313|369:308,1,112.500004291535,8|0,0:0|0:0,0:0:0:0:
82,246,193075,2,0,P|164:216|219:195,1,112.500004291535,10|2,0:1|0:0,0:0:0:0:
128,41,193379,5,8,0:0:0:0:
1,92,193532,2,0,B|122:116|85:48|230:69,1,225.000008583069,2|0,0:0|0:0,0:0:0:0:
439,77,193988,2,0,P|375:116|334:149,1,112.500004291535,8|0,0:0|0:0,0:0:0:0:
472,251,194293,1,10,0:1:0:0:
211,352,194445,5,10,0:1:0:0:
227,332,194521,1,8,0:1:0:0:
244,315,194598,1,8,0:0:0:0:
129,293,194750,2,0,P|227:277|384:257,1,225.000008583069,10|8,0:1|0:1,0:0:0:0:
151,175,195207,2,0,P|89:185|10:199,1,112.500004291535,8|0,0:0|0:0,0:0:0:0:
1,60,195511,1,10,0:1:0:0:
259,92,195664,5,2,0:0:0:0:
240,76,195740,1,2,0:0:0:0:
222,63,195816,1,8,0:0:0:0:
294,186,195968,2,0,P|286:102|427:75,1,225.000008583069,2|0,0:2|0:0,0:0:0:0:
400,275,196425,2,0,P|414:192|424:146,1,112.500004291535,8|0,0:0|0:0,0:0:0:0:
326,371,196729,1,10,0:2:0:0:
213,288,196882,1,10,0:1:0:0:
504,279,197034,1,10,0:0:0:0:
174,363,197186,6,0,P|180:262|192:113,1,225.000008583069,14|8,0:1|0:1,0:0:0:0:
88,361,197643,1,10,0:0:0:0:
282,134,197795,1,2,0:0:0:0:
75,262,197948,2,0,P|155:260|312:254,1,225.000008583069,10|8,0:1|0:2,0:0:0:0:
297,271,198328,5,8,0:1:0:0:
295,286,198405,2,0,P|279:215|427:181,1,225.000008583069,10|0,0:1|0:0,0:0:0:0:
481,222,198861,1,8,0:0:0:0:
443,313,199014,1,0,0:0:0:0:
425,73,199166,2,0,P|429:190|439:333,1,225.000008583069,10|8,0:1|0:0,0:0:0:0:
428,63,199547,5,8,0:1:0:0:
430,51,199623,2,0,P|424:130|299:110,1,225.000008583069,14|8,0:1|0:1,0:0:0:0:
67,94,200080,1,10,0:0:0:0:
228,52,200232,1,10,0:1:0:0:
97,326,200384,1,10,0:0:0:0:
41,228,200537,1,10,0:1:0:0:
35,216,200613,1,10,0:1:0:0:
29,206,200689,1,10,0:0:0:0:
358,224,200841,6,0,B|233:192|281:268|130:237,1,225.000008583069,14|8,0:1|0:1,0:0:0:0:
342,365,201298,1,8,0:0:0:0:
459,300,201450,1,8,0:1:0:0:
465,258,201526,1,8,0:1:0:0:
471,216,201602,1,8,0:3:0:0:
478,174,201678,1,8,0:3:0:0:
484,133,201754,1,8,0:3:0:0:
331,370,201907,1,8,0:0:0:0:
136,233,202059,6,0,P|139:149|266:141,1,225.000008583069,14|8,0:1|0:1,0:0:0:0:
22,214,202516,2,0,P|6:175|-9:148,2,56.2500021457673,8|0|0,0:0|0:0|0:0,0:0:0:0:
185,348,202821,2,0,P|128:328|32:313,1,112.500004291535,10|8,0:1|0:1,0:0:0:0:
70,320,203049,1,8,0:1:0:0:
62,321,203125,1,8,0:0:0:0:
222,248,203278,6,0,B|354:231|321:304|448:272,1,225.000008583069,2|0,0:0|0:0,0:0:0:0:
224,141,203735,2,0,P|270:129|318:121,2,56.2500021457673,10|2|2,0:0|0:0|0:0,0:0:0:0:
135,165,204039,1,8,0:1:0:0:
122,169,204115,1,2,0:0:0:0:
108,171,204191,1,2,0:0:0:0:
408,135,204344,5,8,0:0:0:0:
380,15,204496,2,0,P|395:100|524:42,1,225.000008583069,10|8,0:1|0:1,0:0:0:0:
247,47,204953,1,10,0:0:0:0:
237,43,205029,1,2,0:0:0:0:
229,41,205105,1,2,0:0:0:0:
300,269,205257,2,0,P|311:197|311:135,1,112.500004291535,10|0,0:1|0:0,0:0:0:0:
96,273,205562,5,8,0:0:0:0:
0,235,205714,2,0,B|122:263|82:178|226:215,1,225.000008583069,2|0,0:0|0:0,0:0:0:0:
18,105,206171,1,10,0:0:0:0:
28,111,206247,1,2,0:0:0:0:
37,115,206323,1,2,0:0:0:0:
48,121,206400,1,2,0:0:0:0:
57,127,206476,5,10,0:0:0:0:
307,101,206628,1,8,0:1:0:0:
160,62,206780,1,8,0:0:0:0:
393,226,206933,6,0,P|422:135|472:3,1,225.000008583069,14|8,0:1|0:1,0:0:0:0:
282,341,207389,1,10,0:0:0:0:
198,162,207542,1,8,0:1:0:0:
33,276,207694,5,10,0:0:0:0:
188,156,207846,1,8,0:1:0:0:
78,11,207999,1,10,0:0:0:0:
319,43,208151,6,0,P|334:150|461:118,1,225.000008583069,14|8,0:1|0:1,0:0:0:0:
51,154,208608,1,10,0:0:0:0:
194,54,208760,1,8,0:1:0:0:
322,289,208912,5,10,0:0:0:0:
155,241,209065,1,8,0:1:0:0:
28,363,209217,1,10,0:0:0:0:
413,304,209369,6,0,B|272:285|331:350|168:341,1,225.000008583069,14|8,0:1|0:1,0:0:0:0:
456,131,209826,1,10,3:2:0:0:
434,168,209902,1,0,3:0:0:0:
405,199,209978,1,0,3:0:0:0:
361,217,210054,1,0,3:0:0:0:
314,218,210131,1,8,3:2:0:0:
273,201,210207,1,0,3:0:0:0:
248,157,210283,1,0,3:0:0:0:
252,108,210359,1,0,3:0:0:0:
281,80,210435,1,8,3:2:0:0:
309,75,210511,1,0,3:0:0:0:
326,86,210587,1,2,3:2:0:0:
332,103,210664,1,0,3:0:0:0:
324,119,210740,5,8,3:2:0:0:
344,97,210816,1,0,3:0:0:0:
340,56,210892,1,0,3:0:0:0:
312,29,210968,1,0,3:0:0:0:
271,22,211044,1,8,3:2:0:0:
228,35,211120,1,0,3:0:0:0:
203,71,211197,1,0,3:0:0:0:
193,116,211273,1,0,3:0:0:0:
196,163,211349,2,0,P|184:209|153:239,1,56.2500021457673,8|0,0:0|3:0,0:0:0:0:
118,261,211501,2,0,P|93:266|31:251,1,56.2500021457673,8|0,0:0|3:0,0:0:0:0:
8,214,211653,1,8,0:1:0:0:
427,195,211806,5,14,0:1:0:0:
417,266,212262,1,0,0:0:0:0:
429,342,212567,1,0,0:0:0:0:
429,342,212719,1,0,0:0:0:0:
68,45,213024,5,14,0:1:0:0:
112,101,213480,1,0,0:0:0:0:
139,173,213785,1,0,0:0:0:0:
139,247,213937,1,0,0:0:0:0:
107,314,214090,1,0,0:0:0:0:
43,362,214242,5,14,0:1:0:0:
471,33,214547,1,14,0:1:0:0:
36,365,214851,1,14,0:1:0:0:
479,26,215156,1,14,0:1:0:0:
29,369,215460,1,14,0:1:0:0:
200,155,215765,5,10,0:1:0:0:
193,133,215841,1,10,0:1:0:0:
186,113,215917,1,10,0:0:0:0:
87,76,216070,1,8,0:1:0:0:
208,246,216222,5,10,0:2:0:0:
276,52,216374,1,8,0:1:0:0:
350,234,216526,6,0,L|353:244,1,11.25,2|0,0:0|0:0,0:0:0:0:
392,130,216831,6,0,P|373:252|363:359,1,225.000008583069,14|8,0:1|0:0,0:0:0:0:
471,206,217288,1,0,0:0:0:0:
288,136,217440,2,0,P|274:64|260:0,1,112.500004291535,8|2,0:1|0:0,0:0:0:0:
26,96,217745,5,8,0:0:0:0:
161,102,217897,2,0,P|92:101|25:234,1,225.000008583069,2|0,0:0|0:0,0:0:0:0:
202,310,218354,1,10,0:0:0:0:
97,308,218506,1,0,0:0:0:0:
330,190,218658,1,10,0:1:0:0:
301,288,218811,1,2,0:1:0:0:
305,95,218963,5,10,0:0:0:0:
448,55,219115,2,0,B|320:97|355:33|226:57,1,225.000008583069,10|8,0:1|0:1,0:0:0:0:
433,238,219572,2,0,P|471:185|515:147,1,112.500004291535,10|0,0:0|0:0,0:0:0:0:
203,243,219877,1,10,0:1:0:0:
316,288,220029,1,2,0:0:0:0:
50,250,220181,5,8,0:0:0:0:
97,146,220334,2,0,P|80:236|54:386,1,225.000008583069,2|0,0:0|0:0,0:0:0:0:
163,48,220790,1,8,0:0:0:0:
100,138,220943,1,0,0:0:0:0:
53,239,221095,5,10,0:1:0:0:
28,67,221247,1,10,0:1:0:0:
24,53,221323,1,8,0:1:0:0:
19,39,221400,1,8,0:0:0:0:
221,207,221552,6,0,P|259:145|402:150,1,225.000008583069,14|8,0:1|0:1,0:0:0:0:
220,365,222009,2,0,P|149:353|84:344,1,112.500004291535,10|0,0:0|0:0,0:0:0:0:
30,255,222313,1,10,0:1:0:0:
110,168,222466,1,2,0:0:0:0:
310,261,222618,5,8,0:0:0:0:
220,223,222770,2,0,P|316:240|471:267,1,225.000008583069,2|0,0:0|0:0,0:0:0:0:
125,276,223227,1,10,0:0:0:0:
218,215,223379,1,0,0:0:0:0:
318,156,223532,5,10,0:1:0:0:
169,86,223684,1,2,0:0:0:0:
155,79,223760,1,8,0:1:0:0:
141,73,223836,1,10,0:0:0:0:
429,36,223988,1,14,0:1:0:0:
429,36,224293,5,8,0:1:0:0:
487,119,224445,1,10,3:2:0:0:
455,127,224521,1,0,3:0:0:0:
424,149,224598,1,0,3:0:0:0:
400,184,224674,1,0,3:0:0:0:
362,216,224750,1,8,3:1:0:0:
317,230,224826,1,0,3:0:0:0:
267,223,224902,1,0,3:0:0:0:
226,197,224978,1,0,3:0:0:0:
220,150,225054,1,8,3:1:0:0:
245,110,225131,1,0,3:0:0:0:
296,101,225207,6,0,P|209:130|104:92,1,168.750006437302,6|0,3:1|0:0,0:0:0:0:
100,229,225511,2,0,P|71:186|35:164,1,56.2500021457673,2|0,3:2|3:0,0:0:0:0:
191,293,225664,2,0,P|150:316|107:343,1,56.2500021457673,8|0,0:0|0:0,0:0:0:0:
397,312,225816,6,0,P|316:312|262:402,1,168.750006437302,6|0,3:2|0:0,0:0:0:0:
478,178,226120,2,0,P|457:214|446:257,1,56.2500021457673,2|0,3:2|3:0,0:0:0:0:
339,101,226273,2,0,P|368:140|380:169,1,56.2500021457673,8|0,3:2|0:0,0:0:0:0:
482,9,226425,2,0,P|470:38|457:82,1,56.2500021457673,0|0,3:0|0:0,0:0:0:0:
462,61,226729,5,2,0:2:0:0:
454,64,226806,1,2,0:0:0:0:
442,67,226882,1,2,0:2:0:0:
386,16,227034,1,2,0:2:0:0:
312,8,227186,1,2,0:2:0:0:
242,40,227339,1,2,0:2:0:0:
202,104,227491,1,2,0:2:0:0:
13,30,227643,6,0,P|25:148|38:295,1,225.000008583069,14|0,0:1|0:0,0:0:0:0:
