osu file format v14

[General]
AudioFilename: audio2.mp3
AudioLeadIn: 0
PreviewTime: 59445
Countdown: 0
SampleSet: Soft
StackLeniency: 0.7
Mode: 0
LetterboxInBreaks: 0
WidescreenStoryboard: 1

[Editor]
Bookmarks: 10790,20689,30435,40181,49775,59521,79014,84039,84115,84191,93785,103379,113125,122872,132618,137491,147237,152110,159420,166729,169166,172592,172821,174039,175257,182567,192313,202059,211806,216831,226729,227643,227948
DistanceSpacing: 2.2
BeatDivisor: 4
GridSize: 32
TimelineZoom: 2.799999

[Metadata]
Title:BWLAUTE BEIRRD
TitleUnicode:BWLAUTE BEIRRD
Artist:Yumeno Yuki
ArtistUnicode:夢乃ゆき
Creator:Lasse
Version:Kalibe's Extra.
Source:抜きゲーみたいな島に住んでる貧乳(わたし)はどうすりゃいいですか? 2
Tags:nukitashi 2 Is the prospect LMT AIR or Kalibe Hope or Despair opening full version eroge visual novel blue bird water japanese pop rock english sbeve
BeatmapID:2132555
BeatmapSetID:1014034

[Difficulty]
HPDrainRate:5
CircleSize:4
OverallDifficulty:8.5
ApproachRate:9.2
SliderMultiplier:1.65
SliderTickRate:1

[Events]
//Background and Video events
0,0,"d.jpg",0,0
//Break Periods
2,84239,91997
2,159620,166159
//Storyboard Layer 0 (Background)
//Storyboard Layer 1 (Fail)
//Storyboard Layer 2 (Pass)
//Storyboard Layer 3 (Foreground)
//Storyboard Layer 4 (Overlay)
//Storyboard Sound Samples

[TimingPoints]
1197,304.568527918782,4,2,0,70,1,0
10334,-100,4,2,34,40,0,0
10638,-100,4,2,34,5,0,0
10714,-100,4,2,34,5,0,0
10790,-166.666666666667,4,2,35,55,0,0
15054,-76.923076923077,4,2,35,55,0,0
15664,-125,4,2,35,55,0,0
18100,-111.111111111111,4,2,35,55,0,0
18557,-111.111111111111,4,2,35,55,0,0
19318,-100,4,2,35,60,0,0
20080,-166.666666666667,4,2,35,65,0,0
20156,-166.666666666667,4,2,35,5,0,0
20537,-166.666666666667,4,2,35,30,0,0
20613,-166.666666666667,4,2,35,5,0,0
20689,-90.9090909090909,4,2,34,68,0,0
25410,-90.9090909090909,4,2,35,68,0,0
25714,-90.9090909090909,4,2,34,68,0,0
27846,-90.9090909090909,4,2,35,68,0,0
30435,-125,4,2,35,50,0,0
38049,-125,4,2,35,50,0,0
38202,-125,4,2,35,40,0,0
38354,-125,4,2,35,50,0,0
38506,-125,4,2,35,40,0,0
38658,-125,4,2,35,50,0,0
38811,-125,4,2,35,40,0,0
38963,-125,4,2,35,42,0,0
39115,-125,4,2,35,44,0,0
39268,-125,4,2,35,46,0,0
39420,-125,4,2,35,48,0,0
39572,-125,4,2,35,50,0,0
39724,-125,4,2,35,52,0,0
39877,-125,4,2,35,54,0,0
40029,-125,4,2,35,56,0,0
40181,-100,4,2,34,60,0,0
44902,-100,4,2,35,60,0,0
45207,-100,4,2,34,60,0,0
47339,-90.9090909090909,4,2,35,62,0,0
48557,-83.3333333333333,4,2,35,64,0,0
49775,-125,4,2,35,60,0,0
52212,-100,4,2,35,64,0,0
52669,-100,4,2,35,62,0,0
54344,-500,4,2,35,62,0,0
54648,-125,4,2,35,60,0,0
57085,-125,4,2,35,50,0,0
57389,-125,4,2,35,40,0,0
57846,-142.857142857143,4,2,35,40,0,0
58151,-142.857142857143,4,2,35,30,0,0
58303,-125,4,2,35,64,0,0
58912,-125,4,2,35,66,0,0
59065,-125,4,2,35,68,0,0
59217,-125,4,2,35,70,0,0
59521,-76.9230769230769,4,2,34,76,0,1
59978,-90.9090909090909,4,2,35,76,0,1
64394,-76.9230769230769,4,2,35,76,0,1
64699,-90.9090909090909,4,2,35,76,0,1
66831,-76.9230769230769,4,2,35,76,0,1
68049,-71.4285714285714,4,2,35,76,0,1
68811,-100,4,2,35,76,0,1
69115,-200,4,2,35,76,0,0
69268,-76.9230769230769,4,2,34,76,0,1
69724,-90.9090909090909,4,2,35,76,0,1
74141,-76.9230769230769,4,2,35,76,0,1
74598,-90.9090909090909,4,2,35,76,0,1
76577,-76.9230769230769,4,2,35,76,0,1
77339,-100,4,2,35,76,0,1
79014,-166.666666666667,4,2,35,60,0,0
79090,-166.666666666667,4,2,35,5,0,0
80080,-166.666666666667,4,2,35,35,0,0
80232,-166.666666666667,4,2,35,60,0,0
80308,-166.666666666667,4,2,35,5,0,0
81298,-166.666666666667,4,2,35,35,0,0
81450,-166.666666666667,4,2,35,60,0,0
82973,-111.111111111111,4,2,35,60,0,0
83735,-166.666666666667,4,2,35,50,0,0
83963,-166.666666666667,4,2,35,5,0,0
84039,-142.857142857143,4,2,35,48,0,0
88912,-128.205128205128,4,2,35,50,0,0
92567,-128.205128205128,4,2,35,52,0,0
93024,-128.205128205128,4,2,35,54,0,0
93633,-128.205128205128,4,2,35,48,0,0
93785,-100,4,2,34,60,0,0
98506,-100,4,2,35,60,0,0
98811,-100,4,2,35,60,0,0
100943,-90.9090909090909,4,2,35,60,0,0
102161,-83.3333333333333,4,2,35,60,0,0
103379,-125,4,2,35,60,0,0
105816,-100,4,2,35,60,0,0
106273,-100,4,2,35,60,0,0
108252,-125,4,2,35,60,0,0
108405,-125,4,2,35,5,0,0
109318,-125,4,2,35,40,0,0
109471,-111.111111111111,4,2,35,62,0,0
109547,-111.111111111111,4,2,35,5,0,0
110537,-111.111111111111,4,2,35,42,0,0
110689,-125,4,2,35,60,0,0
110993,-125,4,2,35,40,0,0
111450,-142.857142857143,4,2,35,40,0,0
111755,-142.857142857143,4,2,35,30,0,0
111907,-125,4,2,35,64,0,0
112516,-125,4,2,35,66,0,0
112669,-125,4,2,35,68,0,0
112821,-125,4,2,35,70,0,0
113125,-71.4285714285714,4,2,34,76,0,1
113582,-83.3333333333333,4,2,35,76,0,1
117999,-71.4285714285714,4,2,35,76,0,1
118455,-83.3333333333333,4,2,35,76,0,1
120435,-71.4285714285714,4,2,35,76,0,1
121501,-66.6666666666667,4,2,35,76,0,1
122415,-71.4285714285714,4,2,35,76,0,1
122719,-200,4,2,35,76,0,0
122872,-71.4285714285714,4,2,34,76,0,1
123328,-83.3333333333333,4,2,35,76,0,1
127745,-71.4285714285714,4,2,35,76,0,1
128202,-83.3333333333333,4,2,35,76,0,1
130181,-71.4285714285714,4,2,35,76,0,1
130943,-100,4,2,35,76,0,1
132618,-166.666666666667,4,2,35,60,0,0
132770,-166.666666666667,4,2,35,5,0,0
133684,-166.666666666667,4,2,35,35,0,0
133836,-166.666666666667,4,2,35,60,0,0
133988,-166.666666666667,4,2,35,5,0,0
134902,-166.666666666667,4,2,35,35,0,0
135054,-166.666666666667,4,2,35,60,0,0
136577,-111.111111111111,4,2,35,60,0,0
137491,-71.4285714285714,4,2,34,72,0,1
137948,-83.3333333333334,4,2,35,72,0,1
140156,-83.3333333333334,4,2,35,32,0,1
140232,-83.3333333333334,4,2,35,72,0,1
141907,-83.3333333333334,4,2,35,72,0,0
142364,-71.4285714285714,4,2,35,72,0,1
142821,-83.3333333333334,4,2,35,72,0,1
144801,-71.4285714285714,4,2,35,72,0,1
146019,-71.4285714285714,4,2,35,74,0,1
146933,-100,4,2,35,72,0,0
147085,-200,4,2,35,70,0,0
147237,-66.6666666666667,4,2,34,74,0,1
147694,-83.3333333333333,4,2,35,74,0,1
151653,-83.3333333333333,4,2,35,74,0,0
152110,-83.3333333333333,4,2,35,74,0,1
154090,-83.3333333333333,4,2,35,74,0,0
154547,-62.5,4,2,35,74,0,1
155765,-62.5,4,2,35,75,0,1
156983,-71.4285714285714,4,2,35,76,0,1
157745,-71.4285714285714,4,2,35,77,0,1
158354,-71.4285714285714,4,2,35,78,0,1
158963,-71.4285714285714,4,2,35,80,0,1
159420,-200,4,2,35,52,0,0
159496,-200,4,2,35,5,0,0
160638,-200,4,2,35,32,0,0
160790,-200,4,2,35,5,0,0
161856,-200,4,2,35,34,0,0
164293,-200,4,2,35,36,0,0
164445,-200,4,2,35,5,0,0
166273,-200,4,2,35,32,0,0
166729,-142.857142857143,4,2,35,38,0,0
167948,-133.333333333333,4,2,35,39,0,0
169166,-125,4,2,35,40,0,0
170384,-125,4,2,35,50,0,0
170993,-125,4,2,35,52,0,0
171603,-125,4,2,35,54,0,0
171907,-111.111111111111,4,2,35,56,0,0
172212,-76.9230769230769,4,2,35,58,0,0
172516,-66.6666666666667,4,2,35,60,0,0
174039,-66.6666666666667,4,2,35,74,0,1
174344,-66.6666666666667,4,2,35,66,0,1
174496,-66.6666666666667,4,2,35,68,0,0
174648,-66.6666666666667,4,2,35,70,0,0
174801,-66.6666666666667,4,2,35,72,0,0
174953,-66.6666666666667,4,2,35,74,0,0
175105,-66.6666666666667,4,2,35,76,0,0
175257,-62.5,4,2,34,78,0,1
175714,-76.9230769230769,4,2,35,78,0,1
177694,-66.6666666666667,4,2,35,78,0,1
178151,-76.9230769230769,4,2,35,78,0,1
180131,-66.6666666666667,4,2,35,78,0,1
182415,-100,4,2,35,78,0,0
182567,-66.6666666666667,4,2,34,78,0,1
183024,-76.9230769230769,4,2,35,78,0,1
187440,-66.6666666666667,4,2,35,78,0,1
187897,-76.9230769230769,4,2,35,78,0,1
189877,-66.6666666666667,4,2,35,78,0,1
191095,-62.5,4,2,35,78,0,1
191400,-62.5,4,2,35,72,0,1
191552,-62.5,4,2,35,74,0,1
191856,-62.5,4,2,35,76,0,1
192161,-62.5,4,2,35,78,0,0
192313,-66.6666666666667,4,2,34,78,0,1
192770,-83.3333333333333,4,2,35,78,0,1
197186,-66.6666666666667,4,2,35,78,0,1
197643,-83.3333333333333,4,2,35,78,0,1
199623,-66.6666666666667,4,2,35,78,0,1
200841,-62.5,4,2,35,78,0,1
201603,-100,4,2,35,78,0,1
201907,-200,4,2,35,78,0,0
202059,-62.5,4,2,34,78,0,1
202516,-76.9230769230769,4,2,35,78,0,1
205181,-76.9230769230769,4,2,35,38,0,1
205257,-76.9230769230769,4,2,35,78,0,1
206933,-62.5,4,2,35,79,0,1
207389,-100,4,2,35,79,0,1
207694,-76.9230769230769,4,2,35,79,0,1
208151,-66.6666666666667,4,2,35,79,0,1
208608,-62.5,4,2,35,79,0,1
209369,-62.5,4,2,35,80,0,1
209826,-76.9230769230769,4,2,35,80,0,1
211349,-83.3333333333333,4,2,35,80,0,1
211653,-83.3333333333333,4,2,35,74,0,1
211806,-166.666666666667,4,2,35,60,0,0
211958,-166.666666666667,4,2,35,5,0,0
212872,-166.666666666667,4,2,35,35,0,0
213024,-166.666666666667,4,2,35,60,0,0
213176,-166.666666666667,4,2,35,5,0,0
214090,-166.666666666667,4,2,35,35,0,0
214242,-166.666666666667,4,2,35,60,0,0
215765,-111.111111111111,4,2,35,60,0,0
216526,-166.666666666667,4,2,35,50,0,0
216755,-166.666666666667,4,2,35,5,0,0
216831,-90.9090909090909,4,2,34,68,0,0
217136,-90.9090909090909,4,2,35,68,0,0
226120,-142.857142857143,4,2,35,68,0,0
226729,-142.857142857143,4,2,35,37,0,0
226882,-142.857142857143,4,2,35,38,0,0
227034,-142.857142857143,4,2,35,39,0,0
227186,-142.857142857143,4,2,35,40,0,0
227339,-142.857142857143,4,2,35,41,0,0
227491,-142.857142857143,4,2,35,42,0,0
227643,-166.666666666667,4,2,35,60,0,0
227948,-166.666666666667,4,2,35,40,0,0

[Colours]
Combo1 : 250,190,230
Combo2 : 130,200,230
Combo3 : 255,230,140
Combo4 : 170,245,170

[HitObjects]
164,4,10334,6,0,B|264:-30|218:83|330:45,1,165,2|0,0:0|0:0,0:0:0:0:
246,208,10790,6,0,L|252:316,1,98.9999969787599,14|0,0:1|0:0,0:0:0:0:
241,200,12009,6,0,L|225:367,1,148.49999546814,2|0,0:0|0:0,0:0:0:0:
140,224,12770,5,8,0:0:0:0:
57,254,12922,1,8,0:1:0:0:
184,151,13075,5,8,0:0:0:0:
331,194,13227,1,12,0:1:0:0:
337,198,13684,2,0,P|386:196|401:141,1,98.9999969787599,0|0,0:0|0:0,0:0:0:0:
403,146,14293,5,0,0:0:0:0:
471,254,14445,2,0,P|446:220|345:205,1,148.49999546814,2|0,0:0|0:0,0:0:0:0:
136,276,15054,6,0,P|111:288|114:324,1,53.6249975452424,8|8,0:1|0:1,0:0:0:0:
243,384,15207,2,0,B|237:358|237:358|256:296|256:296|238:248,1,107.249995090485,8|8,0:0|0:1,0:0:0:0:
247,376,15664,6,0,B|365:318|340:386|450:348,1,198,14|8,0:1|0:1,0:0:0:0:
272,161,16425,1,8,0:0:0:0:
369,55,16577,2,0,P|360:72|349:131,1,66,8|0,0:1|0:0,0:0:0:0:
427,213,16882,6,0,P|400:164|260:173,1,198,14|8,0:1|0:1,0:0:0:0:
213,215,17415,1,8,0:1:0:0:
216,226,17491,1,8,0:1:0:0:
92,335,17643,5,8,0:0:0:0:
134,228,17795,1,8,0:1:0:0:
134,228,18100,2,0,P|133:248|97:386,1,148.49999546814,14|0,0:1|0:0,0:0:0:0:
295,242,18557,5,10,3:2:0:0:
294,231,18633,1,0,3:0:0:0:
290,201,18709,1,0,3:0:0:0:
289,188,18785,1,0,3:0:0:0:
282,159,18861,5,8,3:1:0:0:
311,136,18938,1,0,3:0:0:0:
355,139,19014,1,0,3:0:0:0:
386,170,19090,1,0,3:0:0:0:
399,212,19166,1,8,3:2:0:0:
377,251,19242,1,0,3:0:0:0:
377,251,19318,2,0,L|380:305,1,41.25,2|0,3:2|3:0,0:0:0:0:
392,371,19471,5,8,3:2:0:0:
238,240,19623,2,0,B|256:234|256:234|282:244,1,41.25,0|0,3:0|3:0,0:0:0:0:
379,292,19775,5,8,3:2:0:0:
512,168,19927,2,0,B|494:162|494:162|468:172,1,41.25,0|0,3:0|3:0,0:0:0:0:
374,34,20080,6,0,B|319:64|350:108|350:108|351:67|387:57,1,148.49999546814,2|0,0:0|0:0,0:0:0:0:
376,61,20689,6,0,B|296:41|296:41|241:59|266:98,1,136.125004154205,14|0,0:1|0:0,0:0:0:0:
196,121,20993,2,0,B|150:144|150:144|108:115,1,90.7500027694703,8|0,0:0|0:0,0:0:0:0:
263,364,21298,6,0,B|300:322|279:275|279:275|285:343|223:354,1,181.500005538941,8|8,0:1|0:0,0:0:0:0:
199,289,21755,1,2,0:0:0:0:
374,299,21907,6,0,B|321:307|321:307|253:280|253:280|187:290,1,181.500005538941,8|10,0:1|0:0,0:0:0:0:
45,107,22364,2,0,B|88:87|88:87|139:111,1,90.7500027694703,0|10,0:0|0:1,0:0:0:0:
21,236,22669,2,0,P|9:260|2:281,2,45.3750013847352,2|2|10,0:1|0:0|0:0,0:0:0:0:
337,178,22973,6,0,P|328:93|280:139,1,181.500005538941,10|8,0:1|0:1,0:0:0:0:
98,277,23430,2,0,L|222:254,1,90.7500027694703,10|0,0:0|0:0,0:0:0:0:
263,246,23658,1,2,0:0:0:0:
271,245,23735,1,10,0:1:0:0:
209,176,23887,5,2,0:0:0:0:
247,326,24039,1,8,0:0:0:0:
363,223,24191,1,2,0:0:0:0:
169,376,24344,6,0,B|279:363|222:324|366:315,1,181.500005538941,8|8,0:1|0:0,0:0:0:0:
267,230,24801,1,0,0:0:0:0:
491,134,24953,6,0,B|506:150|506:150|499:189,1,45.3750013847352,10|0,0:1|0:0,0:0:0:0:
415,224,25105,6,0,B|394:230|394:230|361:208,1,45.3750013847352,10|0,0:1|0:0,0:0:0:0:
366,117,25257,6,0,B|375:97|375:97|414:90,1,45.3750013847352,8|0,0:0|0:0,0:0:0:0:
506,177,25410,6,0,L|323:208,1,181.500005538941,14|8,0:1|0:1,0:0:0:0:
153,30,25867,2,0,P|195:16|210:101,1,136.125004154205,10|0,0:0|0:0,0:0:0:0:
161,134,26171,2,0,B|143:157|143:157|177:195|145:247,1,90.7500027694703,10|2,0:1|0:0,0:0:0:0:
74,82,26476,1,8,0:0:0:0:
271,269,26628,6,0,B|315:199|315:199|264:152|264:152|241:173,1,181.500005538941,2|0,0:0|0:0,0:0:0:0:
14,313,27085,2,0,B|56:294|56:294|107:296,1,90.7500027694703,10|0,0:0|0:0,0:0:0:0:
108,302,27313,1,2,0:0:0:0:
115,308,27389,1,10,0:1:0:0:
46,208,27542,1,2,0:0:0:0:
201,357,27694,5,10,0:0:0:0:
354,117,27846,2,0,B|330:155|330:155|355:229,1,90.7500027694703,14|0,0:1|0:0,0:0:0:0:
418,280,28151,2,0,L|468:302,2,45.3750013847352,8|0|10,0:1|3:0|3:2,0:0:0:0:
423,203,28455,5,0,3:0:0:0:
285,265,28608,1,8,3:1:0:0:
440,179,28760,1,0,3:0:0:0:
459,174,28836,1,0,3:0:0:0:
475,188,28912,1,8,3:1:0:0:
266,95,29065,6,0,B|254:72|254:72|276:30|276:30|265:-3,1,90.7500027694703,2|8,3:2|3:1,0:0:0:0:
182,112,29293,1,2,0:0:0:0:
176,116,29369,2,0,L|100:133,1,45.3750013847352,10|0,3:2|3:0,0:0:0:0:
28,101,29521,5,8,0:0:0:0:
75,84,29598,1,0,0:0:0:0:
123,93,29674,1,2,3:2:0:0:
156,129,29750,1,0,3:0:0:0:
170,176,29826,1,8,3:1:0:0:
200,215,29902,1,0,0:0:0:0:
249,213,29978,6,0,B|264:194|264:194|263:142,1,45.3750013847352,2|0,3:2|3:0,0:0:0:0:
144,282,30131,6,0,P|125:289|91:310,1,45.3750013847352,8|0,3:2|0:0,0:0:0:0:
294,305,30283,6,0,P|313:307|398:328,1,90.7500027694703,2|14,0:3|0:1,0:0:0:0:
500,168,30587,5,8,0:1:0:0:
454,258,30740,2,0,B|437:198|437:198|507:164,1,132,10|2,0:0|0:0,0:0:0:0:
204,8,31349,5,10,0:0:0:0:
318,35,31501,2,0,P|245:35|104:57,1,198,0|10,0:0|0:0,0:0:0:0:
235,79,32415,1,8,0:1:0:0:
418,74,32567,5,10,0:0:0:0:
418,74,32719,2,0,B|425:170|406:119|409:216,1,132,8|8,0:1|0:1,0:0:0:0:
234,295,33176,2,0,L|307:275,1,66,10|0,0:0|0:0,0:0:0:0:
445,319,33481,6,0,B|459:350|459:350|356:331,1,132,2|8,0:0|0:0,0:0:0:0:
181,212,34090,2,0,B|195:181|195:181|92:200,1,132,2|8,0:0|0:0,0:0:0:0:
75,193,34699,6,0,L|164:174,1,66,2|8,0:0|0:1,0:0:0:0:
338,325,35004,6,0,B|395:336|395:336|399:344|399:344|476:360,1,132,10|8,0:0|0:1,0:0:0:0:
391,124,35460,5,0,0:0:0:0:
313,220,35613,2,0,P|285:213|262:177,1,66,10|0,0:0|0:0,0:0:0:0:
272,112,36069,5,0,0:0:0:0:
185,27,36222,2,0,P|153:36|135:62,1,66,10|0,0:0|0:0,0:0:0:0:
144,91,36831,6,0,P|116:105|21:52,1,132,10|2,0:0|0:0,0:0:0:0:
144,91,37288,1,8,0:1:0:0:
65,297,37440,5,10,0:0:0:0:
165,243,37592,2,0,B|129:193|129:193|204:171,1,132,8|10,0:1|0:1,0:0:0:0:
274,195,38049,2,0,B|310:245|310:245|235:267,1,132,10|2,0:0|0:0,0:0:0:0:
261,273,38658,6,0,L|344:253,1,66,10|0,0:0|0:0,0:0:0:0:
512,123,38963,5,2,0:3:0:0:
445,90,39115,1,2,0:3:0:0:
373,123,39268,1,2,0:3:0:0:
377,131,39420,1,2,0:3:0:0:
240,305,39572,5,2,0:3:0:0:
120,359,39724,1,2,0:3:0:0:
34,266,39877,2,0,B|58:212|58:212|103:227,1,99,2|0,0:3|0:0,0:0:0:0:
165,282,40181,6,0,B|260:243|231:342|334:307,1,165,14|10,0:1|0:0,0:0:0:0:
472,134,40638,1,8,0:1:0:0:
464,135,40714,2,0,L|396:152,1,41.25,8|8,0:1|0:1,0:0:0:0:
353,163,40867,1,8,0:1:0:0:
353,163,40943,1,8,0:1:0:0:
249,261,41095,5,10,0:0:0:0:
199,170,41247,2,0,B|229:156|229:156|274:191|274:191|244:277,1,165,8|10,0:1|0:1,0:0:0:0:
370,378,41704,2,0,P|383:340|348:309,1,82.5,8|8,0:0|0:1,0:0:0:0:
263,364,41933,1,8,0:1:0:0:
258,367,42009,2,0,L|194:379,1,41.25,10|8,0:1|0:1,0:0:0:0:
139,370,42161,5,8,0:1:0:0:
283,258,42313,1,10,0:0:0:0:
44,167,42466,2,0,B|124:153|124:153|134:200,1,123.75,8|0,0:1|0:0,0:0:0:0:
147,273,42770,5,10,0:1:0:0:
281,40,42922,2,0,B|269:58|269:58|279:103|279:103|261:136,1,82.5,8|8,0:0|0:1,0:0:0:0:
465,273,43227,1,10,0:1:0:0:
463,261,43303,2,0,L|453:206,1,41.25,8|8,0:1|0:1,0:0:0:0:
483,126,43455,1,2,0:0:0:0:
483,126,43532,2,0,P|447:125|399:139,1,82.5,10|8,0:0|0:1,0:0:0:0:
232,316,43836,5,10,0:1:0:0:
312,214,43988,1,8,0:1:0:0:
100,121,44141,2,0,P|135:120|186:134,1,82.5,10|8,0:0|0:1,0:0:0:0:
261,135,44369,1,8,0:1:0:0:
215,135,44445,1,10,0:1:0:0:
181,164,44521,1,8,0:1:0:0:
177,209,44598,1,8,0:1:0:0:
254,287,44750,1,10,0:0:0:0:
122,344,44902,6,0,P|150:304|263:294,1,165,12|10,0:1|0:1,0:0:0:0:
471,234,45359,1,8,0:0:0:0:
403,138,45511,2,0,L|384:207,2,41.25,8|0|2,0:1|1:0|0:0,0:0:0:0:
497,40,45816,2,0,B|460:33|460:33|394:61,1,82.5,8|10,0:1|0:0,0:0:0:0:
424,166,46120,6,0,B|369:154|369:154|348:105|348:105|282:89,1,165,2|10,0:0|0:1,0:0:0:0:
167,27,46577,1,8,0:0:0:0:
104,100,46729,1,8,0:1:0:0:
18,59,46882,1,2,0:0:0:0:
104,100,47034,1,8,0:1:0:0:
92,105,47110,1,2,0:0:0:0:
76,113,47186,1,8,0:0:0:0:
46,287,47339,6,0,P|37:212|120:252,1,181.500005538941,10|8,0:1|0:1,0:0:0:0:
297,53,47795,2,0,B|297:76|281:102|281:102|269:150,1,90.7500027694703,10|0,0:0|0:0,0:0:0:0:
279,141,48100,2,0,B|279:118|263:92|263:92|251:44,1,90.7500027694703,10|10,0:1|0:1,0:0:0:0:
173,146,48405,1,10,0:0:0:0:
466,286,48557,6,0,P|471:209|386:238,1,197.99999395752,14|8,0:1|0:1,0:0:0:0:
477,296,49014,1,8,0:0:0:0:
278,157,49166,6,0,B|284:170|284:170|279:196|279:196|286:227,1,49.4999984893799,8|8,0:1|0:1,0:0:0:0:
386,237,49318,5,10,0:0:0:0:
234,299,49471,1,8,0:1:0:0:
100,276,49775,6,0,P|124:283|245:295,1,132,14|8,0:1|0:1,0:0:0:0:
435,198,50232,2,0,P|431:168|395:161,1,66,0|8,0:0|0:0,0:0:0:0:
307,84,50537,2,0,L|290:173,1,66,2|8,0:0|0:1,0:0:0:0:
350,237,50841,5,8,0:0:0:0:
475,99,50993,2,0,P|417:97|401:162,1,132,10|8,0:1|0:1,0:0:0:0:
488,195,51450,2,0,L|505:270,1,66,2|8,0:0|0:0,0:0:0:0:
333,221,51755,2,0,L|312:283,1,66,2|8,0:0|0:1,0:0:0:0:
411,234,52059,1,10,0:0:0:0:
223,238,52212,6,0,B|187:229|150:249|150:249|105:307|42:283,1,165,14|8,0:1|0:1,0:0:0:0:
261,80,52669,2,0,B|282:115|282:115|266:156,1,82.5,10|8,0:0|0:1,0:0:0:0:
167,98,52973,2,0,L|95:82,2,41.25,10|8|8,0:1|0:1|0:1,0:0:0:0:
218,335,53278,1,10,0:0:0:0:
223,338,53354,2,0,L|336:320,1,82.5,2|0,0:0|0:0,0:0:0:0:
329,335,53582,5,10,0:1:0:0:
370,240,53735,1,8,0:1:0:0:
462,273,53887,1,10,0:0:0:0:
446,197,54039,1,8,0:1:0:0:
287,110,54191,5,10,0:0:0:0:
364,0,54344,2,0,L|368:24,1,24.75,8|0,0:1|0:0,0:0:0:0:
378,105,54648,6,0,B|306:94|306:94|280:44|280:44|209:32,1,198,14|8,0:1|0:0,0:0:0:0:
34,145,55257,2,0,L|125:127,1,66,0|2,0:0|0:0,0:0:0:0:
98,132,55562,2,0,L|85:182,2,33,8|0|8,0:1|3:0|0:0,0:0:0:0:
205,224,55867,6,0,P|245:237|353:262,1,132,10|8,0:1|0:1,0:0:0:0:
191,305,56323,2,0,P|182:333|90:355,1,132,10|2,0:0|0:0,0:0:0:0:
225,208,56780,2,0,P|229:180|264:141,1,66,8|8,0:1|0:0,0:0:0:0:
333,285,57085,1,14,0:1:0:0:
0,19,57542,5,2,3:0:0:0:
324,81,57770,1,2,3:0:0:0:
327,86,57846,1,0,3:0:0:0:
404,100,57999,1,0,0:0:0:0:
482,116,58151,1,2,3:3:0:0:
505,22,58303,6,0,B|485:24|485:24|456:23|456:23|429:27,1,66,14|0,0:1|0:0,0:0:0:0:
189,135,58608,6,0,B|169:137|169:137|140:136|140:136|113:140,1,66,14|0,0:1|0:0,0:0:0:0:
54,173,58912,5,10,0:1:0:0:
173,114,59065,6,0,L|213:122,1,33,10|0,0:0|0:0,0:0:0:0:
420,43,59217,6,0,L|452:49,1,33,10|0,0:0|0:0,0:0:0:0:
512,203,59445,5,2,1:3:0:0:
512,203,59521,2,0,B|397:137|438:293|293:239,1,214.49999018097,14|8,0:1|0:1,0:0:0:0:
113,112,59978,6,0,P|156:82|123:121,1,136.125004154205,10|0,0:0|0:0,0:0:0:0:
137,123,60283,2,0,L|150:16,1,90.7500027694703,10|2,0:1|0:2,0:0:0:0:
109,236,60587,5,8,0:0:0:0:
111,314,60740,2,0,B|72:277|72:230|100:194|100:194|84:218|118:243,1,181.500005538941,2|0,0:0|0:0,0:0:0:0:
294,313,61197,6,0,P|335:303|358:258,1,90.7500027694703,10|2,0:0|0:0,0:0:0:0:
294,313,61501,1,10,0:1:0:0:
464,199,61653,2,0,P|437:162|368:175,1,90.7500027694703,10|8,0:1|0:0,0:0:0:0:
456,382,61958,6,0,P|507:356|461:300,1,136.125004154205,10|0,0:1|0:0,0:0:0:0:
404,263,62262,2,0,L|305:285,1,90.7500027694703,8|10,0:1|0:0,0:0:0:0:
62,145,62567,1,2,0:0:0:0:
65,139,62643,1,2,0:0:0:0:
68,133,62719,1,10,0:1:0:0:
143,151,62872,1,2,0:0:0:0:
167,81,63024,1,10,0:0:0:0:
44,228,63176,6,0,B|76:201|155:229|103:256|177:294|219:255,1,181.500005538941,2|0,0:0|0:0,0:0:0:0:
512,70,63633,2,0,P|490:75|395:87,1,90.7500027694703,10|2,0:0|0:1,0:0:0:0:
422,85,63861,2,0,L|432:164,1,45.3750013847352,2|8,0:0|0:0,0:0:0:0:
470,195,64090,5,10,0:1:0:0:
318,300,64242,1,8,0:0:0:0:
179,69,64394,2,0,B|238:47|257:113|257:113|218:187,1,160.874992635727,14|0,0:1|0:0,0:0:0:0:
217,182,64699,1,8,0:1:0:0:
31,362,64851,5,10,0:0:0:0:
105,226,65004,1,2,0:0:0:0:
233,299,65156,2,0,P|265:305|233:293,1,90.7500027694703,10|0,0:1|0:0,0:0:0:0:
126,312,65460,5,8,0:0:0:0:
365,156,65613,2,0,P|407:178|359:172,1,136.125004154205,2|0,0:0|0:0,0:0:0:0:
359,172,65917,2,0,L|477:155,1,90.7500027694703,0|8,0:0|0:0,0:0:0:0:
230,6,66222,2,0,L|317:19,1,45.3750013847352,0|0,0:1|3:0,0:0:0:0:
301,20,66374,1,10,0:1:0:0:
289,93,66526,1,0,0:0:0:0:
149,176,66679,5,8,0:0:0:0:
198,366,66831,2,0,B|192:330|192:330|228:256|228:256|219:202,1,160.874992635727,14|0,0:1|0:0,0:0:0:0:
220,205,67136,5,8,0:1:0:0:
112,36,67288,2,0,B|106:18|106:18|46:25|46:25|22:77|22:77|68:106,1,160.874992635727,10|0,0:0|0:0,0:0:0:0:
125,113,67592,5,10,0:0:0:0:
310,2,67745,1,10,0:1:0:0:
364,209,67897,1,10,0:0:0:0:
512,5,68049,6,0,P|510:35|492:370,1,346.499989425659,14|8,0:1|0:0,0:0:0:0:
19,107,68658,5,8,0:1:0:0:
24,185,68811,1,8,0:3:0:0:
25,188,68887,1,8,0:3:0:0:
26,191,68963,1,4,0:3:0:0:
23,353,69115,6,0,L|54:348,1,20.625,8|0,0:0|0:0,0:0:0:0:
241,384,69268,6,0,B|290:333|255:284|255:284|253:283|253:283|215:228|264:188,1,214.49999018097,14|8,0:1|0:1,0:0:0:0:
450,64,69724,2,0,P|495:48|455:79,1,136.125004154205,10|0,0:0|0:0,0:0:0:0:
459,83,70029,2,0,L|356:72,1,90.7500027694703,10|2,0:1|0:0,0:0:0:0:
191,138,70334,5,10,0:2:0:0:
56,35,70486,2,0,B|37:24|37:24|93:6|93:6|64:130,1,181.500005538941,2|0,0:0|0:0,0:0:0:0:
0,287,70943,6,0,P|16:255|77:249,1,90.7500027694703,10|2,0:0|0:0,0:0:0:0:
301,147,71247,1,10,0:1:0:0:
204,249,71400,2,0,L|218:335,2,45.3750013847352,10|8|8,0:1|0:1|0:0,0:0:0:0:
420,206,71704,6,0,P|493:216|448:266,1,136.125004154205,10|0,0:1|0:0,0:0:0:0:
410,288,72009,1,8,0:1:0:0:
266,152,72161,6,0,B|245:97|321:75|257:10,1,136.125004154205,10|0,0:0|0:0,0:0:0:0:
202,63,72466,2,0,B|150:109|85:96|85:96|94:90|131:101|126:131,1,181.500005538941,10|8,0:1|0:0,0:0:0:0:
298,237,72922,2,0,B|319:239|318:261|318:261|248:281|215:346|271:392,1,181.500005538941,2|0,0:0|0:0,0:0:0:0:
324,341,73303,1,2,0:0:0:0:
331,340,73379,2,0,P|358:330|335:362,1,90.7500027694703,10|8,0:0|0:1,0:0:0:0:
117,256,73684,5,8,0:0:0:0:
221,297,73836,1,8,0:1:0:0:
502,169,73988,5,8,0:0:0:0:
349,250,74141,2,0,P|313:199|361:229,1,160.874992635727,14|0,0:1|0:0,0:0:0:0:
360,218,74445,6,0,L|343:295,1,53.6249975452424,8|0,0:1|0:0,0:0:0:0:
130,153,74598,2,0,L|142:253,1,90.7500027694703,10|2,0:0|0:0,0:0:0:0:
429,67,74902,1,10,0:1:0:0:
392,0,75054,1,0,0:0:0:0:
317,26,75207,1,8,0:0:0:0:
142,159,75359,6,0,B|114:137|46:136|46:136|4:93|51:64,1,181.500005538941,2|0,0:0|0:0,0:0:0:0:
58,70,75816,2,0,P|65:88|10:144,1,90.7500027694703,10|0,0:0|0:0,0:0:0:0:
24,145,76044,1,2,3:0:0:0:
19,148,76120,2,0,P|116:131|185:186,1,181.500005538941,10|8,0:1|0:0,0:0:0:0:
457,379,76577,6,0,B|448:311|448:311|505:272|505:272|491:190,1,214.49999018097,14|8,0:1|0:1,0:0:0:0:
478,43,77034,5,10,3:2:0:0:
356,99,77186,1,0,3:0:0:0:
469,127,77339,6,0,L|407:145,1,41.25,10|0,3:1|3:1,0:0:0:0:
350,18,77491,2,0,L|389:28,1,41.25,0|0,3:1|3:1,0:0:0:0:
343,138,77643,2,0,L|364:73,1,41.25,8|0,3:2|0:0,0:0:0:0:
465,3,77795,2,0,L|477:42,1,41.25,2|0,3:1|3:0,0:0:0:0:
434,106,77948,5,8,3:2:0:0:
394,128,78024,1,0,3:0:0:0:
350,116,78100,1,0,3:0:0:0:
326,77,78176,1,0,3:0:0:0:
300,39,78252,1,8,3:2:0:0:
268,6,78328,1,0,3:0:0:0:
222,1,78405,1,0,3:0:0:0:
180,20,78481,1,0,3:0:0:0:
154,57,78557,1,8,3:2:0:0:
31,210,78709,2,0,L|13:263,2,41.25,0|0|8,3:0|3:0|3:2,0:0:0:0:
168,65,79014,6,0,B|199:10|268:3|335:21|382:106|320:216|209:183|230:118|230:118|244:133|261:137,2,395.999987915039,14|14|14,0:1|0:1|0:1,0:0:0:0:
99,140,81755,6,0,L|103:171,1,24.74999924469,14|0,0:1|0:0,0:0:0:0:
233,203,82059,6,0,L|221:237,1,24.74999924469,14|0,0:1|0:0,0:0:0:0:
365,278,82364,6,0,L|374:312,1,24.74999924469,14|0,0:1|0:0,0:0:0:0:
512,360,82669,6,0,L|504:396,1,24.74999924469,14|0,0:1|0:0,0:0:0:0:
195,326,82973,5,10,0:1:0:0:
195,326,83049,1,10,0:1:0:0:
195,326,83125,2,0,L|96:348,1,74.2499977340699,10|8,0:0|0:1,0:0:0:0:
405,218,83430,6,0,B|415:200|436:202|436:202|415:210|391:190,1,74.2499977340699,10|8,0:2|0:1,0:0:0:0:
256,84,83735,6,0,B|252:67|252:67|264:42|264:42|246:15|246:15|272:-11,1,98.9999969787599,2|14,0:0|0:1,0:0:0:0:
148,27,92567,5,8,0:0:0:0:
358,86,92719,1,8,0:1:0:0:
311,151,93024,5,8,0:1:0:0:
143,210,93176,1,8,0:0:0:0:
143,210,93328,1,8,0:1:0:0:
186,383,93481,6,0,P|184:370|191:350,1,32.1750010800934,2|2,0:3|0:3,0:0:0:0:
269,289,93633,6,0,P|272:271|260:240,1,32.1750010800934,2|2,0:3|0:3,0:0:0:0:
161,112,93785,6,0,B|136:93|136:93|-7:126,1,165,14|10,0:1|0:0,0:0:0:0:
12,202,94242,1,8,0:1:0:0:
190,273,94394,1,10,0:1:0:0:
190,273,94471,1,8,0:1:0:0:
190,273,94547,2,0,L|172:328,1,41.25,8|0,0:1|0:0,0:0:0:0:
261,350,94699,5,10,0:0:0:0:
352,250,94851,2,0,P|371:237|462:242,1,82.5,8|8,0:1|0:1,0:0:0:0:
352,250,95156,1,10,0:1:0:0:
224,145,95308,2,0,P|205:132|114:137,1,82.5,8|8,0:0|0:1,0:0:0:0:
76,160,95537,1,2,0:1:0:0:
72,165,95613,2,0,L|84:232,1,41.25,10|8,0:1|0:1,0:0:0:0:
236,145,95765,2,0,L|228:185,1,41.25,8|0,0:1|0:0,0:0:0:0:
149,97,95917,5,10,0:0:0:0:
218,266,96070,2,0,B|127:224|146:337|34:269,1,165,8|10,0:1|0:1,0:0:0:0:
258,170,96526,2,0,B|297:208|348:162|348:162|292:177|338:237,1,165,8|10,0:0|0:1,0:0:0:0:
386,281,96907,1,8,0:1:0:0:
389,273,96983,2,0,L|403:205,1,41.25,8|0,0:1|0:0,0:0:0:0:
468,120,97136,5,10,0:0:0:0:
348,162,97288,1,8,0:1:0:0:
498,264,97440,2,0,B|463:250|463:250|404:262,1,82.5,10|8,0:1|0:1,0:0:0:0:
192,201,97745,5,10,0:0:0:0:
304,241,97897,1,8,0:1:0:0:
196,364,98049,1,10,0:1:0:0:
196,364,98125,1,8,0:1:0:0:
196,364,98202,2,0,B|187:343|187:343|202:317,1,41.25,8|0,0:1|0:0,0:0:0:0:
292,144,98354,5,10,0:0:0:0:
466,230,98506,2,0,B|432:218|432:218|349:264|349:264|296:241,1,165,12|10,0:1|0:1,0:0:0:0:
64,169,98963,2,0,P|91:166|151:146,1,82.5,8|8,0:0|0:1,0:0:0:0:
143,149,99191,1,2,0:0:0:0:
143,149,99268,2,0,P|126:162|127:241,1,82.5,2|8,0:0|0:1,0:0:0:0:
252,294,99572,5,10,0:0:0:0:
3,384,99724,2,0,B|-3:332|55:307|55:307|17:337|34:382,1,165,0|10,0:0|0:1,0:0:0:0:
108,363,100105,1,0,3:0:0:0:
108,363,100181,2,0,P|145:363|183:311,1,82.5,8|8,0:0|0:1,0:0:0:0:
389,184,100486,2,0,P|389:147|337:109,1,82.5,2|8,0:0|0:1,0:0:0:0:
277,15,100790,2,0,P|256:27|244:53,1,41.25,8|0,0:0|0:0,0:0:0:0:
68,101,100943,6,0,B|116:125|148:67|148:67|102:102|161:152,1,181.500005538941,10|8,0:1|0:1,0:0:0:0:
258,324,101400,2,0,B|229:249|342:273|261:139,1,181.500005538941,10|10,0:0|0:1,0:0:0:0:
87,223,101856,2,0,B|98:236|98:236|180:219,1,90.7500027694703,10|10,0:1|0:0,0:0:0:0:
379,94,102161,6,0,B|411:50|411:50|492:61|492:61|474:94,1,148.49999546814,14|0,0:1|0:0,0:0:0:0:
509,84,102466,2,0,L|428:75,1,49.4999984893799,8|0,0:1|0:0,0:0:0:0:
305,162,102618,1,8,0:0:0:0:
456,322,102770,5,8,0:1:0:0:
456,322,102846,1,8,0:1:0:0:
456,322,102922,2,0,P|473:304|474:259,1,49.4999984893799,10|0,0:0|0:0,0:0:0:0:
372,103,103075,2,0,P|389:121|390:166,1,49.4999984893799,8|0,0:1|0:0,0:0:0:0:
130,302,103379,6,0,P|135:263|220:260,1,132,14|8,0:1|0:1,0:0:0:0:
213,252,103836,1,0,0:0:0:0:
323,195,103988,2,0,P|314:210|302:273,1,66,8|2,0:0|0:0,0:0:0:0:
319,322,104293,2,0,P|311:300|311:256,1,66,8|8,0:1|0:0,0:0:0:0:
371,105,104598,6,0,B|286:77|286:77|304:100|289:124,1,132,10|8,0:1|0:1,0:0:0:0:
214,122,105054,1,2,0:0:0:0:
395,221,105207,2,0,P|420:217|473:204,1,66,8|2,0:0|0:0,0:0:0:0:
322,318,105511,2,0,P|315:335|300:389,1,66,8|10,0:1|0:0,0:0:0:0:
301,380,105816,6,0,P|283:344|173:345,1,165,14|8,0:1|0:1,0:0:0:0:
0,208,106273,2,0,P|32:200|63:154,1,82.5,10|8,0:0|0:1,0:0:0:0:
168,76,106577,1,10,0:1:0:0:
168,76,106653,2,0,L|72:61,1,82.5,8|0,0:1|0:0,0:0:0:0:
62,58,106882,1,10,0:0:0:0:
187,223,107034,2,0,L|198:155,1,41.25,8|0,0:1|0:0,0:0:0:0:
258,102,107186,5,10,0:1:0:0:
414,211,107339,1,8,0:1:0:0:
246,299,107491,1,10,0:0:0:0:
315,173,107643,6,0,L|331:228,1,41.25,8|0,0:1|0:0,0:0:0:0:
344,288,107795,1,10,0:0:0:0:
70,374,107948,6,0,P|61:315|114:303,1,123.75,8|0,0:1|0:0,0:0:0:0:
176,352,108252,6,0,B|307:444|442:338|427:246|316:199|275:300,1,396,14|0,0:1|0:0,0:0:0:0:
290,291,109318,1,2,0:0:0:0:
419,203,109471,6,0,B|288:111|153:217|168:309|279:356|302:264,1,371.249988670349,14|0,0:1|0:0,0:0:0:0:
488,35,110537,6,0,L|502:-20,2,37.1249988670349,0|2|14,0:0|0:0|0:1,0:0:0:0:
497,176,110993,5,0,0:0:0:0:
421,155,111146,1,2,3:0:0:0:
349,137,111298,1,0,0:0:0:0:
349,137,111374,1,2,3:0:0:0:
33,257,111603,5,0,0:0:0:0:
139,212,111755,1,2,0:3:0:0:
308,368,111907,6,0,B|311:338|327:359|337:299,1,66,14|0,0:1|0:0,0:0:0:0:
99,326,112212,6,0,B|95:296|79:317|69:257,1,66,14|0,0:1|0:0,0:0:0:0:
242,142,112516,5,10,0:1:0:0:
315,324,112669,6,0,L|303:356,1,33,10|0,0:0|0:0,0:0:0:0:
59,286,112821,6,0,L|71:318,1,33,10|0,0:0|0:0,0:0:0:0:
397,278,113049,5,2,1:3:0:0:
400,283,113125,2,0,B|472:221|374:103|311:202|396:246|455:160,1,230.99999295044,14|8,0:1|0:1,0:0:0:0:
512,24,113582,6,0,P|463:12|510:34,1,148.49999546814,10|0,0:0|0:0,0:0:0:0:
508,37,113887,2,0,B|492:21|492:21|394:39,1,98.9999969787599,10|2,0:1|0:1,0:0:0:0:
208,58,114191,5,8,0:0:0:0:
91,127,114344,2,0,B|180:141|180:141|234:111|238:71|194:50,1,197.99999395752,2|0,0:0|0:0,0:0:0:0:
145,8,114724,1,2,0:0:0:0:
139,6,114801,2,0,B|61:28|61:28|83:39,1,98.9999969787599,10|0,0:0|0:0,0:0:0:0:
345,134,115105,6,0,L|427:161,1,49.4999984893799,10|0,0:1|0:0,0:0:0:0:
466,180,115257,2,0,P|489:187|463:169,1,98.9999969787599,10|8,0:1|0:0,0:0:0:0:
196,298,115562,6,0,B|114:270|141:368|16:325,1,148.49999546814,10|0,0:1|0:0,0:0:0:0:
75,258,115867,1,8,0:1:0:0:
229,196,116019,1,10,0:0:0:0:
445,362,116171,5,2,0:0:0:0:
443,368,116247,1,2,0:0:0:0:
441,375,116323,1,10,0:1:0:0:
364,353,116476,1,2,0:0:0:0:
287,376,116628,1,8,0:0:0:0:
14,215,116780,6,0,P|41:146|79:189,1,148.49999546814,2|0,0:0|0:0,0:0:0:0:
149,212,117085,2,0,L|215:228,1,49.4999984893799,0|0,0:0|0:0,0:0:0:0:
445,278,117237,6,0,B|426:283|399:268|399:268|432:294|421:326,1,98.9999969787599,10|2,0:2|0:1,0:0:0:0:
347,332,117466,2,0,L|270:357,1,49.4999984893799,0|8,0:0|0:0,0:0:0:0:
77,248,117694,5,10,0:1:0:0:
206,302,117846,1,8,0:0:0:0:
0,355,117999,6,0,B|7:384|151:353|55:312|209:238|234:342,1,230.99999295044,14|8,0:1|0:1,0:0:0:0:
510,268,118455,5,10,0:0:0:0:
395,185,118608,1,2,0:0:0:0:
208,326,118760,2,0,B|176:319|164:268|199:237|199:237|303:213,1,197.99999395752,10|8,0:1|0:0,0:0:0:0:
512,128,119217,6,0,B|489:131|489:131|441:104|441:104|407:109,1,98.9999969787599,2|10,0:0|0:1,0:0:0:0:
182,222,119521,2,0,B|187:202|187:188|195:161,2,49.4999984893799,0|0|8,0:0|0:0|0:0,0:0:0:0:
94,158,119826,1,0,0:0:0:0:
260,342,119978,6,0,B|294:373|337:338|337:338|339:339|339:339|341:318|357:242,1,148.49999546814,10|0,0:1|0:0,0:0:0:0:
368,262,120283,2,0,L|288:280,1,49.4999984893799,8|0,0:0|0:0,0:0:0:0:
0,280,120435,6,0,B|105:234|61:365|203:300,1,173.24999471283,14|0,0:1|0:0,0:0:0:0:
173,305,120740,1,8,0:1:0:0:
431,196,120892,6,0,B|376:197|361:123|361:123|386:148|339:197,1,173.24999471283,10|0,0:0|0:0,0:0:0:0:
285,148,121197,1,10,0:0:0:0:
459,264,121349,1,10,0:1:0:0:
262,369,121501,1,10,0:0:0:0:
512,171,121653,6,0,B|490:115|387:139|381:204|381:204|376:268|244:316|215:225|268:183,1,371.250014162064,14|8,0:1|0:0,0:0:0:0:
0,57,122262,5,8,0:1:0:0:
78,36,122415,1,8,2:3:0:0:
83,35,122491,1,8,2:3:0:0:
88,34,122567,1,4,2:3:0:0:
189,13,122719,6,0,L|185:33,1,20.625,8|0,2:2|0:0,0:0:0:0:
42,242,122872,6,0,B|93:229|120:135|98:87|17:121|32:175|119:180,1,230.99999295044,14|8,0:1|0:1,0:0:0:0:
312,297,123328,2,0,P|302:221|256:259,1,148.49999546814,10|0,0:0|0:0,0:0:0:0:
262,239,123633,2,0,L|391:261,1,98.9999969787599,10|2,0:1|0:0,0:0:0:0:
178,138,123938,5,10,0:0:0:0:
366,263,124090,2,0,B|263:214|281:356|142:273,1,197.99999395752,2|0,0:0|0:0,0:0:0:0:
381,78,124547,2,0,P|398:74|481:51,1,98.9999969787599,10|0,0:0|0:0,0:0:0:0:
322,164,124851,1,10,0:1:0:0:
442,223,125004,2,0,P|463:237|500:271,2,49.4999984893799,10|8|8,0:1|0:1|0:0,0:0:0:0:
251,43,125308,6,0,B|260:84|260:84|310:119|310:119|326:181,1,148.49999546814,10|0,0:1|0:0,0:0:0:0:
339,240,125613,1,8,0:1:0:0:
130,369,125765,6,0,B|118:370|118:370|137:302|137:302|133:296|133:296|147:249|147:249|122:240,1,148.49999546814,10|0,0:0|0:0,0:0:0:0:
144,322,126070,2,0,B|16:357|16:357|64:296,1,197.99999395752,10|8,0:1|0:0,0:0:0:0:
261,122,126526,2,0,B|274:106|274:106|271:58|224:30|224:30|249:3|249:3|297:18|271:58,1,197.99999395752,2|0,0:0|0:0,0:0:0:0:
180,101,126907,1,4,3:0:0:0:
180,101,126983,2,0,B|160:99|160:99|107:123|107:123|74:117,1,98.9999969787599,10|8,0:0|0:1,0:0:0:0:
241,282,127288,5,8,0:0:0:0:
122,226,127440,1,8,0:1:0:0:
336,216,127592,5,8,0:0:0:0:
423,28,127745,2,0,B|473:13|515:54|515:54|511:56|511:56|550:102|489:136,1,173.24999471283,14|0,0:1|0:0,0:0:0:0:
449,256,128049,6,0,B|438:229|456:242|432:182,1,57.7499982376099,8|0,0:1|0:0,0:0:0:0:
281,5,128202,2,0,B|262:78|256:31|230:117,1,98.9999969787599,10|2,0:0|0:0,0:0:0:0:
51,269,128506,2,0,B|132:263|193:202|154:139|107:158|109:182,1,197.99999395752,10|8,0:1|0:0,0:0:0:0:
102,176,128963,6,0,P|116:197|187:200,1,98.9999969787599,2|10,0:0|0:1,0:0:0:0:
45,290,129268,1,0,0:3:0:0:
321,259,129420,6,0,B|369:225|405:235|405:235|356:208|329:233,1,148.49999546814,10|0,0:0|0:0,0:0:0:0:
349,222,129724,2,0,B|357:246|357:246|343:298|343:298|349:323,1,98.9999969787599,10|0,0:1|0:0,0:0:0:0:
196,194,130029,1,8,0:2:0:0:
477,227,130181,6,0,P|415:204|251:297,1,230.99999295044,14|8,0:1|0:1,0:0:0:0:
1,353,130638,5,10,3:2:0:0:
150,267,130790,1,0,3:0:0:0:
10,165,130943,6,0,L|-6:227,1,41.25,10|0,3:1|3:1,0:0:0:0:
77,205,131095,2,0,L|66:244,1,41.25,0|0,3:1|3:1,0:0:0:0:
184,328,131247,6,0,L|168:266,1,41.25,8|0,3:2|0:0,0:0:0:0:
251,288,131399,2,0,L|240:248,1,41.25,2|0,3:1|3:0,0:0:0:0:
311,81,131552,5,8,3:2:0:0:
353,56,131628,1,0,3:0:0:0:
402,60,131704,1,0,3:0:0:0:
437,94,131780,1,0,3:0:0:0:
452,140,131856,1,8,3:2:0:0:
433,186,131933,1,0,3:0:0:0:
387,205,132009,1,0,3:0:0:0:
345,232,132085,1,0,3:0:0:0:
327,278,132161,1,8,3:2:0:0:
344,324,132237,1,0,3:0:0:0:
389,343,132313,1,0,3:0:0:0:
435,325,132389,1,0,3:0:0:0:
465,285,132466,2,0,L|394:273,1,41.25,8|0,3:2|3:2,0:0:0:0:
240,248,132618,6,0,B|214:185|291:146|291:146|148:231|83:128|153:56|196:64|215:98,2,395.999987915039,14|14|14,0:1|0:1|0:1,0:0:0:0:
294,378,135359,6,0,L|301:341,1,24.74999924469,14|0,0:1|0:0,0:0:0:0:
163,291,135664,6,0,L|156:251,1,24.74999924469,14|0,0:1|0:0,0:0:0:0:
391,177,135968,6,0,L|397:136,1,24.74999924469,14|0,0:1|0:0,0:0:0:0:
132,74,136273,6,0,L|125:38,1,24.74999924469,14|0,0:1|0:0,0:0:0:0:
258,0,136577,5,10,0:1:0:0:
260,3,136653,1,10,0:1:0:0:
261,6,136729,2,0,P|262:39|267:97,1,74.2499977340699,10|8,0:0|0:1,0:0:0:0:
333,118,136958,1,0,3:0:0:0:
335,121,137034,2,0,L|322:178,1,37.1249988670349,10|0,0:2|0:0,0:0:0:0:
244,314,137186,6,0,B|237:289|237:289|255:262|255:262|245:290|261:308,1,98.9999969787599,8|0,0:1|0:0,0:0:0:0:
332,276,137491,6,0,B|399:267|399:267|453:357|453:357|529:345,1,230.99999295044,14|8,0:1|0:1,0:0:0:0:
255,262,137948,1,10,0:0:0:0:
240,337,138100,1,2,0:0:0:0:
38,263,138252,2,0,P|55:213|110:218,1,98.9999969787599,10|2,0:1|0:0,0:0:0:0:
110,221,138481,2,0,L|165:229,1,49.4999984893799,0|10,0:0|0:0,0:0:0:0:
394,128,138709,6,0,L|460:117,1,49.4999984893799,2|0,0:0|0:0,0:0:0:0:
476,116,138861,5,10,0:1:0:0:
434,222,139014,1,2,0:0:0:0:
292,155,139166,5,10,0:0:0:0:
332,286,139318,1,2,0:0:0:0:
178,106,139471,5,10,0:1:0:0:
55,265,139623,2,0,B|26:266|-9:288|-9:288|17:279|30:234,1,98.9999969787599,2|10,0:0|0:0,0:0:0:0:
202,206,139927,6,0,B|249:219|249:219|280:276|280:276|332:288,1,148.49999546814,10|0,0:1|0:0,0:0:0:0:
401,203,140232,2,0,L|345:219,1,49.4999984893799,10|0,0:1|0:0,0:0:0:0:
171,304,140384,5,8,0:0:0:0:
259,350,140537,2,0,P|272:295|170:309,1,197.99999395752,2|2,0:0|0:0,0:0:0:0:
0,187,140993,2,0,P|25:176|52:149,1,49.4999984893799,10|2,0:0|0:3,0:0:0:0:
120,162,141146,2,0,P|99:154|71:136,1,49.4999984893799,2|2,0:0|0:0,0:0:0:0:
51,138,141298,6,0,B|88:194|57:225|57:225|6:270|58:349,1,197.99999395752,8|8,0:1|0:0,0:0:0:0:
111,278,141755,1,0,0:0:0:0:
396,174,141907,6,0,B|403:201|403:201|403:213|403:213|412:249,1,49.4999984893799,10|0,0:0|0:0,0:0:0:0:
320,349,142059,1,10,0:1:0:0:
315,123,142212,6,0,B|308:150|308:150|308:162|308:162|299:198,1,49.4999984893799,10|0,0:0|0:0,0:0:0:0:
411,312,142364,2,0,B|327:271|340:368|209:312,1,173.24999471283,14|0,0:1|0:0,0:0:0:0:
239,318,142669,1,8,0:1:0:0:
482,114,142821,6,0,P|445:99|389:179,1,148.49999546814,10|0,0:0|0:0,0:0:0:0:
474,257,143125,1,10,3:1:0:0:
478,258,143202,1,0,3:0:0:0:
482,260,143278,2,0,P|497:238|499:185,1,49.4999984893799,0|0,3:0|3:0,0:0:0:0:
298,210,143430,6,0,B|280:212|280:212|262:219|262:219|216:221,1,49.4999984893799,8|0,3:2|3:0,0:0:0:0:
89,320,143582,1,0,3:0:0:0:
84,316,143658,2,0,B|148:295|148:295|180:327,1,98.9999969787599,2|0,3:1|3:0,0:0:0:0:
107,204,143887,5,0,3:0:0:0:
107,204,143963,1,0,3:0:0:0:
107,204,144039,2,0,P|128:212|174:221,1,49.4999984893799,8|0,3:2|3:0,0:0:0:0:
268,303,144191,2,0,P|294:307|327:322,1,49.4999984893799,0|0,3:0|3:0,0:0:0:0:
458,235,144344,1,10,3:1:0:0:
408,225,144420,1,0,3:0:0:0:
362,244,144496,1,0,3:0:0:0:
337,286,144572,1,0,3:0:0:0:
334,336,144648,1,8,3:2:0:0:
473,218,144801,6,0,P|455:203|255:188,1,230.99999295044,14|8,0:1|0:1,0:0:0:0:
61,362,145257,6,0,P|29:370|13:294,1,115.49999647522,10|10,0:0|0:1,0:0:0:0:
338,195,145562,6,0,B|378:184|403:215|403:215|374:202|319:212,1,115.49999647522,10|10,0:0|0:1,0:0:0:0:
31,88,145867,6,0,B|13:88|13:88|80:69,1,57.7499982376099,10|0,0:0|0:0,0:0:0:0:
242,11,146019,6,0,B|274:88|218:119|218:119|151:158|190:231,1,230.99999295044,14|8,0:1|0:1,0:0:0:0:
424,345,146476,6,0,B|466:355|506:368|506:368|488:351|496:318,1,115.49999647522,10|10,0:0|0:1,0:0:0:0:
265,125,146780,5,10,0:0:0:0:
208,112,146856,1,4,3:0:0:0:
173,135,146933,1,10,0:1:0:0:
67,216,147085,6,0,L|94:210,1,20.625,8|0,0:0|0:0,0:0:0:0:
379,105,147237,6,0,B|419:34|325:-13|266:44|266:44|274:51|274:51|264:75|264:75|353:154|270:224,1,371.250014162064,14|8,0:1|0:2,0:0:0:0:
61,362,147846,1,0,0:0:0:0:
47,284,147999,1,8,0:1:0:0:
124,264,148151,1,0,0:0:0:0:
350,364,148303,6,0,P|369:371|398:348,1,49.4999984893799,10|0,1:2|0:0,0:0:0:0:
485,181,148455,6,0,B|495:150|495:150|432:133|381:188|381:188|427:218,1,197.99999395752,2|0,0:0|0:0,0:0:0:0:
512,287,148912,2,0,B|480:277|497:292|459:280,1,49.4999984893799,8|0,0:0|0:0,0:0:0:0:
234,187,149065,5,2,0:0:0:0:
85,243,149217,1,10,0:1:0:0:
275,114,149369,1,2,0:0:0:0:
75,15,149521,5,8,0:0:0:0:
340,214,149674,2,0,B|289:233|250:168|274:114|274:114|250:168|162:187|147:132,1,296.99999093628,10|8,0:1|0:0,0:0:0:0:
340,34,150283,2,0,B|380:26|380:26|391:19|391:19|429:21|429:21|462:7|462:7|534:23|543:78|482:111,1,247.4999924469,2|0,1:0|0:0,0:0:0:0:
435,201,150740,6,0,B|430:185|430:185|434:162|434:162|426:131,1,49.4999984893799,10|0,0:0|0:0,0:0:0:0:
338,228,150892,2,0,B|335:218|335:218|339:195|339:195|334:179,1,49.4999984893799,2|2,0:0|0:0,0:0:0:0:
197,83,151044,5,8,0:1:0:0:
73,42,151197,1,0,0:0:0:0:
172,128,151349,5,8,0:0:0:0:
286,93,151501,1,0,0:0:0:0:
88,197,151653,6,0,P|70:216|66:252,1,49.4999984893799,8|0,0:0|0:0,0:0:0:0:
142,310,151806,6,0,P|166:305|193:284,1,49.4999984893799,10|0,0:1|0:0,0:0:0:0:
236,199,151958,6,0,P|213:178|173:180,1,49.4999984893799,10|0,0:0|0:0,0:0:0:0:
0,331,152110,6,0,B|59:322|59:322|95:338|95:338|94:343|94:343|131:364|131:364|174:348|174:348|177:342|177:342|225:328|225:328|291:358,1,296.99999093628,14|8,3:1|3:2,0:0:0:0:
151,261,152719,1,0,3:0:0:0:
333,136,152872,6,0,B|287:126|287:126|233:164,1,98.9999969787599,10|0,3:1|3:0,0:0:0:0:
160,268,153100,1,2,3:2:0:0:
160,268,153176,2,0,P|159:247|171:203,1,49.4999984893799,8|0,3:2|3:0,0:0:0:0:
162,142,153328,2,0,P|160:164|153:190,1,49.4999984893799,0|0,3:0|3:0,0:0:0:0:
39,88,153481,6,0,B|69:82|69:82|99:61|99:61|159:51,1,98.9999969787599,10|0,3:1|3:0,0:0:0:0:
425,271,153785,2,0,B|395:265|395:265|365:244|365:244|305:234,1,98.9999969787599,8|0,3:2|3:0,0:0:0:0:
259,226,154014,1,0,3:0:0:0:
251,224,154090,1,10,2:1:0:0:
437,163,154242,6,0,B|459:168|483:159|483:159|457:148|437:190,1,98.9999969787599,2|8,0:0|0:0,0:0:0:0:
34,248,154547,6,0,B|52:217|52:217|109:182|154:236|154:236|154:314|211:325|254:294|225:266,1,264,14|8,0:1|0:1,0:0:0:0:
490,238,155004,5,10,0:0:0:0:
415,299,155156,1,10,0:1:0:0:
442,175,155308,5,10,0:0:0:0:
344,280,155460,1,10,0:1:0:0:
367,88,155613,5,10,0:0:0:0:
274,317,155765,2,0,P|222:347|15:269,1,264,14|8,0:1|0:1,0:0:0:0:
39,98,156222,5,10,0:0:0:0:
161,147,156374,1,10,0:1:0:0:
384,193,156526,5,10,0:0:0:0:
243,247,156679,1,10,0:1:0:0:
26,338,156831,6,0,B|41:325|41:325|97:338,1,66,10|0,0:0|0:0,0:0:0:0:
229,374,156983,5,14,3:1:0:0:
238,362,157059,1,0,3:0:0:0:
255,367,157136,1,0,3:0:0:0:
268,349,157212,1,0,3:0:0:0:
294,334,157288,5,8,3:1:0:0:
317,353,157364,1,0,3:0:0:0:
359,363,157440,1,8,3:2:0:0:
394,345,157516,1,0,3:0:0:0:
412,318,157592,1,0,3:0:0:0:
398,279,157669,1,0,3:0:0:0:
351,255,157745,5,10,3:1:0:0:
331,235,157821,1,0,3:0:0:0:
311,202,157897,1,0,3:0:0:0:
329,161,157973,1,0,3:0:0:0:
360,128,158049,1,8,3:2:0:0:
410,115,158125,1,0,3:0:0:0:
457,77,158202,1,0,3:0:0:0:
450,23,158278,1,0,3:0:0:0:
450,23,158354,6,0,P|431:39|425:93,1,57.7499982376099,10|0,3:1|3:0,0:0:0:0:
258,167,158506,1,0,3:0:0:0:
283,144,158582,1,0,3:0:0:0:
338,136,158658,1,8,3:2:0:0:
380,167,158735,1,0,3:0:0:0:
428,204,158811,1,0,3:0:0:0:
489,208,158887,1,0,3:0:0:0:
489,208,158963,6,0,B|496:191|496:191|495:163|495:163|505:138,1,57.7499982376099,10|0,2:2|0:0,0:0:0:0:
293,67,159115,6,0,B|288:56|288:56|289:28|289:28|282:11,1,57.7499982376099,10|0,2:2|0:0,0:0:0:0:
12,239,159420,5,14,0:1:0:0:
61,53,166729,6,0,B|137:37|137:37|157:130,1,173.24999471283,14|0,3:1|3:0,0:0:0:0:
272,237,167415,1,0,3:2:0:0:
272,237,167491,2,0,L|345:254,1,57.7499982376099,0|0,3:2|0:0,0:0:0:0:
280,163,167795,5,0,3:0:0:0:
346,106,167948,2,0,P|288:107|298:179,1,123.750004720688,2|0,3:2|3:0,0:0:0:0:
368,228,168405,1,0,3:0:0:0:
174,358,168633,5,0,3:0:0:0:
179,363,168709,2,0,L|199:280,1,61.875002360344,0|0,3:0|0:0,0:0:0:0:
60,232,169014,5,0,3:0:0:0:
51,152,169166,2,0,L|59:231,1,66,2|0,3:2|0:0,0:0:0:0:
209,135,169471,1,0,3:0:0:0:
196,206,169623,2,0,L|215:129,1,66,0|0,3:0|3:0,0:0:0:0:
199,114,169851,2,0,L|256:124,1,33,0|0,3:0|3:0,0:0:0:0:
340,56,170080,5,0,0:0:0:0:
320,150,170232,1,0,3:0:0:0:
461,35,170384,6,0,B|446:29|446:29|455:43,1,33,14|0,0:1|0:0,0:0:0:0:
68,134,170993,6,0,B|83:128|83:128|71:147,1,33,14|0,0:1|0:0,0:0:0:0:
397,246,171603,6,0,B|382:240|382:240|394:259,1,33,14|0,0:1|0:0,0:0:0:0:
183,366,171907,5,8,0:0:0:0:
184,362,171983,1,8,0:0:0:0:
186,359,172059,2,0,L|200:298,1,37.1249988670349,8|8,0:1|0:1,0:0:0:0:
291,237,172212,5,10,2:1:0:0:
290,231,172288,1,10,2:1:0:0:
288,225,172364,2,0,B|283:202|283:202|285:190|285:190|276:145,1,53.6249975452424,10|0,2:2|2:1,0:0:0:0:
207,61,172516,6,0,B|215:47|215:47|208:-6|208:-6|216:-22,1,61.875002360344,10|0,2:2|2:0,0:0:0:0:
0,18,174039,6,0,B|22:-5|83:-15|97:48|97:48|112:117|197:119|214:53,1,247.500009441376,14|8,0:1|2:1,0:0:0:0:
490,6,174496,5,2,1:1:0:0:
419,17,174648,5,2,1:1:0:0:
351,89,174801,5,2,1:1:0:0:
305,209,174953,5,2,1:1:0:0:
179,286,175105,5,2,1:1:0:0:
0,18,175257,6,0,B|22:-5|83:-15|97:48|97:48|112:117|197:119|220:56,1,264,14|8,0:1|0:1,0:0:0:0:
392,231,175714,1,10,0:0:0:0:
227,195,175867,5,2,0:0:0:0:
226,190,175943,1,2,0:0:0:0:
225,185,176019,1,10,0:1:0:0:
300,171,176171,1,2,0:0:0:0:
376,154,176323,1,10,0:0:0:0:
490,316,176476,6,0,B|401:336|401:336|352:325|334:270|386:227,1,214.49999018097,2|0,0:0|0:0,0:0:0:0:
496,80,176933,2,0,B|530:57|530:57|401:32,1,160.874992635727,10|0,0:0|0:0,0:0:0:0:
332,2,177237,6,0,L|254:19,1,53.6249975452424,10|0,0:0|0:0,0:0:0:0:
143,135,177389,2,0,P|119:102|141:56,1,80.4374963178636,10|0,0:1|0:0,0:0:0:0:
143,54,177542,6,0,L|227:69,1,53.6249975452424,8|0,0:0|0:0,0:0:0:0:
433,140,177694,6,0,B|384:173|369:153|227:96|330:35|397:92|323:210,1,247.500009441376,14|8,0:1|0:1,0:0:0:0:
104,308,178151,5,10,0:2:0:0:
264,237,178303,1,2,0:0:0:0:
422,313,178455,2,0,P|420:346|417:317,1,107.249995090485,10|0,0:1|0:0,0:0:0:0:
364,196,178760,5,8,0:0:0:0:
448,54,178912,2,0,P|500:28|459:66,1,160.874992635727,2|0,0:0|0:0,0:0:0:0:
463,67,179217,2,0,B|427:62|427:62|390:68|390:68|344:64,1,107.249995090485,0|8,0:0|0:0,0:0:0:0:
114,201,179521,6,0,B|127:167|113:183|127:134,1,53.6249975452424,0|0,0:0|0:0,0:0:0:0:
130,117,179674,1,10,0:1:0:0:
21,170,179826,1,0,0:0:0:0:
208,209,179978,5,8,0:0:0:0:
327,364,180131,2,0,B|311:318|311:318|360:241|360:241|330:168,1,185.625007081032,14|0,0:1|0:0,0:0:0:0:
332,192,180435,2,0,L|324:265,1,61.875002360344,8|0,0:1|0:0,0:0:0:0:
512,335,180587,5,10,0:0:0:0:
489,304,180664,1,0,3:0:0:0:
450,300,180740,1,10,0:1:0:0:
419,321,180816,1,0,3:0:0:0:
383,359,180891,5,10,3:2:0:0:
341,376,180968,1,0,3:2:0:0:
300,361,181044,1,10,3:2:0:0:
280,322,181120,1,0,3:2:0:0:
280,322,181197,6,0,B|272:310|272:310|202:325,1,61.875002360344,10|0,0:2|0:0,0:0:0:0:
102,233,181349,2,0,B|94:245|94:245|24:230,1,61.875002360344,10|0,3:2|3:0,0:0:0:0:
0,174,181501,5,8,3:2:0:0:
42,148,181577,1,0,3:0:0:0:
91,148,181653,1,0,3:0:0:0:
136,166,181729,1,0,3:0:0:0:
171,201,181806,1,8,3:2:0:0:
199,241,181882,1,0,3:0:0:0:
208,289,181958,1,0,3:0:0:0:
235,329,182034,1,0,3:0:0:0:
278,351,182110,1,8,3:2:0:0:
327,353,182186,1,0,3:0:0:0:
370,329,182262,1,0,3:0:0:0:
398,287,182339,1,0,3:0:0:0:
427,210,182415,6,0,B|426:196|426:196|418:179|418:179|425:159,1,41.25,8|0,3:2|3:0,0:0:0:0:
463,63,182567,6,0,B|400:54|381:-19|381:-19|399:54|337:95,1,247.500009441376,14|8,0:1|0:1,0:0:0:0:
69,16,183024,2,0,P|92:-5|144:72,1,160.874992635727,10|0,0:2|0:0,0:0:0:0:
82,109,183328,1,10,0:1:0:0:
163,218,183481,1,2,0:0:0:0:
343,90,183633,5,10,0:0:0:0:
260,260,183785,2,0,P|253:205|301:175,2,107.249995090485,2|0|0,0:0|0:0|0:0,0:0:0:0:
468,341,184242,5,10,0:2:0:0:
344,277,184394,1,0,0:0:0:0:
480,270,184547,5,10,0:1:0:0:
339,376,184699,2,0,B|296:362|296:362|291:354|291:354|228:333,1,107.249995090485,10|8,0:1|0:0,0:0:0:0:
27,159,185004,6,0,B|63:150|63:150|69:145|69:145|107:134|107:134|148:153|167:207|109:246,1,214.49999018097,10|8,0:1|0:1,0:0:0:0:
6,375,185460,2,0,P|29:352|132:351,1,107.249995090485,10|0,0:0|0:0,0:0:0:0:
287,135,185765,6,0,B|327:228|221:268|249:174|272:155|382:205,1,214.49999018097,8|8,0:1|0:0,0:0:0:0:
497,318,186222,2,0,P|455:344|437:262,1,160.874992635727,2|0,0:0|0:0,0:0:0:0:
451,256,186526,1,0,0:0:0:0:
295,59,186679,6,0,B|303:92|303:92|265:140|265:140|276:238,1,160.874992635727,10|0,0:0|0:0,0:0:0:0:
275,228,186983,1,8,0:0:0:0:
375,161,187136,1,8,0:1:0:0:
243,305,187288,5,8,0:0:0:0:
7,176,187440,2,0,B|117:129|86:237|222:190,1,185.625007081032,14|0,0:1|0:0,0:0:0:0:
193,190,187745,1,8,0:1:0:0:
331,49,187897,5,10,0:0:0:0:
192,102,188049,1,2,0:0:0:0:
375,117,188202,5,10,0:1:0:0:
454,158,188354,1,0,0:0:0:0:
416,236,188506,1,8,0:0:0:0:
273,381,188658,6,0,B|188:276|263:212|346:245|313:296,1,214.49999018097,2|0,0:0|0:0,0:0:0:0:
319,273,189039,1,2,3:0:0:0:
319,273,189115,2,0,B|290:275|290:275|241:297|241:297|193:300,1,107.249995090485,10|0,0:0|0:0,0:0:0:0:
10,174,189420,6,0,B|90:81|173:116|171:186|98:173|90:137,1,214.49999018097,10|8,0:1|0:0,0:0:0:0:
95,148,189877,6,0,P|127:69|274:96,1,247.500009441376,14|8,0:1|0:1,0:0:0:0:
492,172,190334,5,10,0:0:0:0:
384,120,190486,1,8,0:1:0:0:
240,206,190638,5,10,2:2:0:0:
384,120,190790,1,8,2:1:0:0:
322,377,190943,5,10,2:0:0:0:
384,120,191095,2,0,B|402:93|379:70|379:70|326:98|370:148|370:148|425:223|316:282,1,264,14|8,0:1|0:1,0:0:0:0:
434,354,191552,5,8,0:2:0:0:
273,283,191704,1,8,0:2:0:0:
301,198,191856,5,8,0:3:0:0:
165,259,192009,1,8,0:3:0:0:
165,259,192085,1,8,0:3:0:0:
165,259,192161,2,0,B|157:253|157:253|107:268|107:268|116:285,1,66,8|0,0:0|0:0,0:0:0:0:
0,384,192313,6,0,L|54:-9,1,371.250014162064,14|8,0:1|0:0,0:0:0:0:
118,36,192922,1,0,0:0:0:0:
305,246,193075,6,0,L|295:40,1,197.99999395752,10|8,0:1|0:0,0:0:0:0:
313,42,193532,2,0,L|293:272,1,197.99999395752,2|0,0:0|0:0,0:0:0:0:
495,373,193988,6,0,P|507:332|417:336,1,148.49999546814,8|0,0:0|0:0,0:0:0:0:
363,364,194293,1,10,0:1:0:0:
246,315,194445,1,10,0:1:0:0:
128,362,194598,1,8,0:0:0:0:
0,106,194750,6,0,B|18:86|18:86|67:126|67:126|33:228,1,197.99999395752,10|8,0:1|0:1,0:0:0:0:
219,120,195207,1,8,0:0:0:0:
192,187,195359,1,0,0:0:0:0:
335,321,195511,5,10,0:1:0:0:
293,158,195664,1,2,0:0:0:0:
335,321,195816,1,8,0:0:0:0:
477,219,195968,6,0,L|410:210,1,49.4999984893799,2|0,0:2|0:0,0:0:0:0:
400,206,196120,1,8,0:1:0:0:
484,295,196273,1,0,0:0:0:0:
243,232,196425,6,0,P|208:222|153:305,1,148.49999546814,8|0,0:0|0:0,0:0:0:0:
130,339,196729,2,0,P|120:319|124:273,1,49.4999984893799,10|0,0:2|0:0,0:0:0:0:
49,209,196882,2,0,L|-15:194,1,49.4999984893799,10|0,0:1|0:0,0:0:0:0:
194,61,197034,2,0,P|204:81|200:127,1,49.4999984893799,10|0,0:0|0:0,0:0:0:0:
0,197,197186,6,0,B|84:209|97:143|97:143|111:76|199:91,1,247.500009441376,14|8,0:1|0:1,0:0:0:0:
396,224,197643,1,10,0:0:0:0:
464,192,197795,1,2,0:0:0:0:
312,157,197948,5,10,0:1:0:0:
264,283,198100,1,0,0:0:0:0:
425,191,198252,5,8,0:2:0:0:
358,59,198405,2,0,P|313:48|284:93,1,98.9999969787599,2|8,0:0|0:1,0:0:0:0:
358,59,198709,1,0,0:0:0:0:
264,283,198861,2,0,P|215:301|145:230,1,148.49999546814,8|0,0:0|0:0,0:0:0:0:
39,239,199166,6,0,B|56:240|56:240|130:212|130:212|198:246|149:301,1,197.99999395752,10|8,0:1|0:0,0:0:0:0:
445,384,199623,6,0,B|427:344|427:344|475:249|475:249|450:172,1,185.625007081032,14|0,0:1|0:0,0:0:0:0:
450,197,199927,1,8,0:1:0:0:
320,61,200080,5,10,0:0:0:0:
434,116,200232,1,10,0:1:0:0:
154,184,200384,5,10,0:0:0:0:
284,129,200537,1,10,0:1:0:0:
0,47,200689,5,10,0:0:0:0:
120,111,200841,2,0,L|60:389,1,264,14|8,0:1|0:1,0:0:0:0:
462,136,201298,5,8,0:0:0:0:
311,209,201450,1,8,0:1:0:0:
217,259,201603,5,8,0:3:0:0:
229,289,201679,1,8,0:3:0:0:
261,287,201755,1,8,0:3:0:0:
331,348,201907,6,0,P|337:341|338:320,1,20.625,8|0,0:0|0:0,0:0:0:0:
114,131,202059,6,0,B|38:138|65:234|155:285|281:133,1,264,14|8,0:1|0:1,0:0:0:0:
394,23,202516,2,0,P|409:15|506:107,1,160.874992635727,8|0,0:0|0:0,0:0:0:0:
512,175,202821,6,0,B|502:214|502:214|523:245|523:245|489:393,1,214.49999018097,10|8,0:1|0:0,0:0:0:0:
271,260,203278,2,0,B|355:237|355:237|370:261,1,107.249995090485,2|8,0:0|0:1,0:0:0:0:
224,368,203582,1,0,0:0:0:0:
365,254,203735,2,0,B|276:239|276:239|245:202|295:169,1,160.874992635727,8|0,0:0|0:0,0:0:0:0:
356,148,204039,5,8,0:1:0:0:
449,114,204191,1,2,0:0:0:0:
424,22,204344,1,8,0:0:0:0:
212,108,204496,6,0,B|140:117|140:117|96:59|96:59|20:68,1,214.49999018097,10|8,0:1|0:1,0:0:0:0:
0,99,204953,2,0,B|43:88|43:88|116:95|116:95|175:77,1,160.874992635727,8|0,0:0|0:0,0:0:0:0:
247,33,205257,6,0,B|262:-2|262:-2|379:50|299:136,1,214.49999018097,10|8,0:1|0:0,0:0:0:0:
436,282,205714,2,0,P|406:291|354:226,1,107.249995090485,2|8,0:0|0:1,0:0:0:0:
301,132,206019,5,0,0:0:0:0:
444,292,206171,2,0,P|409:321|293:307,1,160.874992635727,8|0,0:0|0:0,0:0:0:0:
247,252,206476,5,8,0:0:0:0:
138,199,206628,5,8,0:1:0:0:
0,272,206780,5,8,0:0:0:0:
235,172,206933,6,0,B|279:146|267:105|267:105|320:195|403:162|403:97|381:78|325:75,1,264,14|8,0:1|0:1,0:0:0:0:
512,290,207389,2,0,L|503:229,1,41.25,10|0,0:0|0:0,0:0:0:0:
428,309,207542,2,0,L|418:249,1,41.25,8|0,0:1|0:0,0:0:0:0:
235,172,207694,5,10,0:0:0:0:
347,200,207846,1,8,0:1:0:0:
166,245,207999,5,10,0:0:0:0:
387,92,208151,2,0,B|260:129|302:-7|140:36,1,247.500009441376,14|8,0:1|0:1,0:0:0:0:
0,145,208608,6,0,B|33:134|33:134|91:149|91:149|148:133,1,132,10|8,0:0|0:1,0:0:0:0:
507,313,208912,2,0,B|474:302|474:302|416:317|416:317|359:301,1,132,10|8,0:0|0:1,0:0:0:0:
235,206,209217,5,10,0:0:0:0:
92,70,209369,2,0,P|82:103|264:183,1,264,14|8,0:1|0:1,0:0:0:0:
351,127,209826,5,10,3:2:0:0:
489,55,209978,1,0,3:0:0:0:
425,172,210131,6,0,P|436:148|428:74,1,53.6249975452424,8|0,3:2|3:0,0:0:0:0:
357,50,210283,2,0,L|264:68,1,53.6249975452424,0|0,3:0|3:0,0:0:0:0:
179,186,210435,6,0,P|168:162|176:88,1,53.6249975452424,8|0,3:2|3:0,0:0:0:0:
247,64,210587,2,0,L|340:82,1,53.6249975452424,2|0,3:2|3:0,0:0:0:0:
453,159,210740,5,8,3:2:0:0:
474,207,210816,1,0,3:0:0:0:
447,253,210892,1,0,3:0:0:0:
397,273,210968,1,0,3:0:0:0:
347,252,211044,1,8,3:2:0:0:
313,210,211120,1,0,3:0:0:0:
281,166,211197,1,0,3:0:0:0:
229,150,211273,1,0,3:0:0:0:
182,166,211349,1,10,0:0:0:0:
150,203,211425,1,8,3:0:0:0:
142,251,211501,1,10,0:0:0:0:
178,284,211577,1,8,3:0:0:0:
226,275,211653,2,0,B|232:253|232:253|230:237|230:237|237:198,1,49.4999984893799,8|0,0:3|0:0,0:0:0:0:
361,115,211806,6,0,B|297:32|151:122|244:174|70:269|12:153,2,395.999987915039,14|14|14,0:1|0:1|0:1,0:0:0:0:
478,201,214547,6,0,L|524:195,1,24.74999924469,14|0,0:1|0:0,0:0:0:0:
344,120,214851,6,0,L|373:128,1,24.74999924469,14|0,0:1|0:0,0:0:0:0:
178,281,215156,6,0,L|217:273,1,24.74999924469,14|0,0:1|0:0,0:0:0:0:
34,76,215460,6,0,L|80:86,1,24.74999924469,14|0,0:1|0:0,0:0:0:0:
0,214,215765,5,10,0:1:0:0:
0,214,215841,1,10,0:1:0:0:
0,214,215917,2,0,L|96:200,1,74.2499977340699,10|8,0:0|0:1,0:0:0:0:
269,57,216222,6,0,B|266:40|276:22|276:22|256:40|253:78,1,74.2499977340699,10|8,0:2|0:1,0:0:0:0:
424,244,216526,6,0,B|440:240|440:240|460:250|460:250|482:244|482:244|509:254,1,74.2499977340699,2|0,0:0|0:0,0:0:0:0:
418,265,216831,6,0,B|338:284|338:284|313:309|336:338,1,136.125004154205,14|0,0:1|0:0,0:0:0:0:
406,359,217136,2,0,L|520:378,1,90.7500027694703,8|0,0:0|0:0,0:0:0:0:
247,258,217440,6,0,B|210:229|170:260|170:260|141:321|77:308,1,181.500005538941,8|8,0:1|0:0,0:0:0:0:
93,232,217897,1,2,0:0:0:0:
277,105,218049,6,0,P|292:28|340:53,1,136.125004154205,8|0,0:1|0:0,0:0:0:0:
385,89,218354,2,0,B|406:85|406:85|455:101|455:101|486:91,1,90.7500027694703,10|0,0:0|0:0,0:0:0:0:
325,212,218658,1,10,0:1:0:0:
396,308,218811,2,0,P|406:287|412:254,2,45.3750013847352,2|2|10,0:1|0:0|0:0,0:0:0:0:
482,187,219115,6,0,P|443:230|319:216,1,181.500005538941,10|8,0:1|0:1,0:0:0:0:
182,94,219572,2,0,P|157:75|57:110,1,136.125004154205,10|0,0:0|0:0,0:0:0:0:
21,164,219877,2,0,L|116:187,1,90.7500027694703,10|2,0:1|0:0,0:0:0:0:
272,91,220181,1,8,0:0:0:0:
374,30,220334,6,0,B|388:62|410:110|410:110|376:175|322:143,1,181.500005538941,2|0,0:0|0:0,0:0:0:0:
175,321,220790,2,0,B|192:286|192:286|172:235|172:235|206:180,1,136.125004154205,8|0,0:0|0:0,0:0:0:0:
196,105,221095,6,0,L|249:125,1,45.3750013847352,10|0,0:1|0:0,0:0:0:0:
105,159,221247,6,0,L|70:203,1,45.3750013847352,10|0,0:1|0:0,0:0:0:0:
104,57,221400,6,0,L|74:1,1,45.3750013847352,8|0,0:0|0:0,0:0:0:0:
196,105,221552,6,0,B|296:64|269:176|377:132,1,181.500005538941,14|8,0:1|0:1,0:0:0:0:
511,330,222009,2,0,P|511:285|431:297,1,136.125004154205,10|0,0:0|0:0,0:0:0:0:
374,335,222313,2,0,B|323:370|253:299|288:279|342:303|294:388,1,181.500005538941,10|8,0:1|0:0,0:0:0:0:
372,229,222770,1,2,0:0:0:0:
180,304,222922,6,0,B|162:303|102:324|102:324|33:285|86:242,1,181.500005538941,8|10,0:1|0:0,0:0:0:0:
138,193,223379,1,0,0:0:0:0:
362,246,223532,2,0,B|380:245|440:266|440:266|509:227|456:184,1,181.500005538941,10|10,0:1|0:0,0:0:0:0:
243,19,223988,6,0,B|214:58|214:58|276:126|276:126|251:169,1,181.500005538941,14|8,0:1|0:1,0:0:0:0:
149,333,224445,5,10,3:2:0:0:
254,289,224598,1,0,3:0:0:0:
327,243,224750,5,8,3:1:0:0:
178,195,224902,1,0,3:0:0:0:
108,114,225054,5,8,3:1:0:0:
349,59,225207,2,0,L|341:7,1,45.3750013847352,2|0,3:2|3:2,0:0:0:0:
433,109,225359,5,8,3:1:0:0:
388,87,225435,1,0,3:0:0:0:
339,97,225511,1,2,3:2:0:0:
301,129,225587,1,0,3:0:0:0:
284,176,225664,1,8,3:2:0:0:
300,222,225740,1,0,3:0:0:0:
286,269,225816,1,2,3:2:0:0:
248,302,225892,1,0,3:0:0:0:
198,309,225968,1,8,3:1:0:0:
151,290,226044,1,0,3:0:0:0:
135,262,226120,6,0,L|145:215,1,28.874999118805,2|0,3:2|3:0,0:0:0:0:
84,159,226273,6,0,L|77:130,1,28.874999118805,8|0,3:2|0:0,0:0:0:0:
195,28,226425,6,0,L|201:0,1,28.874999118805,0|0,3:0|0:0,0:0:0:0:
446,49,226729,5,2,0:2:0:0:
368,96,226882,1,2,0:2:0:0:
444,144,227034,1,2,0:2:0:0:
328,210,227186,5,2,0:2:0:0:
368,96,227339,1,2,0:2:0:0:
200,56,227491,5,2,0:2:0:0:
224,176,227643,2,0,B|160:176|189:197|112:196,1,98.9999969787599,14|0,0:1|0:0,0:0:0:0:
