osu file format v14

[General]
AudioFilename: audio2.mp3
AudioLeadIn: 0
PreviewTime: 59445
Countdown: 0
SampleSet: Soft
StackLeniency: 0.7
Mode: 0
LetterboxInBreaks: 0
WidescreenStoryboard: 1

[Editor]
DistanceSpacing: 0.7
BeatDivisor: 4
GridSize: 32
TimelineZoom: 2.2

[Metadata]
Title:BWLAUTE BEIRRD
TitleUnicode:BWLAUTE BEIRRD
Artist:Yumeno Yuki
ArtistUnicode:夢乃ゆき
Creator:Lasse
Version:Insane.
Source:抜きゲーみたいな島に住んでる貧乳(わたし)はどうすりゃいいですか? 2
Tags:nukitashi 2 Is the prospect LMT AIR or Kalibe Hope or Despair opening full version eroge visual novel blue bird water japanese pop rock english sbeve
BeatmapID:2125589
BeatmapSetID:1014034

[Difficulty]
HPDrainRate:5
CircleSize:4
OverallDifficulty:8
ApproachRate:9
SliderMultiplier:1.6
SliderTickRate:1

[Events]
//Background and Video events
0,0,"d.jpg",0,0
//Break Periods
//Storyboard Layer 0 (Background)
//Storyboard Layer 1 (Fail)
//Storyboard Layer 2 (Pass)
//Storyboard Layer 3 (Foreground)
//Storyboard Layer 4 (Overlay)
//Storyboard Sound Samples

[TimingPoints]
1197,304.568527918782,4,2,0,70,1,0
10334,-100,4,2,34,40,0,0
10638,-100,4,2,34,5,0,0
10714,-100,4,2,34,5,0,0
10790,-166.666666666667,4,2,35,55,0,0
15054,-142.857142857143,4,2,35,55,0,0
15664,-125,4,2,35,55,0,0
18100,-111.111111111111,4,2,35,55,0,0
18557,-111.111111111111,4,2,35,55,0,0
19318,-100,4,2,35,60,0,0
20080,-142.857142857143,4,2,35,65,0,0
20156,-166.666666666667,4,2,35,5,0,0
20613,-166.666666666667,4,2,35,5,0,0
20689,-90.9090909090909,4,2,34,68,0,0
25410,-90.9090909090909,4,2,35,68,0,0
25714,-90.9090909090909,4,2,34,68,0,0
27846,-90.9090909090909,4,2,35,68,0,0
30435,-125,4,2,35,50,0,0
38049,-125,4,2,35,50,0,0
38202,-125,4,2,35,40,0,0
38354,-125,4,2,35,50,0,0
38506,-125,4,2,35,40,0,0
38658,-125,4,2,35,50,0,0
38811,-125,4,2,35,40,0,0
38963,-166.666666666667,4,2,35,42,0,0
39115,-166.666666666667,4,2,35,44,0,0
39268,-142.857142857143,4,2,35,46,0,0
39420,-142.857142857143,4,2,35,48,0,0
39572,-125,4,2,35,50,0,0
39724,-125,4,2,35,52,0,0
39877,-111.111111111111,4,2,35,54,0,0
40029,-111.111111111111,4,2,35,56,0,0
40181,-100,4,2,34,60,0,0
44902,-100,4,2,35,60,0,0
45207,-100,4,2,34,60,0,0
47339,-90.9090909090909,4,2,35,62,0,0
48557,-83.3333333333333,4,2,35,64,0,0
49775,-125,4,2,35,60,0,0
52212,-100,4,2,35,64,0,0
52669,-100,4,2,35,62,0,0
54648,-125,4,2,35,60,0,0
57085,-125,4,2,35,50,0,0
57389,-125,4,2,35,40,0,0
57846,-142.857142857143,4,2,35,40,0,0
58151,-142.857142857143,4,2,35,30,0,0
58303,-125,4,2,35,64,0,0
58912,-125,4,2,35,66,0,0
59065,-125,4,2,35,68,0,0
59217,-125,4,2,35,70,0,0
59521,-76.9230769230769,4,2,34,76,0,1
59978,-90.9090909090909,4,2,35,76,0,1
64394,-76.9230769230769,4,2,35,76,0,1
64699,-90.9090909090909,4,2,35,76,0,1
66831,-76.9230769230769,4,2,35,76,0,1
68049,-76.9230769230769,4,2,35,76,0,1
68811,-100,4,2,35,76,0,1
69115,-100,4,2,35,76,0,0
69268,-76.9230769230769,4,2,34,76,0,1
69724,-90.9090909090909,4,2,35,76,0,1
74141,-76.9230769230769,4,2,35,76,0,1
74598,-90.9090909090909,4,2,35,76,0,1
76577,-76.9230769230769,4,2,35,76,0,1
77339,-100,4,2,35,76,0,1
77795,-83.3333333333333,4,2,35,76,0,1
79014,-166.666666666666,4,2,35,60,0,0
79090,-166.666666666666,4,2,35,5,0,0
80080,-166.666666666666,4,2,35,35,0,0
80232,-166.666666666667,4,2,35,60,0,0
80308,-166.666666666667,4,2,35,5,0,0
81298,-166.666666666667,4,2,35,35,0,0
81450,-166.666666666667,4,2,35,60,0,0
82973,-111.111111111111,4,2,35,60,0,0
83735,-142.857142857143,4,2,35,50,0,0
83963,-166.666666666667,4,2,35,5,0,0
84039,-142.857142857143,4,2,35,48,0,0
88912,-128.205128205128,4,2,35,50,0,0
92567,-128.205128205128,4,2,35,52,0,0
93024,-128.205128205128,4,2,35,54,0,0
93633,-128.205128205128,4,2,35,48,0,0
93785,-100,4,2,34,60,0,0
98506,-100,4,2,35,60,0,0
98811,-100,4,2,35,60,0,0
100943,-90.9090909090909,4,2,35,60,0,0
102161,-83.3333333333333,4,2,35,60,0,0
103379,-125,4,2,35,60,0,0
105816,-100,4,2,35,60,0,0
106273,-100,4,2,35,60,0,0
108252,-125,4,2,35,60,0,0
108405,-125,4,2,35,5,0,0
109318,-125,4,2,35,40,0,0
109471,-111.111111111111,4,2,35,62,0,0
109547,-111.111111111111,4,2,35,5,0,0
110537,-111.111111111111,4,2,35,42,0,0
110689,-125,4,2,35,60,0,0
110993,-125,4,2,35,40,0,0
111450,-142.857142857143,4,2,35,40,0,0
111755,-142.857142857143,4,2,35,30,0,0
111907,-125,4,2,35,64,0,0
112516,-125,4,2,35,66,0,0
112669,-125,4,2,35,68,0,0
112821,-125,4,2,35,70,0,0
113125,-71.4285714285714,4,2,34,76,0,1
113582,-86.9565217391304,4,2,35,76,0,1
117999,-71.4285714285714,4,2,35,76,0,1
118455,-86.9565217391304,4,2,35,76,0,1
120435,-71.4285714285714,4,2,35,76,0,1
121501,-66.6666666666667,4,2,35,76,0,1
122415,-100,4,2,35,76,0,1
122719,-66.6666666666667,4,2,35,76,0,0
122872,-71.4285714285714,4,2,34,76,0,1
123328,-86.9565217391304,4,2,35,76,0,1
127745,-71.4285714285714,4,2,35,76,0,1
128202,-86.9565217391304,4,2,35,76,0,1
130181,-71.4285714285714,4,2,35,76,0,1
130943,-100,4,2,35,76,0,1
131400,-83.3333333333333,4,2,35,76,0,1
132618,-166.666666666667,4,2,35,60,0,0
132770,-166.666666666667,4,2,35,5,0,0
133684,-166.666666666667,4,2,35,35,0,0
133836,-166.666666666667,4,2,35,60,0,0
133988,-166.666666666667,4,2,35,5,0,0
134902,-166.666666666667,4,2,35,35,0,0
135054,-166.666666666667,4,2,35,60,0,0
136577,-111.111111111111,4,2,35,60,0,0
137491,-71.4285714285714,4,2,34,72,0,1
137948,-83.3333333333334,4,2,35,72,0,1
140156,-83.3333333333334,4,2,35,32,0,1
140232,-83.3333333333334,4,2,35,72,0,1
141907,-83.3333333333334,4,2,35,72,0,0
142364,-71.4285714285714,4,2,35,72,0,1
142821,-83.3333333333334,4,2,35,72,0,1
144801,-71.4285714285714,4,2,35,72,0,1
145257,-83.3333333333333,4,2,35,72,0,1
146019,-71.4285714285714,4,2,35,74,0,1
146933,-100,4,2,35,72,0,0
147085,-100,4,2,35,70,0,0
147237,-66.6666666666667,4,2,34,74,0,1
147694,-83.3333333333333,4,2,35,74,0,1
151653,-83.3333333333333,4,2,35,74,0,0
152110,-83.3333333333333,4,2,35,74,0,1
154090,-83.3333333333333,4,2,35,74,0,0
154547,-66.6666666666667,4,2,35,74,0,1
155765,-66.6666666666667,4,2,35,75,0,1
156983,-66.6666666666667,4,2,35,76,0,1
157745,-66.6666666666667,4,2,35,77,0,1
158354,-66.6666666666667,4,2,35,78,0,1
158963,-71.4285714285714,4,2,35,80,0,1
159420,-200,4,2,35,52,0,0
159496,-200,4,2,35,5,0,0
160638,-200,4,2,35,32,0,0
160790,-200,4,2,35,5,0,0
161856,-200,4,2,35,34,0,0
164293,-200,4,2,35,36,0,0
164445,-200,4,2,35,5,0,0
166273,-200,4,2,35,32,0,0
166729,-142.857142857143,4,2,35,38,0,0
167948,-133.333333333333,4,2,35,39,0,0
169166,-125,4,2,35,40,0,0
170384,-125,4,2,35,50,0,0
170993,-125,4,2,35,52,0,0
171603,-125,4,2,35,54,0,0
171907,-111.111111111111,4,2,35,56,0,0
172212,-76.9230769230769,4,2,35,58,0,0
172516,-66.6666666666667,4,2,35,60,0,0
174039,-66.6666666666667,4,2,35,74,0,1
174344,-66.6666666666667,4,2,35,66,0,1
174496,-66.6666666666667,4,2,35,68,0,0
174648,-66.6666666666667,4,2,35,70,0,0
174801,-66.6666666666667,4,2,35,72,0,0
174953,-66.6666666666667,4,2,35,74,0,0
175105,-66.6666666666667,4,2,35,76,0,0
175257,-62.5,4,2,34,78,0,1
175714,-83.3333333333333,4,2,35,78,0,1
177694,-66.6666666666667,4,2,35,78,0,1
178151,-83.3333333333333,4,2,35,78,0,1
180131,-66.6666666666667,4,2,35,78,0,1
182415,-100,4,2,35,78,0,0
182567,-66.6666666666667,4,2,34,78,0,1
183024,-83.3333333333333,4,2,35,78,0,1
187440,-66.6666666666667,4,2,35,78,0,1
187897,-83.3333333333333,4,2,35,78,0,1
189877,-66.6666666666667,4,2,35,78,0,1
191095,-62.5,4,2,35,78,0,1
191400,-62.5,4,2,35,72,0,1
191552,-62.5,4,2,35,74,0,1
191856,-62.5,4,2,35,76,0,1
192161,-62.5,4,2,35,78,0,0
192313,-66.6666666666667,4,2,34,78,0,1
192770,-83.3333333333333,4,2,35,78,0,1
197186,-66.6666666666667,4,2,35,78,0,1
197643,-83.3333333333333,4,2,35,78,0,1
199623,-66.6666666666667,4,2,35,78,0,1
200841,-62.5,4,2,35,78,0,1
201603,-100,4,2,35,78,0,1
201907,-100,4,2,35,78,0,0
202059,-62.5,4,2,34,78,0,1
202516,-80,4,2,35,78,0,1
205181,-80,4,2,35,38,0,1
205257,-80,4,2,35,78,0,1
206933,-62.5,4,2,35,79,0,1
207389,-80,4,2,35,79,0,1
208151,-66.6666666666667,4,2,35,79,0,1
208608,-62.5,4,2,35,79,0,1
209369,-62.5,4,2,35,80,0,1
209826,-80,4,2,35,80,0,1
211349,-83.3333333333333,4,2,35,80,0,1
211653,-83.3333333333333,4,2,35,74,0,1
211806,-166.666666666667,4,2,35,60,0,0
211958,-166.666666666667,4,2,35,5,0,0
212872,-166.666666666667,4,2,35,35,0,0
213024,-166.666666666667,4,2,35,60,0,0
213176,-166.666666666667,4,2,35,5,0,0
214090,-166.666666666667,4,2,35,35,0,0
214242,-166.666666666667,4,2,35,60,0,0
215765,-111.111111111111,4,2,35,60,0,0
216526,-142.857142857143,4,2,35,50,0,0
216755,-166.666666666667,4,2,35,5,0,0
216831,-90.9090909090909,4,2,34,68,0,0
217136,-90.9090909090909,4,2,35,68,0,0
226120,-117.647058823529,4,2,35,68,0,0
226729,-142.857142857143,4,2,35,37,0,0
226882,-142.857142857143,4,2,35,38,0,0
227034,-142.857142857143,4,2,35,39,0,0
227186,-142.857142857143,4,2,35,40,0,0
227339,-142.857142857143,4,2,35,41,0,0
227491,-142.857142857143,4,2,35,42,0,0
227643,-142.857142857143,4,2,35,60,0,0
227948,-142.857142857143,4,2,35,40,0,0

[Colours]
Combo1 : 250,190,230
Combo2 : 130,200,230
Combo3 : 255,230,140
Combo4 : 170,245,170

[HitObjects]
200,367,10334,6,2,B|255:278|124:273|214:165,1,200,2|0,0:0|0:0,0:1:0:0:
256,128,10790,5,14,0:1:0:0:
507,46,12770,5,8,0:0:0:0:
402,110,12922,1,8,0:1:0:0:
422,25,13075,5,8,0:0:0:0:
486,130,13227,1,12,0:1:0:0:
367,214,15054,5,8,0:1:0:0:
367,214,15131,1,8,0:1:0:0:
367,214,15207,2,0,P|334:208|317:173,1,55.9999982910157,8|8,0:0|0:1,0:0:0:0:
320,191,15664,6,0,B|297:158|297:158|197:148,1,128,14|0,0:1|0:0,0:0:0:0:
246,242,16120,2,0,P|229:271|222:308,1,64,8|0,0:1|0:0,0:0:0:0:
301,365,16425,1,8,0:0:0:0:
301,365,16577,2,0,P|334:354|374:357,1,64,8|0,0:1|0:0,0:0:0:0:
222,300,16882,6,0,B|157:279|165:317|96:296,1,128,14|0,0:1|0:0,0:0:0:0:
13,210,17339,2,0,L|4:175,2,32,8|8|8,0:1|0:1|0:1,0:0:0:0:
117,168,17643,1,8,0:0:0:0:
117,168,17795,2,0,L|129:79,1,64,8|0,0:1|0:0,0:0:0:0:
226,16,18100,6,0,B|271:14|271:14|286:37|286:37|365:65,1,143.999995605469,14|0,0:1|0:0,0:0:0:0:
408,165,18557,6,0,P|415:132|444:95,1,71.9999978027344,10|0,3:2|3:0,0:0:0:0:
436,101,18785,1,0,3:0:0:0:
436,101,18861,1,8,3:1:0:0:
512,191,19014,1,0,3:0:0:0:
431,261,19166,1,8,3:2:0:0:
326,202,19318,5,2,3:2:0:0:
326,202,19394,1,0,3:0:0:0:
326,202,19471,2,0,P|297:186|244:178,1,80,8|0,3:2|3:0,0:0:0:0:
192,309,19775,2,0,P|231:302|266:284,1,80,8|0,3:2|3:0,0:0:0:0:
149,167,20080,6,2,B|99:194|95:266|95:266|91:223|55:199,1,195.999994018555,2|0,0:0|0:0,0:1:0:0:
57,200,20689,6,0,B|44:147|44:147|57:83|57:83|43:18,2,176.000005371094,14|8|8,0:1|0:0|0:1,0:0:0:0:
141,308,21450,2,0,L|153:213,1,88.000002685547,2|8,0:0|0:0,0:0:0:0:
262,105,21755,5,2,0:0:0:0:
262,105,21831,1,2,0:0:0:0:
262,105,21907,2,0,P|215:102|175:94,1,88.000002685547,8|0,0:1|0:0,0:0:0:0:
327,197,22212,2,0,P|374:200|414:208,1,88.000002685547,10|0,0:0|0:0,0:0:0:0:
512,300,22516,5,10,0:1:0:0:
414,208,22669,1,2,0:1:0:0:
512,300,22821,1,10,0:0:0:0:
393,367,22973,6,0,P|372:283|417:211,1,176.000005371094,10|8,0:1|0:1,0:0:0:0:
333,108,23430,2,0,P|379:106|425:95,1,88.000002685547,10|0,0:0|0:0,0:0:0:0:
289,0,23735,1,10,0:1:0:0:
246,139,23887,2,0,P|238:88|219:44,1,88.000002685547,2|8,0:0|0:0,0:0:0:0:
130,187,24191,5,2,0:0:0:0:
130,187,24268,1,2,0:0:0:0:
130,187,24344,2,0,P|84:170|25:170,1,88.000002685547,8|0,0:1|0:0,0:0:0:0:
166,285,24648,2,0,P|212:302|271:302,1,88.000002685547,8|0,0:0|0:0,0:0:0:0:
397,184,24953,5,10,0:1:0:0:
243,170,25105,1,10,0:1:0:0:
393,209,25257,1,8,0:0:0:0:
414,58,25410,6,0,P|352:36|328:130,1,176.000005371094,14|8,0:1|0:1,0:0:0:0:
396,234,25867,2,0,P|439:235|505:241,1,88.000002685547,10|0,0:0|0:0,0:0:0:0:
349,362,26171,1,10,0:1:0:0:
279,290,26323,2,0,P|276:243|261:179,1,88.000002685547,2|8,0:0|0:0,0:0:0:0:
143,125,26628,5,2,0:0:0:0:
143,125,26704,1,2,0:0:0:0:
143,125,26780,2,0,L|46:108,1,88.000002685547,8|0,0:1|0:0,0:0:0:0:
247,51,27085,2,0,L|344:34,1,88.000002685547,10|0,0:0|0:0,0:0:0:0:
484,64,27389,5,10,0:1:0:0:
333,35,27542,1,2,0:0:0:0:
484,64,27694,1,10,0:0:0:0:
357,149,27846,6,0,B|313:144|313:144|278:189|278:189|192:232,1,176.000005371094,14|8,0:1|0:1,0:0:0:0:
70,279,28303,5,10,3:2:0:0:
87,271,28379,1,0,3:0:0:0:
102,259,28455,1,0,3:0:0:0:
114,245,28532,1,0,3:0:0:0:
123,228,28608,1,8,3:1:0:0:
128,209,28684,1,0,3:0:0:0:
129,190,28760,1,0,3:0:0:0:
125,172,28836,1,0,3:0:0:0:
117,154,28912,1,8,3:1:0:0:
106,139,28988,1,0,3:0:0:0:
92,127,29065,6,0,P|50:120|8:104,1,88.000002685547,2|8,3:2|3:1,0:0:0:0:
168,55,29369,2,0,P|174:31|190:-6,2,44.0000013427735,2|0|8,3:2|3:0|0:0,0:0:0:0:
256,128,29674,2,0,P|279:121|319:116,2,44.0000013427735,2|0|8,3:2|3:0|3:1,0:0:0:0:
239,233,29978,2,0,P|256:250|280:282,2,44.0000013427735,2|0|8,3:2|3:0|3:2,0:0:0:0:
268,265,30435,6,0,L|352:265,1,64,14|8,0:1|0:1,0:0:0:0:
405,316,30740,1,10,0:0:0:0:
477,263,30892,1,0,0:0:0:0:
448,178,31044,1,2,0:0:0:0:
358,179,31197,1,0,0:0:0:0:
329,93,31349,2,0,P|315:49|232:38,1,128,10|0,0:0|0:0,0:0:0:0:
67,123,31958,6,0,L|143:120,1,64,10|0,0:0|0:0,0:0:0:0:
90,205,32262,1,2,0:0:0:0:
7,185,32415,1,8,0:1:0:0:
67,123,32567,1,10,0:0:0:0:
90,205,32719,2,0,B|64:258|117:271|83:328,1,128,8|8,0:1|0:1,0:0:0:0:
247,384,33176,6,0,B|213:327|266:314|240:261,1,128,10|2,0:0|0:0,0:0:0:0:
185,189,33633,1,0,0:0:0:0:
255,134,33785,2,0,P|288:134|328:126,1,64,8|0,0:0|0:0,0:0:0:0:
173,99,34090,2,0,P|157:69|129:38,1,64,2|0,0:0|0:0,0:0:0:0:
185,189,34394,2,0,P|167:217|154:256,1,64,8|0,0:0|0:0,0:0:0:0:
195,327,34699,1,2,0:0:0:0:
279,299,34851,1,8,0:1:0:0:
353,349,35004,2,0,P|425:354|458:307,1,128,10|8,0:0|0:1,0:0:0:0:
459,91,35613,5,10,0:0:0:0:
369,91,35765,1,0,0:0:0:0:
456,108,35917,1,2,0:0:0:0:
372,74,36070,1,0,0:0:0:0:
290,111,36222,2,0,P|234:114|181:64,1,128,10|0,0:0|0:0,0:0:0:0:
0,191,36831,6,0,L|64:186,1,64,10|0,0:0|0:0,0:0:0:0:
132,243,37136,1,2,0:0:0:0:
210,200,37288,1,8,0:1:0:0:
273,262,37440,1,10,0:0:0:0:
353,217,37592,1,8,0:1:0:0:
353,217,37897,5,10,0:1:0:0:
353,217,38049,2,0,P|375:228|430:231,1,64,10|0,0:0|0:0,0:0:0:0:
351,123,38354,2,0,P|371:109|401:63,1,64,2|0,0:0|0:0,0:0:0:0:
268,77,38658,2,0,P|266:52|241:3,1,64,10|0,0:0|0:0,0:0:0:0:
122,80,38963,6,0,L|57:68,1,47.9999985351563,2|2,0:3|0:3,0:0:0:0:
208,149,39268,6,0,L|273:161,1,55.9999982910157,2|2,0:3|0:3,0:0:0:0:
85,195,39572,6,0,L|22:183,1,64,2|2,0:3|0:3,0:0:0:0:
198,248,39877,6,0,L|268:261,1,71.9999978027344,2|2,0:3|0:3,0:0:0:0:
90,371,40181,6,0,P|104:334|102:295,1,80,14|8,0:1|0:1,0:0:0:0:
268,261,40486,2,0,P|253:297|255:337,1,80,10|8,0:0|0:1,0:0:0:0:
366,384,40790,1,10,0:1:0:0:
369,372,40867,1,8,0:1:0:0:
373,360,40943,1,8,0:1:0:0:
489,384,41095,2,0,P|518:342|481:239,1,160,10|8,0:0|0:1,0:0:0:0:
362,174,41552,5,10,0:1:0:0:
438,104,41704,1,8,0:0:0:0:
339,69,41856,1,8,0:1:0:0:
258,134,42009,1,10,0:1:0:0:
269,130,42085,1,8,0:1:0:0:
280,126,42161,1,8,0:1:0:0:
218,36,42313,2,0,L|114:12,1,80,10|8,0:0|0:1,0:0:0:0:
0,210,42770,5,10,0:1:0:0:
78,155,42922,1,8,0:0:0:0:
133,234,43075,1,8,0:1:0:0:
54,288,43227,1,10,0:1:0:0:
42,292,43303,1,8,0:1:0:0:
31,297,43379,1,8,0:1:0:0:
123,353,43532,2,0,B|153:353|153:353|167:361|167:361|215:365,1,80,10|8,0:0|0:1,0:0:0:0:
337,315,43836,5,10,0:1:0:0:
245,265,43988,1,8,0:1:0:0:
263,165,44141,1,10,0:0:0:0:
364,150,44293,1,8,0:1:0:0:
409,240,44445,5,10,0:1:0:0:
418,247,44521,1,8,0:1:0:0:
427,254,44598,1,8,0:1:0:0:
364,150,44750,1,10,0:0:0:0:
341,319,44902,1,12,0:1:0:0:
341,319,45207,5,10,0:1:0:0:
245,265,45359,2,0,P|210:253|151:259,1,80,8|8,0:0|0:1,0:0:0:0:
364,150,45664,2,0,P|366:116|386:64,1,80,2|8,0:0|0:1,0:0:0:0:
238,124,45968,2,0,P|217:87|93:61,1,160,10|0,0:0|0:0,0:0:0:0:
0,154,46425,5,10,0:1:0:0:
83,195,46577,1,8,0:0:0:0:
13,139,46729,1,8,0:1:0:0:
71,211,46882,1,2,0:0:0:0:
151,264,47034,1,8,0:1:0:0:
83,195,47186,1,8,0:0:0:0:
141,281,47339,6,0,P|224:299|248:215,1,176.000005371094,10|8,0:1|0:1,0:0:0:0:
186,106,47795,2,0,P|147:98|83:89,1,88.000002685547,10|0,0:0|0:0,0:0:0:0:
249,19,48100,1,10,0:1:0:0:
311,130,48252,2,0,P|318:80|335:39,1,88.000002685547,10|10,0:1|0:0,0:0:0:0:
458,8,48557,6,0,B|472:39|472:39|473:104|445:155|445:155|466:212,1,191.999994140625,14|8,0:1|0:1,0:0:0:0:
512,304,49014,1,8,0:0:0:0:
421,376,49166,1,8,0:1:0:0:
421,376,49242,1,8,0:1:0:0:
421,376,49318,2,0,B|425:325|425:325|391:292,1,95.9999970703126,10|8,0:0|0:1,0:0:0:0:
393,294,49775,6,0,L|262:308,2,128,14|8|8,0:1|0:1|0:0,0:0:0:0:
393,294,50689,1,8,0:1:0:0:
482,328,50841,1,8,0:0:0:0:
448,219,50993,6,0,P|424:166|423:85,1,128,10|8,0:1|0:1,0:0:0:0:
326,33,51450,2,0,P|360:29|388:19,1,64,2|8,0:0|0:0,0:0:0:0:
299,121,51755,2,0,P|268:110|237:107,1,64,2|8,0:0|0:1,0:0:0:0:
299,121,52059,1,10,0:0:0:0:
165,166,52212,6,0,P|89:161|89:65,1,160,14|8,0:1|0:1,0:0:0:0:
183,18,52669,1,10,0:0:0:0:
237,107,52821,1,8,0:1:0:0:
315,24,52973,1,10,0:1:0:0:
315,24,53049,1,8,0:1:0:0:
315,24,53125,1,8,0:1:0:0:
359,118,53278,1,10,0:0:0:0:
439,52,53430,1,8,0:1:0:0:
502,164,53582,6,0,P|501:215|502:248,1,80,10|8,0:1|0:1,0:0:0:0:
352,318,53887,2,0,P|353:278|352:238,1,80,10|8,0:0|0:1,0:0:0:0:
265,136,54191,5,10,0:0:0:0:
208,259,54344,1,8,0:1:0:0:
208,259,54648,6,0,P|171:211|94:220,1,128,14|8,0:1|0:1,0:0:0:0:
132,339,55105,2,0,P|190:318|208:259,1,128,8|2,0:0|0:0,0:0:0:0:
189,164,55562,1,8,0:1:0:0:
107,210,55714,1,8,0:0:0:0:
10,146,55867,6,0,P|-8:81|32:30,1,128,10|8,0:1|0:1,0:0:0:0:
127,0,56323,2,0,L|132:65,1,64,10|0,0:0|0:0,0:0:0:0:
219,150,56628,2,0,L|223:86,1,64,2|8,0:0|0:1,0:0:0:0:
219,150,56933,1,8,0:0:0:0:
290,30,57085,6,0,B|338:24|338:24|365:42|365:42|436:36,1,128,14|0,0:1|0:0,0:0:0:0:
512,137,57542,2,0,P|489:122|444:118,1,64,2|0,3:0|0:0,0:0:0:0:
442,123,57770,1,2,3:0:0:0:
435,132,57846,2,0,B|412:183|449:203|414:252,1,111.999996582031,0|2,3:0|3:3,0:0:0:0:
361,333,58303,5,14,0:1:0:0:
316,177,58608,1,14,0:1:0:0:
271,22,58912,5,10,0:1:0:0:
204,137,59065,1,10,0:0:0:0:
77,55,59217,1,10,0:0:0:0:
0,224,59521,6,0,B|138:192|66:274|201:235,1,207.999990478516,14|8,0:1|0:1,0:1:0:0:
300,127,59978,2,0,P|290:87|302:22,1,88.000002685547,10|0,0:0|0:0,0:0:0:0:
207,141,60283,1,10,0:1:0:0:
378,88,60435,1,2,0:2:0:0:
207,141,60587,1,8,0:0:0:0:
366,191,60740,6,0,B|418:195|478:219|478:219|501:196|503:152,1,176.000005371094,2|0,0:0|0:0,0:1:0:0:
388,282,61197,1,10,0:0:0:0:
488,301,61349,1,2,0:0:0:0:
366,191,61501,1,10,0:1:0:0:
287,277,61653,2,0,P|243:297|189:286,1,88.000002685547,10|8,0:1|0:0,0:0:0:0:
211,130,61958,6,0,P|155:88|47:77,1,176.000005371094,10|8,0:1|0:1,0:0:0:0:
135,170,62415,1,10,0:0:0:0:
30,196,62567,1,2,0:0:0:0:
156,254,62719,1,10,0:1:0:0:
76,305,62872,1,2,0:0:0:0:
135,170,63024,1,10,0:0:0:0:
254,259,63176,6,0,B|308:274|308:274|322:321|322:321|405:360,1,176.000005371094,2|0,0:0|0:0,0:0:0:0:
505,224,63633,1,10,0:0:0:0:
400,248,63785,1,2,0:1:0:0:
431,140,63938,1,8,0:0:0:0:
512,231,64090,1,10,0:1:0:0:
512,231,64166,1,8,0:1:0:0:
512,231,64242,1,8,0:0:0:0:
332,167,64394,6,0,B|212:147|280:234|172:279,1,207.999990478516,14|8,0:1|0:1,0:0:0:0:
275,351,64851,1,10,0:0:0:0:
155,382,65004,1,2,0:0:0:0:
57,306,65156,2,0,B|48:205|71:247|58:131,1,176.000005371094,10|8,0:1|0:0,0:0:0:0:
224,180,65613,5,2,0:0:0:0:
224,180,65689,1,2,0:0:0:0:
224,180,65765,2,0,P|217:96|222:4,1,176.000005371094,8|8,0:1|0:0,0:0:0:0:
307,34,66222,1,0,0:1:0:0:
174,109,66374,2,0,P|95:96|-10:88,1,176.000005371094,10|8,0:1|0:0,0:0:0:0:
229,204,66831,6,0,P|229:300|326:326,1,207.999990478516,14|8,0:1|0:1,0:0:0:0:
482,219,67288,5,10,0:0:0:0:
341,185,67440,1,10,0:1:0:0:
377,98,67592,5,10,0:0:0:0:
229,204,67745,1,10,0:1:0:0:
234,110,67897,5,10,0:0:0:0:
94,253,68049,2,0,B|54:292|54:292|94:131,1,207.999990478516,14|8,0:1|0:1,0:0:0:0:
181,0,68506,5,8,0:0:0:0:
234,110,68658,1,8,0:1:0:0:
360,28,68811,5,8,0:3:0:0:
360,28,68887,1,8,0:3:0:0:
360,28,68963,2,0,B|324:19|324:19|308:26|308:26|252:17,1,80,4|8,0:3|0:0,0:0:0:0:
282,21,69268,6,0,B|220:112|328:115|256:216,1,207.999990478516,14|8,0:1|0:1,0:0:0:0:
110,332,69724,2,0,L|91:216,1,88.000002685547,10|0,0:0|0:0,0:0:0:0:
188,278,70029,1,10,0:1:0:0:
18,299,70181,1,2,0:0:0:0:
188,278,70334,1,10,0:2:0:0:
29,182,70486,6,0,P|14:97|71:9,1,176.000005371094,2|0,0:0|0:0,0:0:0:0:
230,7,70943,1,10,0:0:0:0:
156,76,71095,1,2,0:0:0:0:
274,159,71247,1,10,0:1:0:0:
348,90,71400,2,0,P|361:45|333:0,1,88.000002685547,10|8,0:1|0:0,0:0:0:0:
253,170,71704,6,0,P|260:234|376:238,1,176.000005371094,10|8,0:1|0:1,0:0:0:0:
491,179,72161,2,0,L|397:164,1,88.000002685547,10|0,0:0|0:0,0:0:0:0:
258,263,72466,2,0,P|251:327|135:331,1,176.000005371094,10|8,0:1|0:0,0:0:0:0:
11,243,72922,6,0,L|31:68,1,176.000005371094,2|0,0:0|0:0,0:0:0:0:
195,0,73379,2,0,L|209:86,1,88.000002685547,10|0,0:0|0:1,0:0:0:0:
334,229,73684,2,0,L|348:142,1,88.000002685547,8|0,0:0|0:1,0:0:0:0:
383,0,73988,1,8,0:0:0:0:
512,107,74141,6,0,P|441:175|347:141,1,207.999990478516,14|8,0:1|0:1,0:0:0:0:
200,26,74598,1,10,0:0:0:0:
297,7,74750,1,2,0:0:0:0:
179,147,74902,2,0,P|176:64|97:39,1,176.000005371094,10|8,0:1|0:0,0:0:0:0:
7,147,75359,5,2,0:0:0:0:
7,147,75435,1,2,0:0:0:0:
7,147,75511,2,0,L|-7:238,1,88.000002685547,10|0,0:1|0:0,0:0:0:0:
126,364,75816,2,0,L|139:277,1,88.000002685547,10|0,0:0|0:0,0:0:0:0:
253,200,76120,2,0,P|329:197|333:95,1,176.000005371094,10|8,0:1|0:0,0:0:0:0:
488,294,76577,6,0,P|478:208|339:210,1,207.999990478516,14|8,0:1|0:1,0:0:0:0:
272,345,77034,2,0,P|332:337|377:336,1,103.999995239258,10|0,3:2|3:0,0:0:0:0:
225,158,77339,5,10,3:1:0:0:
224,173,77415,1,0,3:1:0:0:
221,189,77491,1,0,3:1:0:0:
216,204,77567,1,0,3:1:0:0:
209,218,77643,1,8,3:2:0:0:
76,284,77795,5,2,3:1:0:0:
76,284,77872,1,0,3:0:0:0:
76,284,77948,2,0,L|11:271,1,47.9999985351563,8|0,3:2|3:0,0:0:0:0:
65,194,78100,2,0,L|15:150,1,47.9999985351563,8|0,3:1|3:0,0:0:0:0:
100,110,78252,2,0,L|78:47,1,47.9999985351563,8|0,3:2|3:0,0:0:0:0:
172,55,78405,2,0,L|185:-10,1,47.9999985351563,8|0,3:1|3:1,0:0:0:0:
262,43,78557,2,0,L|305:-6,1,47.9999985351563,8|0,3:2|3:0,0:0:0:0:
345,77,78709,2,0,L|407:55,1,47.9999985351563,8|0,3:1|3:0,0:0:0:0:
401,149,78861,2,0,L|466:162,1,47.9999985351563,8|0,3:2|3:2,0:0:0:0:
414,240,79014,6,0,P|528:178|402:148,1,335.999989746094,14|0,0:1|0:0,0:0:0:0:
330,261,80232,6,0,P|203:232|317:170,1,335.999989746094,14|0,0:1|0:0,0:0:0:0:
414,240,81450,5,14,0:1:0:0:
178,267,81755,1,14,0:1:0:0:
414,240,82059,1,14,0:1:0:0:
178,267,82364,1,14,0:1:0:0:
414,240,82669,1,14,0:1:0:0:
266,86,82973,5,10,0:1:0:0:
266,86,83049,1,10,0:1:0:0:
266,86,83125,2,0,L|250:171,1,71.9999978027344,10|8,0:0|0:1,0:0:0:0:
178,267,83430,6,0,L|164:196,1,71.9999978027344,10|8,0:2|0:1,0:0:0:0:
87,100,83735,6,2,B|79:131|79:131|80:143|80:143|71:181,1,83.9999974365235,2|0,0:0|0:0,0:1:0:0:
70,181,84039,6,0,P|8:159|16:99,1,111.999996582031,14|0,0:1|0:0,0:0:0:0:
58,26,84496,1,8,0:1:0:0:
87,100,84648,1,8,0:0:0:0:
138,40,84801,1,8,0:1:0:0:
138,40,85105,5,8,0:1:0:0:
292,11,85410,1,8,0:0:0:0:
427,89,85714,5,8,0:1:0:0:
351,66,85867,1,8,0:0:0:0:
328,142,86019,1,8,0:0:0:0:
404,165,86171,1,8,0:1:0:0:
498,303,86476,6,0,P|449:272|374:271,1,111.999996582031,10|0,0:1|0:0,0:0:0:0:
300,355,86933,1,8,0:1:0:0:
258,288,87085,1,8,0:0:0:0:
285,217,87237,1,8,0:1:0:0:
285,217,87542,5,8,0:1:0:0:
198,86,87846,1,8,0:0:0:0:
75,194,88151,5,8,0:1:0:0:
40,123,88303,1,8,0:0:0:0:
83,57,88455,1,8,0:0:0:0:
118,128,88608,1,8,0:1:0:0:
63,305,88912,6,0,P|45:247|73:193,1,124.800004189453,14|0,0:1|0:0,0:0:0:0:
199,149,89369,1,8,0:1:0:0:
260,196,89521,1,8,0:0:0:0:
274,122,89674,1,8,0:1:0:0:
274,122,89978,5,8,0:1:0:0:
338,264,90283,1,8,0:0:0:0:
487,203,90587,5,8,0:1:0:0:
409,216,90740,1,8,0:0:0:0:
396,138,90892,1,8,0:0:0:0:
474,125,91044,1,8,0:1:0:0:
315,36,91349,6,0,B|271:31|271:31|263:35|263:35|172:26,1,124.800004189453,10|0,0:1|0:0,0:0:0:0:
72,68,91806,1,8,0:1:0:0:
112,134,91958,1,8,0:0:0:0:
59,191,92110,2,0,P|33:257|65:318,1,124.800004189453,8|8,0:1|0:1,0:0:0:0:
176,370,92567,5,8,0:0:0:0:
178,276,92719,1,8,0:1:0:0:
178,276,93024,5,8,0:1:0:0:
266,321,93176,1,8,0:0:0:0:
340,255,93328,2,0,L|328:119,1,124.800004189453,8|0,0:1|0:0,0:0:0:0:
207,23,93785,6,0,P|167:25|129:13,1,80,14|8,0:1|0:1,0:0:0:0:
251,121,94090,2,0,P|290:118|328:130,1,80,10|8,0:0|0:1,0:0:0:0:
156,202,94394,1,10,0:1:0:0:
152,190,94471,1,8,0:1:0:0:
147,178,94547,1,8,0:1:0:0:
38,226,94699,2,0,B|31:130|62:154|61:63,1,160,10|8,0:0|0:1,0:0:0:0:
215,4,95156,5,10,0:1:0:0:
253,100,95308,1,8,0:0:0:0:
336,39,95460,1,8,0:1:0:0:
387,130,95613,1,10,0:1:0:0:
398,134,95689,1,8,0:1:0:0:
409,138,95765,1,8,0:1:0:0:
307,199,95917,2,0,L|209:207,1,80,10|8,0:0|0:1,0:0:0:0:
459,371,96374,5,10,0:1:0:0:
477,276,96526,1,8,0:0:0:0:
386,308,96679,1,8,0:1:0:0:
459,371,96831,1,10,0:1:0:0:
470,372,96907,1,8,0:1:0:0:
481,373,96983,1,8,0:1:0:0:
375,302,97136,2,0,B|345:302|345:302|336:309|336:309|283:314,1,80,10|8,0:0|0:1,0:0:0:0:
169,204,97440,6,0,P|160:165|167:125,1,80,10|8,0:1|0:1,0:0:0:0:
295,234,97745,2,0,P|303:272|296:312,1,80,10|8,0:0|0:1,0:0:0:0:
169,380,98049,5,10,0:1:0:0:
168,368,98125,1,8,0:1:0:0:
168,355,98202,1,8,0:1:0:0:
296,312,98354,1,10,0:0:0:0:
173,208,98506,1,12,0:1:0:0:
173,208,98811,5,10,0:1:0:0:
85,245,98963,2,0,P|81:206|70:167,1,80,8|8,0:0|0:1,0:0:0:0:
258,183,99268,2,0,P|261:143|272:104,1,80,2|8,0:0|0:1,0:0:0:0:
432,211,99572,2,0,P|437:128|400:46,1,160,10|0,0:0|0:0,0:0:0:0:
251,12,100029,5,10,0:1:0:0:
272,104,100181,1,8,0:0:0:0:
268,9,100334,1,8,0:1:0:0:
255,107,100486,1,2,0:0:0:0:
279,196,100638,1,8,0:1:0:0:
272,104,100790,1,8,0:0:0:0:
262,199,100943,6,0,P|272:277|374:278,1,176.000005371094,10|8,0:1|0:1,0:0:0:0:
478,191,101400,2,0,L|454:96,1,88.000002685547,10|0,0:0|0:0,0:0:0:0:
343,0,101704,1,10,0:1:0:0:
272,104,101856,2,0,P|325:97|383:100,1,88.000002685547,10|10,0:1|0:0,0:0:0:0:
216,190,102161,6,0,P|203:252|77:275,1,191.999994140625,14|8,0:1|0:1,0:0:0:0:
0,177,102618,1,8,0:0:0:0:
86,84,102770,1,8,0:1:0:0:
86,84,102846,1,8,0:1:0:0:
86,84,102922,2,0,B|127:103|127:103|191:67,1,95.9999970703126,10|8,0:0|0:1,0:0:0:0:
171,78,103379,6,0,P|228:47|300:75,2,128,14|8|8,0:1|0:1|0:0,0:0:0:0:
171,78,104293,1,8,0:1:0:0:
84,36,104445,1,8,0:0:0:0:
10,118,104598,6,0,L|22:253,1,128,10|8,0:1|0:1,0:0:0:0:
100,344,105054,2,0,L|107:270,1,64,2|8,0:0|0:0,0:0:0:0:
209,313,105359,2,0,L|202:249,1,64,2|8,0:0|0:1,0:0:0:0:
209,313,105664,1,10,0:0:0:0:
279,203,105816,6,0,B|375:196|333:259|416:279,1,160,14|8,0:1|0:1,0:0:0:0:
512,176,106273,1,10,0:0:0:0:
472,80,106425,1,8,0:1:0:0:
392,144,106577,1,10,0:1:0:0:
392,144,106653,1,8,0:1:0:0:
392,144,106729,1,8,0:1:0:0:
342,52,106882,1,10,0:0:0:0:
262,118,107034,1,8,0:1:0:0:
179,27,107186,6,0,P|136:23|78:14,1,80,10|8,0:1|0:1,0:0:0:0:
0,131,107491,2,0,P|43:135|101:144,1,80,10|8,0:0|0:1,0:0:0:0:
225,221,107795,5,10,0:0:0:0:
84,273,107948,1,8,0:1:0:0:
84,273,108252,6,0,B|129:256|170:269|207:298|191:313|175:328|243:424|373:432|429:311|388:252|314:227|283:284,1,448,14|0,0:1|0:0,0:0:0:0:
287,277,109471,6,0,P|485:277|349:132,1,503.999984619141,14|0,0:1|0:0,0:0:0:0:
347,132,110689,6,0,B|291:159|291:159|235:123,1,128,14|0,0:1|0:0,0:0:0:0:
154,50,111146,2,0,B|128:34|128:34|85:46,1,64,2|0,3:0|0:0,0:0:0:0:
88,53,111374,1,2,3:0:0:0:
81,62,111450,2,0,B|75:96|75:96|75:111|75:111|62:172,1,111.999996582031,0|2,3:0|0:3,0:0:0:0:
0,256,111907,5,14,0:1:0:0:
206,230,112212,1,14,0:1:0:0:
412,204,112516,5,10,0:1:0:0:
323,315,112669,1,10,0:0:0:0:
206,230,112821,1,10,0:0:0:0:
351,25,113125,6,0,P|339:121|224:106,1,223.999993164063,14|8,0:1|0:1,0:0:0:0:
83,12,113582,2,0,P|134:7|180:-2,1,92.0000017547608,10|0,0:0|0:0,0:0:0:0:
121,201,113887,1,10,0:1:0:0:
22,159,114039,2,0,P|11:105|-1:61,1,92.0000017547608,2|8,0:1|0:0,0:0:0:0:
144,188,114344,6,0,B|235:187|179:274|268:316,1,184.000003509522,2|0,0:0|0:0,0:0:0:0:
424,384,114801,2,0,B|420:349|420:349|424:324|424:324|416:260,1,92.0000017547608,10|0,0:0|0:0,0:0:0:0:
512,300,115105,1,10,0:1:0:0:
349,251,115257,1,10,0:1:0:0:
349,251,115334,1,8,0:1:0:0:
349,251,115410,1,8,0:0:0:0:
455,151,115562,6,0,P|433:235|348:250,1,184.000003509522,10|8,0:1|0:1,0:0:0:0:
216,183,116019,1,10,0:0:0:0:
314,129,116171,1,2,0:0:0:0:
215,50,116323,1,10,0:1:0:0:
116,103,116476,2,0,P|73:104|31:78,1,92.0000017547608,2|8,0:0|0:0,0:0:0:0:
147,242,116780,6,0,P|149:307|275:342,1,184.000003509522,2|0,0:0|0:0,0:0:0:0:
370,303,117237,1,10,0:2:0:0:
246,354,117389,1,2,0:1:0:0:
341,208,117542,1,8,0:0:0:0:
480,258,117694,1,10,0:1:0:0:
480,258,117770,1,8,0:1:0:0:
480,258,117846,1,8,0:0:0:0:
498,95,117999,6,0,B|459:30|459:30|312:55,1,223.999993164063,14|8,0:1|0:1,0:0:0:0:
148,121,118455,1,10,0:0:0:0:
182,7,118608,1,2,0:0:0:0:
305,71,118760,2,0,B|367:77|367:77|394:97|394:97|484:110,1,184.000003509522,10|8,0:1|0:0,0:0:0:0:
260,170,119217,5,2,0:0:0:0:
260,170,119293,1,2,0:0:0:0:
260,170,119369,2,0,P|252:236|144:263,1,184.000003509522,10|8,0:1|0:0,0:0:0:0:
93,323,119826,1,0,0:0:0:0:
244,356,119978,2,0,L|426:336,1,184.000003509522,10|8,0:1|0:0,0:0:0:0:
274,159,120435,6,0,P|262:55|149:44,1,223.999993164063,14|8,0:1|0:1,0:0:0:0:
0,146,120892,5,10,0:0:0:0:
65,19,121044,1,10,0:1:0:0:
97,118,121197,5,10,0:0:0:0:
253,68,121349,1,10,0:1:0:0:
191,176,121501,5,10,0:0:0:0:
380,231,121653,2,0,P|343:179|322:286,1,240.000009155274,14|8,0:1|0:1,0:0:0:0:
485,363,122110,5,8,0:0:0:0:
457,184,122262,1,8,0:1:0:0:
319,313,122415,5,8,2:3:0:0:
319,313,122491,1,8,2:3:0:0:
319,313,122567,2,0,B|355:340|355:340|405:317,1,80,4|8,2:3|2:2,0:0:0:0:
386,325,122872,6,0,B|314:315|314:315|274:361|274:361|168:374,1,223.999993164063,14|8,0:1|0:1,0:0:0:0:
12,294,123328,2,0,L|-5:173,1,92.0000017547608,10|0,0:0|0:0,0:0:0:0:
108,79,123633,1,10,0:1:0:0:
3,94,123785,1,2,0:0:0:0:
140,174,123938,1,10,0:0:0:0:
236,61,124090,6,0,P|260:12|389:27,1,184.000003509522,2|0,0:0|0:0,0:0:0:0:
468,152,124547,2,0,L|480:60,1,92.0000017547608,10|0,0:0|0:0,0:0:0:0:
357,150,124851,1,10,0:1:0:0:
462,243,125004,1,10,0:1:0:0:
462,243,125080,1,8,0:1:0:0:
462,243,125156,1,8,0:0:0:0:
339,135,125308,6,0,B|232:119|278:188|165:182,1,184.000003509522,10|8,0:1|0:1,0:0:0:0:
304,278,125765,2,0,P|353:285|406:306,1,92.0000017547608,10|0,0:0|0:0,0:0:0:0:
213,384,126070,2,0,P|201:293|102:275,1,184.000003509522,10|8,0:1|0:0,0:0:0:0:
289,188,126526,6,0,P|297:101|385:78,1,184.000003509522,2|0,0:0|0:0,0:0:0:0:
253,19,126983,2,0,L|162:0,1,92.0000017547608,10|0,0:0|0:1,0:0:0:0:
374,95,127288,2,0,L|464:113,1,92.0000017547608,8|0,0:0|0:1,0:0:0:0:
289,188,127592,1,8,0:0:0:0:
404,317,127745,6,0,P|391:212|289:188,1,223.999993164063,14|8,0:1|0:1,0:0:0:0:
150,227,128202,1,10,0:0:0:0:
220,86,128354,1,2,0:0:0:0:
93,111,128506,2,0,P|175:105|170:22,1,184.000003509522,10|8,0:1|0:0,0:0:0:0:
5,179,128963,5,2,0:0:0:0:
5,179,129039,1,2,0:0:0:0:
5,179,129115,2,0,B|-13:220|-13:220|2:263,1,92.0000017547608,10|0,0:1|0:3,0:0:0:0:
156,284,129420,2,0,B|174:242|174:242|158:199,1,92.0000017547608,10|0,0:0|0:0,0:0:0:0:
275,327,129724,2,0,P|350:350|420:268,1,184.000003509522,10|8,0:1|0:2,0:0:0:0:
512,160,130181,6,0,B|446:139|446:139|402:179|402:179|300:186,1,223.999993164063,14|8,0:1|0:1,0:0:0:0:
199,107,130638,2,0,B|192:77|192:77|205:39|205:39|193:-6,1,111.999996582031,10|0,3:2|3:3,0:0:0:0:
91,155,130943,5,10,3:1:0:0:
73,145,131019,1,0,3:1:0:0:
54,138,131095,1,0,3:1:0:0:
35,133,131171,1,0,3:1:0:0:
15,131,131247,1,8,3:2:0:0:
170,241,131400,5,2,3:1:0:0:
170,241,131476,1,0,3:0:0:0:
170,241,131552,2,0,P|199:235|225:222,1,47.9999985351563,8|0,3:2|3:0,0:0:0:0:
70,234,131704,2,0,P|40:240|14:254,1,47.9999985351563,8|0,3:1|3:0,0:0:0:0:
160,265,131856,2,0,P|189:274|217:275,1,47.9999985351563,8|0,3:2|3:0,0:0:0:0:
78,209,132009,2,0,P|48:199|20:198,1,47.9999985351563,8|0,3:1|3:0,0:0:0:0:
140,281,132161,2,0,P|160:303|185:319,1,47.9999985351563,8|0,3:2|3:0,0:0:0:0:
97,192,132313,2,0,P|76:169|51:154,1,47.9999985351563,8|0,3:1|3:0,0:0:0:0:
114,285,132466,2,0,P|121:315|134:341,1,47.9999985351563,8|0,3:2|3:2,0:0:0:0:
122,186,132618,6,0,B|117:114|160:42|160:42|88:-8|88:-8|124:47|110:98,1,335.999989746094,14|0,0:1|0:0,0:0:0:0:
220,106,133836,6,0,B|466:80|466:80|502:117|485:175,1,335.999989746094,14|0,0:1|0:0,0:0:0:0:
385,241,135054,5,14,0:1:0:0:
332,13,135359,1,14,0:1:0:0:
385,241,135664,1,14,0:1:0:0:
332,13,135968,1,14,0:1:0:0:
385,241,136273,1,14,0:1:0:0:
157,96,136577,5,10,0:1:0:0:
157,96,136653,1,10,0:1:0:0:
157,96,136729,2,0,B|120:105|120:105|89:89,1,71.9999978027344,10|8,0:0|0:1,0:0:0:0:
265,19,137034,6,0,B|302:28|302:28|332:12,1,71.9999978027344,10|8,0:2|0:1,0:0:0:0:
331,12,137491,6,2,B|316:3|291:3|291:3|249:67|241:39|202:105|202:105|178:105|156:96,1,223.999993164063,14|8,0:1|0:1,0:1:0:0:
333,215,137948,2,0,B|370:211|370:211|380:217|380:217|439:215,1,95.9999970703126,10|2,0:0|0:0,0:1:0:0:
251,330,138252,5,10,0:1:0:0:
196,257,138405,1,2,0:0:0:0:
123,312,138557,1,10,0:0:0:0:
177,384,138709,1,2,0:0:0:0:
274,320,138861,6,0,B|299:278|299:278|279:235,1,95.9999970703126,10|2,0:1|0:0,0:0:0:0:
136,146,139166,2,0,B|116:103|116:103|141:61,1,95.9999970703126,10|2,0:0|0:0,0:0:0:0:
274,0,139471,5,10,0:1:0:0:
140,61,139623,1,2,0:0:0:0:
274,0,139775,1,10,0:0:0:0:
389,102,139927,6,2,B|454:114|461:29|461:29|407:58,1,143.999995605469,10|0,0:1|0:0,0:1:0:0:
443,44,140232,2,2,B|438:78|438:78|436:80|436:80|437:83|437:83|428:158,1,95.9999970703126,10|8,0:1|0:0,0:1:0:0:
277,263,140537,2,2,B|272:228|272:228|270:226|270:226|271:223|271:223|262:148,1,95.9999970703126,2|8,0:0|0:1,0:1:0:0:
100,20,140841,5,2,0:0:0:0:
79,189,140993,1,10,0:0:0:0:
0,110,141146,6,0,B|201:96,1,191.999994140625,2|0,0:0|0:0,0:0:0:0:
363,29,141603,2,0,L|251:15,1,95.9999970703126,8|0,0:0|0:0,0:0:0:0:
395,221,141907,5,10,0:0:0:0:
441,127,142059,1,10,0:1:0:0:
501,272,142212,1,10,0:0:0:0:
354,336,142364,6,2,B|282:322|282:322|251:358|251:358|146:379,1,223.999993164063,14|8,0:1|0:1,0:1:0:0:
0,280,142821,2,2,L|20:157,1,95.9999970703126,10|0,0:0|0:0,0:1:0:0:
89,59,143125,5,10,3:1:0:0:
109,71,143202,1,0,3:0:0:0:
132,76,143278,1,0,3:0:0:0:
156,73,143354,1,0,3:0:0:0:
177,62,143430,2,0,P|200:52|227:53,3,47.9999985351563,8|0|0|0,3:2|3:0|3:0|3:0,0:0:0:0:
274,118,143735,5,10,3:1:0:0:
277,141,143811,1,0,3:0:0:0:
280,165,143887,1,0,3:0:0:0:
283,189,143963,1,0,3:0:0:0:
286,213,144039,2,0,L|291:271,3,47.9999985351563,8|0|0|0,3:2|3:0|3:0|3:0,0:0:0:0:
355,316,144344,5,10,3:1:0:0:
385,321,144420,1,0,3:0:0:0:
416,314,144496,1,0,3:0:0:0:
441,295,144572,1,0,3:0:0:0:
457,267,144648,2,0,L|446:211,1,47.9999985351563,8|0,3:2|3:0,0:0:0:0:
385,156,144801,6,2,B|338:192|338:192|160:161,1,223.999993164063,14|8,0:1|0:1,0:1:0:0:
33,42,145257,2,0,B|73:34|73:34|85:38|85:38|153:28,1,95.9999970703126,10|8,0:0|0:1,0:1:0:0:
278,69,145562,5,10,0:0:0:0:
175,163,145714,1,10,0:1:0:0:
127,31,145867,1,10,0:0:0:0:
287,89,146019,6,2,B|329:119|329:119|512:94,1,223.999993164063,14|8,0:1|0:1,0:1:0:0:
306,227,146476,2,0,B|329:281|329:281|308:330,1,111.999996582031,10|8,0:0|0:1,0:1:0:0:
146,384,146780,5,10,0:0:0:0:
15,280,146933,2,0,L|120:267,1,80,10|8,0:1|0:0,0:0:0:0:
94,270,147237,6,2,B|34:143|142:165|96:39,1,240.000009155274,14|0,0:1|0:0,0:1:0:0:
306,144,147694,2,0,L|210:136,1,95.9999970703126,8|0,0:2|0:0,0:0:0:0:
350,8,147999,2,0,L|254:0,1,95.9999970703126,8|0,0:1|0:0,0:0:0:0:
511,57,148303,5,10,0:2:0:0:
511,57,148455,2,2,B|469:28|469:28|389:82|389:82|415:239,1,287.999991210938,2|8,0:0|0:0,0:1:0:0:
432,363,149065,5,2,0:0:0:0:
333,304,149217,1,10,0:1:0:0:
412,221,149369,1,2,0:0:0:0:
312,161,149521,1,8,0:0:0:0:
416,75,149674,6,2,P|400:162|312:161,1,191.999994140625,10|8,0:1|0:1,0:1:0:0:
188,96,150131,2,0,P|187:49|177:-6,1,95.9999970703126,8|0,0:0|0:0,0:0:0:0:
99,211,150435,2,0,P|57:188|6:169,1,95.9999970703126,8|0,0:1|0:0,0:0:0:0:
207,359,150740,5,10,0:0:0:0:
207,359,150892,2,2,B|221:301|221:301|207:256|207:256|232:157,1,191.999994140625,2|0,0:0|0:0,0:1:0:0:
361,85,151349,2,0,B|333:92|316:104|316:104|297:82|275:72,1,95.9999970703126,8|0,0:0|0:0,0:0:0:0:
393,196,151653,5,8,0:0:0:0:
497,145,151806,1,8,0:1:0:0:
512,306,151958,1,8,0:0:0:0:
408,356,152110,6,2,B|348:342|348:342|291:365|291:365|205:345,1,191.999994140625,14|8,3:1|3:1,0:1:0:0:
78,266,152567,2,0,L|184:243,1,95.9999970703126,10|0,3:2|3:0,0:1:0:0:
317,182,152872,5,10,3:1:0:0:
331,163,152948,1,0,3:0:0:0:
338,140,153024,1,0,3:0:0:0:
336,116,153100,1,0,3:0:0:0:
326,95,153176,2,0,L|287:55,3,47.9999985351563,8|0|0|0,3:2|3:0|3:0|3:0,0:0:0:0:
216,4,153481,5,10,3:1:0:0:
205,24,153557,1,0,3:0:0:0:
186,39,153633,1,0,3:0:0:0:
163,46,153709,1,0,3:0:0:0:
140,45,153785,2,0,P|117:30|86:20,3,47.9999985351563,8|0|0|0,3:2|3:0|3:0|3:0,0:0:0:0:
17,59,154090,5,10,2:1:0:0:
136,139,154242,2,0,L|252:115,1,95.9999970703126,2|8,0:0|0:0,0:0:0:0:
71,233,154547,6,2,P|103:349|213:354,1,240.000009155274,14|8,0:1|0:1,0:1:0:0:
321,239,155004,5,10,0:0:0:0:
207,357,155156,1,10,0:1:0:0:
225,212,155308,5,10,0:0:0:0:
309,360,155460,1,10,0:1:0:0:
225,212,155613,1,10,0:0:0:0:
397,177,155765,6,2,P|454:85|361:31,1,240.000009155274,14|8,0:1|0:1,0:1:0:0:
209,99,156222,5,10,0:0:0:0:
361,30,156374,1,10,0:1:0:0:
209,5,156526,5,10,0:0:0:0:
317,117,156679,1,10,0:1:0:0:
209,5,156831,1,10,0:0:0:0:
119,139,156983,6,2,B|68:192|68:192|96:3,1,240.000009155274,14|8,3:1|3:1,0:1:0:0:
210,248,157440,2,0,B|259:257|259:257|269:269|269:269|330:280,1,120.000004577637,8|0,3:2|3:0,0:0:0:0:
495,329,157745,5,10,3:1:0:0:
491,298,157821,1,0,3:0:0:0:
487,263,157897,1,0,3:0:0:0:
483,229,157973,1,0,3:0:0:0:
477,195,158049,2,0,L|470:103,3,60.0000022888184,8|0|0|0,3:2|3:0|3:0|3:0,0:0:0:0:
417,56,158354,5,10,3:1:0:0:
396,93,158430,1,0,3:0:0:0:
361,118,158506,1,0,3:0:0:0:
318,123,158582,1,0,3:0:0:0:
278,107,158658,2,0,P|252:91|223:84,3,60.0000022888184,8|0|0|0,3:2|3:0|3:0|3:0,0:0:0:0:
160,139,158963,5,10,2:2:0:0:
132,0,159115,1,10,2:2:0:0:
132,0,159420,6,0,P|129:153|0:235,2,320,14|2|2,0:1|0:0|0:0,0:0:0:0:
0,114,164293,6,0,B|86:142|167:97|167:97|194:147|248:178|248:178|376:146|465:224,1,520,2|2,0:0|0:0,0:0:0:0:
464,224,166729,6,0,L|457:99,1,111.999996582031,14|0,3:1|3:0,0:0:0:0:
400,44,167186,2,0,P|360:60|327:54,1,55.9999982910157,0|0,3:0|3:0,0:0:0:0:
336,59,167415,1,0,3:2:0:0:
324,57,167491,2,0,P|263:31|202:39,1,111.999996582031,0|0,3:2|3:0,0:0:0:0:
137,113,167948,6,0,B|128:163|128:163|132:177|132:177|121:240,1,120.000004577637,2|0,3:2|3:0,0:0:0:0:
156,314,168405,2,0,P|183:304|231:305,1,60.0000022888184,0|0,3:0|3:0,0:0:0:0:
224,307,168633,1,0,3:0:0:0:
233,314,168709,2,0,P|300:325|322:262,1,120.000004577637,0|0,3:0|3:0,0:0:0:0:
240,187,169166,6,0,B|164:164|186:219|98:199,1,128,2|0,3:2|3:0,0:0:0:0:
32,142,169623,2,0,L|27:55,1,64,0|0,3:0|3:0,0:0:0:0:
34,66,169851,1,0,3:0:0:0:
41,55,169927,2,0,B|118:38|92:91|181:79,1,128,0|0,3:0|3:0,0:0:0:0:
272,42,170384,5,14,0:1:0:0:
277,21,170993,1,14,0:1:0:0:
282,0,171603,1,14,0:1:0:0:
471,126,171907,5,8,0:0:0:0:
471,126,171983,1,8,0:0:0:0:
471,126,172059,2,0,L|435:121,1,35.9999989013672,8|8,0:1|0:1,0:0:0:0:
348,202,172212,5,10,2:1:0:0:
348,202,172288,1,10,2:1:0:0:
348,202,172364,2,0,L|399:196,1,51.999997619629,10|0,2:2|2:1,0:0:0:0:
327,95,172516,6,0,L|262:87,1,60.0000022888184,10|0,2:2|2:0,0:0:0:0:
0,340,174039,6,0,B|137:294|83:405|234:358,1,240.000009155274,14|8,0:1|2:1,0:0:0:0:
327,262,174496,5,2,1:1:0:0:
242,222,174648,5,2,1:1:0:0:
210,130,174801,5,2,1:1:0:0:
271,47,174953,5,2,1:1:0:0:
384,50,175105,5,2,1:1:0:0:
439,161,175257,6,0,B|477:217|477:217|533:182|544:118|490:45,1,256,14|8,0:1|0:1,0:0:0:0:
330,133,175714,1,10,0:0:0:0:
374,221,175867,1,2,0:0:0:0:
384,50,176019,1,10,0:1:0:0:
232,128,176171,1,2,0:0:0:0:
330,133,176323,1,10,0:0:0:0:
239,31,176476,6,0,B|146:7|161:114|72:113,1,191.999994140625,2|0,0:0|0:0,0:0:0:0:
192,248,176933,2,0,L|304:267,1,95.9999970703126,10|0,0:0|0:0,0:0:0:0:
120,379,177237,1,10,0:0:0:0:
31,283,177389,1,10,0:1:0:0:
31,283,177466,1,8,0:1:0:0:
31,283,177542,1,8,0:0:0:0:
193,220,177694,6,0,B|339:198|265:301|400:314,1,240.000009155274,14|8,0:1|0:1,0:0:0:0:
271,384,178151,1,10,0:2:0:0:
397,313,178303,1,2,0:0:0:0:
291,201,178455,2,0,B|249:164|233:107|274:46|274:46|285:85,1,191.999994140625,10|8,0:1|0:0,0:0:0:0:
130,158,178912,5,2,0:0:0:0:
130,158,178988,1,2,0:0:0:0:
130,158,179065,2,0,P|53:156|94:72,1,191.999994140625,8|8,0:1|0:0,0:0:0:0:
132,1,179521,1,0,0:0:0:0:
279,64,179674,2,0,P|352:90|407:0,1,191.999994140625,10|8,0:1|0:0,0:0:0:0:
512,233,180131,6,0,P|486:136|326:137,1,240.000009155274,14|8,0:1|0:1,0:0:0:0:
205,244,180587,5,10,0:0:0:0:
306,301,180740,1,10,0:1:0:0:
237,164,180892,5,10,0:0:0:0:
114,247,181044,1,10,0:1:0:0:
231,73,181197,5,10,0:2:0:0:
329,184,181349,1,10,3:1:0:0:
338,197,181425,1,0,3:0:0:0:
352,207,181501,1,8,3:2:0:0:
368,213,181577,1,0,3:0:0:0:
385,212,181653,1,0,3:0:0:0:
401,206,181729,1,0,3:0:0:0:
414,196,181806,1,8,3:2:0:0:
424,182,181882,1,0,3:0:0:0:
428,166,181958,1,0,3:0:0:0:
427,149,182034,1,0,3:0:0:0:
421,133,182110,1,8,3:2:0:0:
409,120,182186,1,0,3:0:0:0:
394,112,182262,1,0,3:0:0:0:
378,108,182339,1,0,3:0:0:0:
361,110,182415,1,8,3:2:0:0:
238,164,182567,6,0,P|170:94|266:80,1,240.000009155274,14|8,0:1|0:1,0:0:0:0:
392,201,183024,2,0,P|429:217|487:203,1,95.9999970703126,10|0,0:2|0:0,0:0:0:0:
365,114,183328,1,10,0:1:0:0:
306,243,183481,1,2,0:0:0:0:
365,114,183633,1,10,0:0:0:0:
238,32,183785,6,0,B|179:13|179:13|137:53|137:53|54:80,1,191.999994140625,2|0,0:0|0:0,0:0:0:0:
182,232,184242,2,0,B|281:248,1,95.9999970703126,10|0,0:2|0:0,0:0:0:0:
157,141,184547,1,10,0:1:0:0:
109,286,184699,1,10,0:1:0:0:
109,286,184775,1,8,0:1:0:0:
109,286,184851,1,8,0:0:0:0:
286,264,185004,6,0,P|300:139|343:80,1,191.999994140625,10|8,0:1|0:1,0:0:0:0:
421,209,185460,2,0,P|468:199|521:200,1,95.9999970703126,10|0,0:0|0:0,0:0:0:0:
395,372,185765,2,0,P|325:314|216:318,1,191.999994140625,8|8,0:1|0:0,0:0:0:0:
49,372,186222,6,0,P|-15:328|72:318,1,191.999994140625,2|0,0:0|0:0,0:0:0:0:
235,330,186679,2,0,P|275:335|339:310,1,95.9999970703126,10|8,0:0|0:1,0:0:0:0:
205,145,186983,1,8,0:0:0:0:
157,256,187136,1,8,0:1:0:0:
157,256,187212,1,8,0:1:0:0:
157,256,187288,1,8,0:0:0:0:
39,99,187440,6,0,B|129:87|129:87|165:118|165:118|298:100,1,240.000009155274,14|8,0:1|0:1,0:0:0:0:
458,27,187897,1,10,0:0:0:0:
360,0,188049,1,2,0:0:0:0:
461,148,188202,2,0,P|473:68|395:89,1,191.999994140625,10|8,0:1|0:0,0:0:0:0:
273,202,188658,5,2,0:0:0:0:
273,202,188735,1,2,0:0:0:0:
273,202,188811,2,0,B|240:197|240:197|223:204|223:204|178:197,1,95.9999970703126,8|0,0:1|0:0,0:0:0:0:
366,284,189115,2,0,B|399:289|399:289|416:282|416:282|461:289,1,95.9999970703126,10|0,0:0|0:0,0:0:0:0:
246,351,189420,2,0,B|189:327|189:327|144:354|144:354|54:365,1,191.999994140625,10|8,0:1|0:0,0:0:0:0:
273,202,189877,6,0,P|284:90|401:72,1,240.000009155274,14|8,0:1|0:1,0:0:0:0:
498,207,190334,5,10,0:0:0:0:
393,68,190486,1,8,0:1:0:0:
386,196,190638,5,10,2:2:0:0:
503,74,190790,1,8,2:1:0:0:
386,196,190943,1,10,2:0:0:0:
512,289,191095,6,0,B|450:234|450:234|249:273,1,256,14|8,0:1|0:1,0:0:0:0:
172,372,191552,5,8,0:2:0:0:
169,356,191628,1,8,0:2:0:0:
167,340,191704,1,8,0:2:0:0:
165,324,191780,1,8,0:2:0:0:
128,310,191856,5,8,0:3:0:0:
131,278,191933,1,8,0:3:0:0:
134,246,192009,1,8,0:3:0:0:
138,214,192085,1,8,0:3:0:0:
108,185,192161,5,8,0:0:0:0:
232,128,192313,6,0,P|279:78|167:76,1,240.000009155274,14|8,0:1|0:1,0:0:0:0:
87,201,192770,2,0,P|36:209|-4:194,1,95.9999970703126,8|0,0:0|0:0,0:0:0:0:
177,306,193075,1,10,0:1:0:0:
228,220,193227,2,0,P|219:174|232:128,1,95.9999970703126,2|8,0:0|0:0,0:0:0:0:
369,16,193532,6,0,B|421:96|421:96|482:20,1,191.999994140625,2|0,0:0|0:0,0:0:0:0:
328,138,193988,2,0,L|225:127,1,95.9999970703126,8|0,0:0|0:0,0:0:0:0:
397,214,194293,2,0,P|392:295|510:328,1,191.999994140625,10|8,0:1|0:0,0:0:0:0:
236,250,194750,6,0,P|235:340|146:370,1,191.999994140625,10|8,0:1|0:1,0:0:0:0:
62,316,195207,1,8,0:0:0:0:
62,316,195511,1,10,0:1:0:0:
49,193,195664,1,2,0:0:0:0:
37,72,195816,1,8,0:0:0:0:
162,115,195968,6,0,B|275:108|214:31|321:27,1,191.999994140625,2|0,0:2|0:0,0:0:0:0:
512,142,196425,2,0,B|480:127|480:127|453:133|453:133|403:119,1,95.9999970703126,8|0,0:0|0:0,0:0:0:0:
290,162,196729,5,10,0:2:0:0:
321,27,196882,1,10,0:1:0:0:
290,162,197034,1,10,0:0:0:0:
385,284,197186,6,0,P|397:176|290:162,1,240.000009155274,14|8,0:1|0:1,0:0:0:0:
122,241,197643,1,10,0:0:0:0:
158,136,197795,1,2,0:0:0:0:
71,44,197948,2,0,P|71:131|158:136,1,191.999994140625,10|8,0:1|0:2,0:0:0:0:
346,39,198405,5,2,0:0:0:0:
346,39,198481,1,2,0:0:0:0:
346,39,198557,2,0,B|276:29|276:29|248:48|248:48|132:31,1,191.999994140625,8|8,0:1|0:0,0:0:0:0:
161,35,199014,1,0,0:0:0:0:
307,123,199166,2,0,P|304:204|400:225,1,191.999994140625,10|8,0:1|0:0,0:0:0:0:
172,355,199623,6,0,P|282:348|293:239,1,240.000009155274,14|8,0:1|0:1,0:0:0:0:
161,79,200080,5,10,0:0:0:0:
99,207,200232,1,10,0:1:0:0:
87,32,200384,5,10,0:0:0:0:
79,220,200537,1,10,0:1:0:0:
1,37,200689,5,10,0:0:0:0:
59,233,200841,2,0,B|137:335|137:335|213:232,1,256,14|8,0:1|0:1,0:0:0:0:
288,23,201298,5,8,0:0:0:0:
158,108,201450,1,8,0:1:0:0:
340,176,201603,5,8,0:3:0:0:
340,176,201679,1,8,0:3:0:0:
340,176,201755,2,0,B|375:167|375:167|335:134,1,80,8|8,0:3|0:0,0:0:0:0:
342,140,202059,6,0,B|198:116|283:250|142:260,1,256,14|8,0:1|0:1,0:0:0:0:
19,340,202516,2,0,L|4:233,1,100,8|0,0:0|0:0,0:0:0:0:
216,343,202821,2,0,L|231:143,1,200,10|8,0:1|0:0,0:0:0:0:
43,81,203278,5,2,0:0:0:0:
43,81,203354,1,2,0:0:0:0:
43,81,203430,2,0,P|115:110|87:8,1,200,8|8,0:1|0:0,0:0:0:0:
122,17,203887,1,0,0:0:0:0:
231,143,204039,2,0,B|349:129|292:216|408:214,1,200,8|8,0:1|0:0,0:0:0:0:
212,252,204496,6,0,P|188:342|95:345,1,200,10|8,0:1|0:1,0:0:0:0:
6,208,204953,2,0,B|13:151|13:151|8:138|8:138|18:60,1,150,8|0,0:0|0:0,0:0:0:0:
18,60,205257,2,0,B|126:42|78:120|170:166,1,200,10|8,0:1|0:0,0:0:0:0:
341,35,205714,5,2,0:0:0:0:
341,35,205790,1,2,0:0:0:0:
341,35,205867,2,0,B|304:32|304:32|292:37|292:37|242:30,1,100,8|0,0:1|0:0,0:0:0:0:
383,133,206171,2,0,B|420:130|420:130|432:135|432:135|481:128,1,100,8|0,0:0|0:0,0:0:0:0:
333,240,206476,5,8,0:0:0:0:
271,120,206628,1,8,0:1:0:0:
199,258,206780,1,8,0:0:0:0:
331,361,206933,6,0,P|422:302|333:240,1,256,14|8,0:1|0:1,0:0:0:0:
182,350,207389,5,10,0:0:0:0:
156,181,207542,1,8,0:1:0:0:
69,271,207694,5,10,0:0:0:0:
132,103,207846,1,8,0:1:0:0:
0,152,207999,5,10,0:0:0:0:
156,26,208151,2,0,P|175:136|286:149,1,240.000009155274,14|8,0:1|0:1,0:0:0:0:
455,59,208608,5,10,0:0:0:0:
286,149,208760,1,8,0:1:0:0:
277,58,208912,5,10,0:0:0:0:
445,213,209065,1,8,0:1:0:0:
504,137,209217,5,10,0:0:0:0:
318,242,209369,2,0,B|193:214|241:350|114:369,1,256,14|8,0:1|0:1,0:0:0:0:
0,268,209826,2,0,L|22:132,1,100,10|0,3:2|3:0,0:0:0:0:
133,21,210131,5,8,3:2:0:0:
136,45,210207,1,0,3:0:0:0:
140,70,210283,1,0,3:0:0:0:
144,95,210359,1,0,3:0:0:0:
147,119,210435,1,8,3:2:0:0:
259,174,210587,5,2,3:2:0:0:
259,174,210664,1,0,3:0:0:0:
259,174,210740,2,0,P|286:174|323:149,1,50,8|0,3:2|3:0,0:0:0:0:
147,119,210892,2,0,P|120:119|83:144,1,50,8|0,3:1|3:0,0:0:0:0:
230,90,211044,6,0,P|230:63|205:26,1,50,8|0,3:2|3:0,0:0:0:0:
175,202,211197,2,0,P|175:229|200:266,1,50,8|0,3:1|3:0,0:0:0:0:
397,178,211349,5,10,0:0:0:0:
397,178,211501,2,0,B|360:163|360:163|335:172|335:172|280:158,1,95.9999970703126,10|8,0:0|0:3,0:0:0:0:
374,276,211806,6,0,P|431:309|385:186,1,335.999989746094,14|0,0:1|0:0,0:0:0:0:
290,204,213024,6,0,P|158:194|259:109,1,335.999989746094,14|0,0:1|0:0,0:0:0:0:
397,178,214242,5,14,0:1:0:0:
184,68,214547,1,14,0:1:0:0:
397,178,214851,1,14,0:1:0:0:
184,68,215156,1,14,0:1:0:0:
397,178,215460,1,14,0:1:0:0:
255,329,215765,5,10,0:1:0:0:
255,329,215841,1,10,0:1:0:0:
255,329,215917,2,0,L|246:247,1,71.9999978027344,10|8,0:0|0:1,0:0:0:0:
131,262,216222,6,0,L|143:187,1,71.9999978027344,10|8,0:2|0:1,0:0:0:0:
305,174,216526,6,2,B|301:141|301:141|296:135|296:135|287:76,1,83.9999974365235,2|0,0:0|0:0,0:1:0:0:
289,92,216831,6,0,P|231:99|224:-19,2,176.000005371094,14|8|8,0:1|0:0|0:1,0:0:0:0:
411,21,217592,2,0,P|452:12|497:21,1,88.000002685547,2|8,0:0|0:0,0:0:0:0:
308,188,217897,5,2,0:0:0:0:
308,188,217973,1,2,0:0:0:0:
308,188,218049,2,0,P|267:197|222:188,1,88.000002685547,8|0,0:1|0:0,0:0:0:0:
362,350,218354,2,0,P|356:308|369:264,1,88.000002685547,10|0,0:0|0:0,0:0:0:0:
453,119,218658,5,10,0:1:0:0:
498,249,218811,1,2,0:1:0:0:
453,119,218963,1,10,0:0:0:0:
308,188,219115,6,0,B|217:170|258:245|172:277,1,176.000005371094,10|8,0:1|0:1,0:0:0:0:
46,353,219572,2,0,L|38:249,1,88.000002685547,10|0,0:0|0:0,0:0:0:0:
68,127,219877,1,10,0:1:0:0:
154,191,220029,2,0,L|167:90,1,88.000002685547,2|8,0:0|0:0,0:0:0:0:
335,15,220334,5,2,0:0:0:0:
335,15,220410,1,2,0:0:0:0:
335,15,220486,2,0,P|294:23|245:0,1,88.000002685547,8|0,0:1|0:0,0:0:0:0:
399,132,220790,2,0,P|440:124|489:147,1,88.000002685547,8|0,0:0|0:0,0:0:0:0:
250,257,221095,5,10,0:1:0:0:
271,115,221247,1,10,0:1:0:0:
273,257,221400,1,8,0:0:0:0:
150,146,221552,6,0,P|105:107|189:83,1,176.000005371094,14|8,0:1|0:1,0:0:0:0:
342,179,222009,2,0,P|383:187|432:164,1,88.000002685547,10|0,0:0|0:0,0:0:0:0:
318,350,222313,1,10,0:1:0:0:
248,283,222466,2,0,P|255:240|239:200,1,88.000002685547,2|8,0:0|0:0,0:0:0:0:
110,122,222770,5,2,0:0:0:0:
110,122,222846,1,2,0:0:0:0:
110,122,222922,2,0,B|71:117|71:117|58:122|58:122|8:113,1,88.000002685547,8|0,0:1|0:0,0:0:0:0:
191,24,223227,2,0,B|230:19|230:19|243:24|243:24|293:15,1,88.000002685547,10|0,0:0|0:0,0:0:0:0:
462,50,223532,5,10,0:1:0:0:
277,17,223684,1,2,0:0:0:0:
462,50,223836,1,10,0:0:0:0:
294,111,223988,6,0,P|261:114|310:41,1,176.000005371094,14|8,0:1|0:1,0:0:0:0:
433,140,224445,5,10,3:2:0:0:
430,158,224521,1,0,3:0:0:0:
423,176,224598,1,0,3:0:0:0:
414,192,224674,1,0,3:0:0:0:
400,206,224750,1,8,3:1:0:0:
384,216,224826,1,0,3:0:0:0:
366,223,224902,1,0,3:0:0:0:
348,225,224978,1,0,3:0:0:0:
328,223,225054,1,8,3:1:0:0:
310,217,225131,1,0,3:0:0:0:
295,207,225207,6,0,P|285:160|247:134,1,88.000002685547,2|8,3:2|3:1,0:0:0:0:
116,92,225511,2,0,L|62:89,2,44.0000013427735,2|0|8,3:2|3:0|0:0,0:0:0:0:
255,137,225816,2,0,L|309:140,2,44.0000013427735,2|0|8,3:2|3:0|3:1,0:0:0:0:
126,207,226120,1,2,3:2:0:0:
126,207,226197,1,0,3:0:0:0:
126,207,226273,2,0,L|56:202,1,68.0000012969971,8|0,3:2|3:0,0:0:0:0:
215,354,226729,5,2,0:2:0:0:
216,339,226882,5,2,0:2:0:0:
221,317,227034,5,2,0:2:0:0:
233,292,227186,5,2,0:2:0:0:
254,264,227339,5,2,0:2:0:0:
292,245,227491,5,2,0:2:0:0:
375,269,227643,6,0,B|417:264|417:264|432:240|432:240|488:232,1,111.999996582031,14|0,0:1|0:0,0:0:0:0:
