osu file format v14

[General]
AudioFilename: audio2.mp3
AudioLeadIn: 0
PreviewTime: 59445
Countdown: 0
SampleSet: Soft
StackLeniency: 0.7
Mode: 0
LetterboxInBreaks: 0
WidescreenStoryboard: 1

[Editor]
DistanceSpacing: 1.5
BeatDivisor: 4
GridSize: 32
TimelineZoom: 2.2

[Metadata]
Title:BWLAUTE BEIRRD
TitleUnicode:BWLAUTE BEIRRD
Artist:Yumeno Yuki
ArtistUnicode:夢乃ゆき
Creator:Lasse
Version:Hard.
Source:抜きゲーみたいな島に住んでる貧乳(わたし)はどうすりゃいいですか? 2
Tags:nukitashi 2 Is the prospect LMT AIR or Kalibe Hope or Despair opening full version eroge visual novel blue bird water japanese pop rock english sbeve
BeatmapID:2128599
BeatmapSetID:1014034

[Difficulty]
HPDrainRate:5
CircleSize:3.8
OverallDifficulty:6.7
ApproachRate:8
SliderMultiplier:1.4
SliderTickRate:1

[Events]
//Background and Video events
0,0,"d.jpg",0,0
//Break Periods
2,162056,163543
//Storyboard Layer 0 (Background)
//Storyboard Layer 1 (Fail)
//Storyboard Layer 2 (Pass)
//Storyboard Layer 3 (Foreground)
//Storyboard Layer 4 (Overlay)
//Storyboard Sound Samples

[TimingPoints]
1197,304.568527918782,4,2,0,70,1,0
10334,-100,4,2,34,40,0,0
10486,-100,4,2,34,5,0,0
10790,-166.666666666667,4,2,35,55,0,0
12770,-142.857142857143,4,2,35,55,0,0
15054,-142.857142857143,4,2,35,55,0,0
15664,-125,4,2,35,55,0,0
18100,-111.111111111111,4,2,35,55,0,0
18557,-111.111111111111,4,2,35,55,0,0
19318,-100,4,2,35,60,0,0
20080,-125,4,2,35,65,0,0
20156,-166.666666666667,4,2,35,5,0,0
20613,-166.666666666667,4,2,35,5,0,0
20680,-100,4,2,34,68,0,0
25410,-100,4,2,35,68,0,0
25714,-100,4,2,34,68,0,0
27846,-100,4,2,35,68,0,0
30435,-125,4,2,35,50,0,0
38049,-125,4,2,35,50,0,0
38202,-125,4,2,35,40,0,0
38354,-125,4,2,35,50,0,0
38506,-125,4,2,35,40,0,0
38658,-125,4,2,35,50,0,0
38811,-125,4,2,35,40,0,0
38963,-125,4,2,35,42,0,0
39115,-166.666666666667,4,2,35,44,0,0
39268,-125,4,2,35,46,0,0
39420,-142.857142857143,4,2,35,48,0,0
39572,-125,4,2,35,50,0,0
39724,-125,4,2,35,52,0,0
39877,-125,4,2,35,54,0,0
40029,-111.111111111111,4,2,35,56,0,0
40181,-100,4,2,34,60,0,0
44902,-100,4,2,35,60,0,0
45207,-100,4,2,34,60,0,0
47339,-90.9090909090909,4,2,35,62,0,0
48557,-83.3333333333333,4,2,35,64,0,0
49775,-125,4,2,35,60,0,0
52212,-100,4,2,35,64,0,0
52669,-100,4,2,35,62,0,0
54648,-125,4,2,35,60,0,0
57085,-125,4,2,35,50,0,0
57389,-125,4,2,35,40,0,0
57846,-125,4,2,35,40,0,0
58151,-142.857142857143,4,2,35,30,0,0
58303,-125,4,2,35,64,0,0
58912,-125,4,2,35,66,0,0
59065,-125,4,2,35,68,0,0
59217,-125,4,2,35,70,0,0
59521,-76.9230769230769,4,2,34,76,0,1
59978,-90.9090909090909,4,2,35,76,0,1
64394,-76.9230769230769,4,2,35,76,0,1
64699,-90.9090909090909,4,2,35,76,0,1
66831,-76.9230769230769,4,2,35,76,0,1
68049,-76.9230769230769,4,2,35,76,0,1
68811,-100,4,2,35,76,0,1
69115,-100,4,2,35,76,0,0
69268,-76.9230769230769,4,2,34,76,0,1
69724,-90.9090909090909,4,2,35,76,0,1
74141,-76.9230769230769,4,2,35,76,0,1
74598,-90.9090909090909,4,2,35,76,0,1
76577,-76.9230769230769,4,2,35,76,0,1
77034,-83.3333333333333,4,2,35,76,0,1
77795,-83.3333333333333,4,2,35,76,0,1
79014,-125,4,2,35,60,0,0
79090,-125,4,2,35,5,0,0
80080,-125,4,2,35,35,0,0
80232,-125,4,2,35,60,0,0
80308,-125,4,2,35,5,0,0
81298,-125,4,2,35,35,0,0
81450,-125,4,2,35,60,0,0
82973,-111.111111111111,4,2,35,60,0,0
83735,-125,4,2,35,50,0,0
83963,-166.666666666667,4,2,35,5,0,0
84039,-142.857142857143,4,2,35,48,0,0
88912,-128.205128205128,4,2,35,50,0,0
92567,-128.205128205128,4,2,35,52,0,0
93024,-128.205128205128,4,2,35,54,0,0
93633,-128.205128205128,4,2,35,48,0,0
93785,-100,4,2,34,60,0,0
98506,-100,4,2,35,60,0,0
98811,-100,4,2,35,60,0,0
100943,-90.9090909090909,4,2,35,60,0,0
102161,-83.3333333333333,4,2,35,60,0,0
103379,-125,4,2,35,60,0,0
105816,-100,4,2,35,60,0,0
106273,-100,4,2,35,60,0,0
108252,-125,4,2,35,60,0,0
108405,-125,4,2,35,5,0,0
109318,-125,4,2,35,40,0,0
109471,-111.111111111111,4,2,35,62,0,0
109547,-111.111111111111,4,2,35,5,0,0
110537,-111.111111111111,4,2,35,42,0,0
110689,-125,4,2,35,60,0,0
110993,-125,4,2,35,40,0,0
111450,-125,4,2,35,40,0,0
111755,-125,4,2,35,30,0,0
111907,-125,4,2,35,64,0,0
112516,-125,4,2,35,66,0,0
112669,-125,4,2,35,68,0,0
112821,-125,4,2,35,70,0,0
113125,-76.9230769230769,4,2,34,76,0,1
113582,-90.9090909090909,4,2,35,76,0,1
117999,-76.9230769230769,4,2,35,76,0,1
118455,-90.9090909090909,4,2,35,76,0,1
120435,-76.9230769230769,4,2,35,76,0,1
121501,-76.9230769230769,4,2,35,76,0,1
122415,-100,4,2,35,76,0,1
122719,-76.9230769230769,4,2,35,76,0,0
122872,-76.9230769230769,4,2,34,76,0,1
123328,-90.9090909090909,4,2,35,76,0,1
127745,-76.9230769230769,4,2,35,76,0,1
128202,-90.9090909090909,4,2,35,76,0,1
130181,-76.9230769230769,4,2,35,76,0,1
130638,-83.3333333333333,4,2,35,76,0,1
130943,-83.3333333333333,4,2,35,76,0,1
131400,-83.3333333333333,4,2,35,76,0,1
132618,-125,4,2,35,60,0,0
132770,-125,4,2,35,5,0,0
133684,-125,4,2,35,35,0,0
133836,-125,4,2,35,60,0,0
133988,-125,4,2,35,5,0,0
134902,-125,4,2,35,35,0,0
135054,-125,4,2,35,60,0,0
136577,-111.111111111111,4,2,35,60,0,0
137491,-71.4285714285714,4,2,34,72,0,1
137948,-86.9565217391304,4,2,35,72,0,1
140156,-86.9565217391304,4,2,35,32,0,1
140232,-86.9565217391304,4,2,35,72,0,1
141907,-86.9565217391304,4,2,35,72,0,0
142364,-71.4285714285714,4,2,35,72,0,1
142821,-86.9565217391304,4,2,35,72,0,1
144801,-71.4285714285714,4,2,35,72,0,1
145257,-86.9565217391304,4,2,35,72,0,1
146019,-71.4285714285714,4,2,35,74,0,1
146933,-83.3333333333333,4,2,35,72,0,0
147085,-100,4,2,35,70,0,0
147237,-71.4285714285714,4,2,34,74,0,1
147694,-86.9565217391304,4,2,35,74,0,1
151653,-86.9565217391304,4,2,35,74,0,0
152110,-86.9565217391304,4,2,35,74,0,1
154090,-86.9565217391304,4,2,35,74,0,0
154547,-71.4285714285714,4,2,35,74,0,1
155004,-83.3333333333333,4,2,35,74,0,1
155765,-71.4285714285714,4,2,35,75,0,1
156222,-83.3333333333333,4,2,35,75,0,1
156983,-71.4285714285714,4,2,35,76,0,1
157288,-83.3333333333333,4,2,35,76,0,1
157745,-83.3333333333333,4,2,35,77,0,1
158354,-83.3333333333333,4,2,35,78,0,1
158963,-76.9230769230769,4,2,35,80,0,1
159420,-200,4,2,35,52,0,0
159496,-200,4,2,35,5,0,0
160638,-200,4,2,35,32,0,0
160790,-200,4,2,35,5,0,0
161856,-200,4,2,35,34,0,0
164293,-200,4,2,35,36,0,0
164445,-200,4,2,35,5,0,0
166273,-200,4,2,35,32,0,0
166729,-142.857142857143,4,2,35,38,0,0
167948,-133.333333333333,4,2,35,39,0,0
169166,-125,4,2,35,40,0,0
170384,-125,4,2,35,50,0,0
170993,-125,4,2,35,52,0,0
171603,-125,4,2,35,54,0,0
171907,-111.111111111111,4,2,35,56,0,0
172212,-100,4,2,35,58,0,0
172516,-90.9090909090909,4,2,35,60,0,0
174039,-76.9230769230769,4,2,35,74,0,1
174344,-76.9230769230769,4,2,35,66,0,1
174496,-76.9230769230769,4,2,35,68,0,0
174648,-76.9230769230769,4,2,35,70,0,0
174801,-76.9230769230769,4,2,35,72,0,0
174953,-76.9230769230769,4,2,35,74,0,0
175105,-76.9230769230769,4,2,35,76,0,0
175257,-71.4285714285714,4,2,34,78,0,1
175714,-86.9565217391304,4,2,35,78,0,1
177694,-76.9230769230769,4,2,35,78,0,1
178151,-86.9565217391304,4,2,35,78,0,1
180131,-71.4285714285714,4,2,35,78,0,1
180587,-76.9230769230769,4,2,35,78,0,1
181349,-83.3333333333333,4,2,35,78,0,1
182415,-100,4,2,35,78,0,0
182567,-71.4285714285714,4,2,34,78,0,1
183024,-86.9565217391304,4,2,35,78,0,1
187440,-71.4285714285714,4,2,35,78,0,1
187897,-86.9565217391304,4,2,35,78,0,1
189877,-71.4285714285714,4,2,35,78,0,1
191095,-71.4285714285714,4,2,35,78,0,1
191400,-71.4285714285714,4,2,35,72,0,1
191552,-71.4285714285714,4,2,35,74,0,1
191856,-90.9090909090909,4,2,35,76,0,1
192161,-83.3333333333333,4,2,35,78,0,0
192313,-71.4285714285714,4,2,34,78,0,1
192770,-90.9090909090909,4,2,35,78,0,1
197186,-71.4285714285714,4,2,35,78,0,1
197643,-90.9090909090909,4,2,35,78,0,1
199623,-71.4285714285714,4,2,35,78,0,1
200841,-71.4285714285714,4,2,35,78,0,1
201603,-100,4,2,35,78,0,1
201907,-100,4,2,35,78,0,0
202059,-71.4285714285714,4,2,34,78,0,1
202516,-86.9565217391304,4,2,35,78,0,1
205181,-86.9565217391304,4,2,35,38,0,1
205257,-86.9565217391304,4,2,35,78,0,1
206933,-71.4285714285714,4,2,35,79,0,1
207389,-86.9565217391304,4,2,35,79,0,1
208151,-76.9230769230769,4,2,35,79,0,1
208608,-83.3333333333333,4,2,35,79,0,1
209369,-71.4285714285714,4,2,35,80,0,1
209826,-86.9565217391304,4,2,35,80,0,1
210587,-80,4,2,35,80,0,1
211349,-90.9090909090909,4,2,35,80,0,1
211653,-90.9090909090909,4,2,35,74,0,1
211806,-125,4,2,35,60,0,0
211958,-125,4,2,35,5,0,0
212872,-125,4,2,35,35,0,0
213024,-125,4,2,35,60,0,0
213176,-125,4,2,35,5,0,0
214090,-125,4,2,35,35,0,0
214242,-125,4,2,35,60,0,0
215765,-111.111111111111,4,2,35,60,0,0
216526,-125,4,2,35,50,0,0
216755,-166.666666666667,4,2,35,5,0,0
216831,-100,4,2,34,68,0,0
217136,-100,4,2,35,68,0,0
226120,-117.647058823529,4,2,35,68,0,0
226729,-142.857142857143,4,2,35,37,0,0
226882,-142.857142857143,4,2,35,38,0,0
227034,-142.857142857143,4,2,35,39,0,0
227186,-142.857142857143,4,2,35,40,0,0
227339,-142.857142857143,4,2,35,41,0,0
227491,-142.857142857143,4,2,35,42,0,0
227643,-142.857142857143,4,2,35,60,0,0
227948,-142.857142857143,4,2,35,40,0,0

[Colours]
Combo1 : 250,190,230
Combo2 : 130,200,230
Combo3 : 255,230,140
Combo4 : 170,245,170

[HitObjects]
186,99,10334,6,2,B|205:67|205:67|137:49|137:49|159:148,1,210,2|14,0:0|0:1,0:1:0:0:
461,308,12770,6,0,L|523:317,2,48.9999985046387,8|8|8,0:0|0:1|0:0,0:0:0:0:
410,241,13227,1,12,0:1:0:0:
340,363,15054,5,8,0:1:0:0:
340,363,15131,1,8,0:1:0:0:
340,363,15207,2,0,L|330:300,1,48.9999985046387,8|8,0:0|0:1,0:0:0:0:
262,173,15664,6,0,P|217:149|151:166,1,112,14|0,0:1|0:0,0:0:0:0:
112,223,16120,2,0,P|110:249|93:285,1,56,8|0,0:1|0:0,0:0:0:0:
31,325,16425,1,8,0:0:0:0:
31,325,16577,2,0,P|20:299|17:271,1,56,8|0,0:1|0:0,0:0:0:0:
116,227,16882,6,0,B|179:221|166:260|227:267,1,112,14|0,0:1|0:0,0:0:0:0:
293,229,17339,2,0,L|300:185,2,28,8|8|8,0:1|0:1|0:1,0:0:0:0:
336,307,17643,1,8,0:0:0:0:
336,307,17795,2,0,P|364:316|408:305,1,56,8|0,0:1|0:0,0:0:0:0:
486,232,18100,6,0,B|475:196|475:196|484:172|484:172|464:102,1,125.999996154785,14|0,0:1|0:0,0:0:0:0:
366,33,18557,2,0,P|398:37|442:24,1,62.9999980773926,10|0,3:2|3:0,0:0:0:0:
345,115,18861,2,0,P|314:108|283:112,1,62.9999980773926,8|0,3:1|3:0,0:0:0:0:
208,161,19166,1,8,3:2:0:0:
134,116,19318,5,2,3:2:0:0:
134,116,19394,1,0,3:0:0:0:
134,116,19471,2,0,P|123:83|129:49,1,70,8|0,3:2|3:0,0:0:0:0:
208,161,19775,2,0,P|218:193|212:227,1,70,8|0,3:2|3:0,0:0:0:0:
118,299,20080,6,2,P|126:212|212:228,1,196,2|0,0:0|0:0,0:1:0:0:
226,247,20689,6,0,B|269:240|269:240|292:211|292:211|351:203,2,140,14|8|8,0:1|0:0|0:1,0:0:0:0:
124,207,21450,2,0,L|101:122,1,70,2|8,0:0|0:0,0:0:0:0:
17,49,21755,6,0,P|69:91|133:57,1,140,2|0,0:0|0:0,0:0:0:0:
262,5,22212,2,0,L|180:0,1,70,10|0,0:0|0:0,0:0:0:0:
290,91,22516,1,10,0:1:0:0:
290,91,22669,2,0,L|372:96,1,70,2|10,0:1|0:0,0:0:0:0:
213,157,22973,6,0,P|158:177|164:256,1,140,10|8,0:1|0:1,0:0:0:0:
233,321,23430,2,0,L|318:314,1,70,10|0,0:0|0:0,0:0:0:0:
402,365,23735,1,10,0:1:0:0:
402,365,23887,2,0,L|408:278,1,70,2|8,0:0|0:0,0:0:0:0:
485,206,24191,6,0,P|462:238|367:219,1,140,2|0,0:0|0:0,0:0:0:0:
311,148,24648,2,0,L|304:78,1,70,8|0,0:0|0:0,0:0:0:0:
230,207,24953,1,10,0:1:0:0:
155,143,25105,2,0,L|161:73,1,70,10|8,0:1|0:0,0:0:0:0:
230,207,25410,6,0,B|258:268|258:268|215:354,1,140,14|8,0:1|0:1,0:0:0:0:
124,384,25867,2,0,L|115:301,1,70,10|0,0:0|0:0,0:0:0:0:
19,320,26171,1,10,0:1:0:0:
19,320,26323,2,0,L|29:239,1,70,2|8,0:0|0:0,0:0:0:0:
100,174,26628,6,0,B|153:175|153:175|172:196|172:196|241:209,1,140,2|0,0:0|0:0,0:0:0:0:
301,131,27085,2,0,P|287:97|302:44,1,70,10|0,0:0|0:0,0:0:0:0:
370,12,27389,1,10,0:1:0:0:
370,12,27542,2,0,L|450:7,1,70,2|10,0:0|0:0,0:0:0:0:
291,65,27846,6,0,B|243:57|243:57|218:78|218:78|149:90,1,140,14|8,0:1|0:1,0:0:0:0:
62,152,28303,1,10,3:2:0:0:
57,136,28379,1,0,3:0:0:0:
53,120,28455,1,0,3:0:0:0:
47,105,28532,1,0,3:0:0:0:
42,90,28608,2,0,B|34:64|34:64|36:56|36:56|25:19,2,70,8|0|8,3:1|3:0|3:1,0:0:0:0:
102,197,29065,6,0,B|129:197|129:197|141:205|141:205|190:212,1,70,2|8,3:2|3:1,0:0:0:0:
263,163,29369,2,0,L|270:128,2,35,2|0|8,3:2|3:0|0:0,0:0:0:0:
311,256,29674,2,0,L|303:290,2,35,2|0|8,3:2|3:0|3:1,0:0:0:0:
402,204,29978,2,0,L|409:169,2,35,2|0|8,3:2|3:0|3:2,0:0:0:0:
294,315,30435,6,0,B|258:313|258:313|234:337|234:337|190:347,1,112,14|8,0:1|0:0,0:0:0:0:
108,378,30892,1,2,0:0:0:0:
39,320,31044,2,0,L|44:256,1,56,2|0,0:0|0:0,0:0:0:0:
104,198,31349,2,0,L|97:73,1,112,10|0,0:0|0:0,0:0:0:0:
257,3,31958,6,0,L|248:58,1,56,10|0,0:0|0:0,0:0:0:0:
311,122,32262,2,0,L|319:177,1,56,2|8,0:0|0:1,0:0:0:0:
266,250,32567,1,10,0:0:0:0:
266,250,32719,2,0,B|208:233|221:279|157:258,1,112,8|8,0:1|0:1,0:0:0:0:
258,329,33176,6,0,B|318:327|293:368|360:365,1,112,10|0,0:0|0:0,0:0:0:0:
446,345,33633,1,2,0:0:0:0:
387,277,33785,2,0,P|377:250|380:223,1,56,8|0,0:0|0:0,0:0:0:0:
446,161,34090,2,0,P|455:134|452:107,1,56,2|0,0:0|0:0,0:0:0:0:
387,45,34394,2,0,B|348:43|348:43|329:62|329:62|277:73,1,112,8|0,0:0|0:0,0:0:0:0:
237,148,34851,1,10,0:1:0:0:
154,111,35004,2,0,B|145:81|145:81|149:36|149:36|137:-11,1,112,10|8,0:0|0:1,0:0:0:0:
7,164,35613,6,0,L|-3:243,1,56,10|0,0:0|0:0,0:0:0:0:
74,289,35917,2,0,L|81:233,1,56,2|0,0:0|0:0,0:0:0:0:
166,212,36222,2,0,B|224:211|202:255|265:272,1,112,10|0,0:0|0:0,0:0:0:0:
412,384,36831,6,0,P|390:336|434:283,1,112,10|2,0:0|0:0,0:0:0:0:
495,242,37288,1,8,0:1:0:0:
438,172,37440,2,0,P|406:157|365:153,1,56,10|8,0:0|0:1,0:0:0:0:
219,83,37897,5,10,0:1:0:0:
219,83,38049,2,0,P|280:84|340:56,2,112,10|2|10,0:0|0:0|0:0,0:0:0:0:
46,147,38963,6,0,P|35:122|36:95,1,56,2|2,0:3|0:3,0:0:0:0:
65,17,39268,2,0,P|76:42|75:69,1,56,2|2,0:3|0:3,0:0:0:0:
12,131,39572,6,0,P|9:106|24:82,1,56,2|2,0:3|0:3,0:0:0:0:
102,30,39877,2,0,P|99:57|84:81,1,56,2|2,0:3|0:3,0:0:0:0:
141,167,40181,6,0,P|166:171|214:152,1,70,14|8,0:1|0:1,0:0:0:0:
285,79,40486,2,0,P|316:65|351:68,1,70,10|8,0:0|0:1,0:0:0:0:
443,141,40790,2,0,L|490:138,2,35,10|8|8,0:1|0:1|0:1,0:0:0:0:
366,225,41095,2,0,B|329:236|329:236|319:303|319:303|278:324,1,140,10|8,0:0|0:1,0:0:0:0:
171,384,41552,5,10,0:1:0:0:
171,384,41704,2,0,B|188:351|188:351|173:314,1,70,8|8,0:0|0:1,0:0:0:0:
81,261,42009,2,0,L|29:270,2,35,10|8|8,0:1|0:1|0:1,0:0:0:0:
170,197,42313,1,10,0:0:0:0:
170,197,42466,2,0,B|214:188|214:188|244:211|244:211|307:204,1,140,8|10,0:1|0:1,0:0:0:0:
421,221,42922,5,8,0:0:0:0:
386,134,43075,1,8,0:1:0:0:
478,147,43227,2,0,L|519:153,2,35,10|8|8,0:1|0:1|0:1,0:0:0:0:
373,119,43532,2,0,B|344:110|344:110|326:113|326:113|305:107,1,70,10|8,0:0|0:1,0:0:0:0:
186,30,43836,6,0,B|215:21|215:21|233:24|233:24|253:18,1,70,10|8,0:1|0:1,0:0:0:0:
161,150,44141,2,0,B|184:123|184:123|153:106,1,70,10|8,0:0|0:1,0:0:0:0:
19,119,44445,2,0,L|-4:167,2,35,10|8|8,0:1|0:1|0:1,0:0:0:0:
87,17,44750,5,10,0:0:0:0:
140,113,44902,1,12,0:1:0:0:
124,120,45207,5,10,0:1:0:0:
195,196,45359,2,0,B|230:201|230:201|260:184,1,70,8|8,0:0|0:1,0:0:0:0:
321,98,45664,2,0,B|351:81|351:81|386:86,1,70,2|8,0:0|0:1,0:0:0:0:
475,149,45968,2,0,L|492:298,1,140,10|0,0:0|0:0,0:0:0:0:
420,384,46425,5,10,0:1:0:0:
350,307,46577,2,0,L|349:233,1,70,8|8,0:0|0:1,0:0:0:0:
244,257,46882,2,0,L|231:168,2,70,2|8|8,0:0|0:1|0:0,0:0:0:0:
168,352,47339,6,0,P|106:338|102:234,1,154.000004699707,10|8,0:1|0:1,0:0:0:0:
154,172,47795,2,0,L|245:160,1,77.0000023498536,10|0,0:0|0:0,0:0:0:0:
109,85,48100,1,10,0:1:0:0:
109,85,48252,2,0,L|18:73,1,77.0000023498536,10|10,0:1|0:0,0:0:0:0:
188,22,48557,6,0,B|283:8|236:89|330:114,1,167.999994873047,14|8,0:1|0:1,0:0:0:0:
369,206,49014,1,8,0:0:0:0:
452,135,49166,1,8,0:1:0:0:
452,135,49242,1,8,0:1:0:0:
452,135,49318,2,0,L|461:39,1,83.9999974365235,10|8,0:0|0:1,0:0:0:0:
290,5,49775,6,0,P|242:32|188:22,2,112,14|8|8,0:1|0:1|0:0,0:0:0:0:
290,5,50689,1,8,0:1:0:0:
261,80,50841,1,8,0:0:0:0:
344,144,50993,6,0,B|465:133,1,112,10|8,0:1|0:1,0:0:0:0:
404,224,51450,2,0,P|413:245|412:284,1,56,2|8,0:0|0:0,0:0:0:0:
348,340,51755,2,0,L|282:333,1,56,2|8,0:0|0:1,0:0:0:0:
212,374,52059,1,10,0:0:0:0:
172,270,52212,6,0,B|179:228|179:228|177:219|177:219|191:131,1,140,14|8,0:1|0:1,0:0:0:0:
299,181,52669,2,0,L|296:98,1,70,10|8,0:0|0:1,0:0:0:0:
235,30,52973,2,0,L|191:23,2,35,10|8|8,0:1|0:1|0:1,0:0:0:0:
331,6,53278,1,10,0:0:0:0:
331,6,53430,1,8,0:1:0:0:
405,94,53582,6,0,P|432:97|480:79,1,70,10|8,0:1|0:1,0:0:0:0:
366,190,53887,2,0,P|333:178|298:180,1,70,10|8,0:0|0:1,0:0:0:0:
214,258,54191,1,10,0:0:0:0:
177,156,54344,1,8,0:1:0:0:
177,156,54648,6,0,P|189:109|158:41,1,112,14|8,0:1|0:1,0:0:0:0:
46,64,55105,2,0,P|34:111|65:179,1,112,8|2,0:0|0:0,0:0:0:0:
124,226,55562,1,8,0:1:0:0:
177,156,55714,1,8,0:0:0:0:
240,245,55867,6,0,B|287:255|287:255|297:270|297:270|354:281,1,112,10|8,0:1|0:1,0:0:0:0:
417,371,56323,2,0,P|416:343|425:316,1,56,10|0,0:0|0:0,0:0:0:0:
496,254,56628,2,0,P|496:226|487:199,1,56,2|8,0:0|0:1,0:0:0:0:
445,121,56933,1,8,0:0:0:0:
354,184,57085,6,0,B|310:192|310:192|297:209|297:209|240:220,1,112,14|0,0:1|0:0,0:0:0:0:
172,285,57542,2,0,L|166:223,1,56,2|0,3:0|0:0,0:0:0:0:
157,218,57770,1,2,3:0:0:0:
149,206,57846,2,0,L|136:81,1,112,0|2,3:0|3:3,0:0:0:0:
207,0,58303,5,14,0:1:0:0:
277,136,58608,1,14,0:1:0:0:
407,30,58912,5,10,0:1:0:0:
323,8,59065,1,10,0:0:0:0:
346,89,59217,1,10,0:0:0:0:
186,196,59521,6,0,B|90:170|115:256|9:218,1,181.999991668702,14|8,0:1|0:1,0:0:0:0:
156,284,59978,2,0,B|141:319|141:319|151:356,1,77.0000023498536,10|0,0:0|0:0,0:0:0:0:
309,384,60283,2,0,B|324:348|324:348|314:311,1,77.0000023498536,10|0,0:1|0:2,0:0:0:0:
277,226,60587,1,10,0:0:0:0:
388,164,60740,6,0,P|458:149|456:77,1,154.000004699707,2|0,0:0|0:0,0:0:0:0:
362,7,61197,2,0,L|286:16,1,77.0000023498536,10|0,0:0|0:0,0:0:0:0:
226,128,61501,1,10,0:1:0:0:
137,78,61653,2,0,P|139:33|113:-12,1,77.0000023498536,10|8,0:1|0:0,0:0:0:0:
41,132,61958,6,0,P|18:174|57:286,1,154.000004699707,10|8,0:1|0:1,0:0:0:0:
118,372,62415,2,0,L|137:288,1,77.0000023498536,10|0,0:0|0:0,0:0:0:0:
248,222,62719,1,10,0:1:0:0:
308,290,62872,1,2,0:0:0:0:
338,203,63024,1,10,0:0:0:0:
227,231,63176,6,0,P|163:197|168:119,1,154.000004699707,2|0,0:0|0:0,0:0:0:0:
225,24,63633,2,0,L|306:17,1,77.0000023498536,10|0,0:0|0:1,0:0:0:0:
461,69,63938,1,8,0:0:0:0:
389,114,64090,2,0,B|372:81|372:81|383:18,1,77.0000023498536,10|8,0:1|0:0,0:0:0:0:
502,146,64394,6,0,P|499:220|397:222,1,181.999991668702,14|8,0:1|0:1,0:0:0:0:
307,173,64851,1,10,0:0:0:0:
262,265,65004,1,2,0:0:0:0:
184,197,65156,2,0,B|175:141|175:141|178:118|178:118|161:27,1,154.000004699707,10|8,0:1|0:0,0:0:0:0:
21,0,65613,6,0,B|12:56|12:56|15:79|15:79|1:151,1,154.000004699707,2|0,0:0|0:0,0:0:0:0:
74,270,66070,2,0,B|93:186,1,77.0000023498536,8|0,0:0|0:1,0:0:0:0:
177,121,66374,2,0,B|266:122|216:180|316:187,1,154.000004699707,10|8,0:1|0:0,0:0:0:0:
454,227,66831,6,0,B|489:189|494:131|448:102|448:102|406:120,1,181.999991668702,14|8,0:1|0:1,0:0:0:0:
309,186,67288,2,0,P|270:205|230:188,1,90.9999958343508,10|8,0:0|0:1,0:0:0:0:
145,111,67592,2,0,P|164:71|139:29,1,90.9999958343508,10|8,0:0|0:1,0:0:0:0:
52,18,67897,1,10,0:0:0:0:
213,60,68049,6,0,B|256:63|296:96|296:96|323:56|369:44,1,181.999991668702,14|8,0:1|0:1,0:0:0:0:
492,108,68506,2,0,L|481:216,1,90.9999958343508,8|8,0:0|0:1,0:0:0:0:
398,285,68811,5,8,0:3:0:0:
398,285,68887,1,8,0:3:0:0:
398,285,68963,2,0,L|376:199,1,70,4|8,0:3|0:0,0:0:0:0:
294,114,69268,6,0,B|179:77|243:180|110:141,1,181.999991668702,14|8,0:1|0:1,0:0:0:0:
28,99,69724,2,0,L|23:22,1,77.0000023498536,10|0,0:0|0:0,0:0:0:0:
127,145,70029,2,0,L|131:221,1,77.0000023498536,10|0,0:1|0:0,0:0:0:0:
59,291,70334,1,10,0:2:0:0:
180,337,70486,6,0,B|226:331|226:331|256:364|256:364|326:380,1,154.000004699707,2|0,0:0|0:0,0:0:0:0:
440,384,70943,2,0,P|430:340|449:302,1,77.0000023498536,10|0,0:0|0:0,0:0:0:0:
510,228,71247,1,10,0:1:0:0:
433,150,71400,2,0,B|407:144|407:144|392:148|392:148|347:136,1,77.0000023498536,10|8,0:1|0:0,0:0:0:0:
238,162,71704,6,0,P|308:147|308:71,1,154.000004699707,10|8,0:1|0:1,0:0:0:0:
222,11,72161,2,0,L|120:4,1,77.0000023498536,10|0,0:0|0:0,0:0:0:0:
311,76,72466,2,0,B|365:67|365:67|385:41|385:41|466:22,1,154.000004699707,10|8,0:1|0:0,0:0:0:0:
397,147,72922,6,0,P|406:220|339:249,1,154.000004699707,2|0,0:0|0:0,0:0:0:0:
247,306,73379,2,0,L|234:140,2,154.000004699707,10|8|8,0:0|0:0|0:0,0:0:0:0:
132,378,74141,6,0,P|51:355|62:272,1,181.999991668702,14|8,0:1|0:1,0:0:0:0:
141,199,74598,1,10,0:0:0:0:
64,122,74750,1,2,0:0:0:0:
151,59,74902,2,0,B|249:57|192:17|291:8,1,154.000004699707,10|8,0:1|0:0,0:0:0:0:
398,85,75359,5,2,0:0:0:0:
398,85,75435,1,2,0:0:0:0:
398,85,75511,2,0,B|428:104|447:143|447:143|463:108|502:86,1,154.000004699707,10|10,0:1|0:0,0:0:0:0:
349,290,76120,2,0,B|320:314|301:349|301:349|282:314|245:291,1,154.000004699707,10|8,0:1|0:0,0:0:0:0:
127,369,76577,6,0,L|143:180,1,181.999991668702,14|8,0:1|0:1,0:0:0:0:
79,88,77034,2,0,B|36:91|36:91|1:70,1,83.9999974365235,10|0,3:2|3:0,0:0:0:0:
173,30,77339,6,0,B|195:28|216:33|216:33|228:19|250:12,1,83.9999974365235,10|0,3:1|3:1,0:0:0:0:
284,132,77643,2,0,B|306:134|326:130|326:130|344:147|361:149,1,83.9999974365235,8|2,3:2|3:1,0:0:0:0:
382,153,77872,1,0,3:0:0:0:
402,146,77948,6,0,P|418:108|417:66,1,83.9999974365235,8|8,3:2|3:1,0:0:0:0:
284,132,78252,2,0,P|267:170|268:212,1,83.9999974365235,8|8,3:2|3:1,0:0:0:0:
358,311,78557,5,8,3:2:0:0:
451,266,78709,1,8,3:1:0:0:
354,292,78861,1,8,3:2:0:0:
456,285,79014,6,0,B|531:234|545:104|453:25|453:25|427:81|361:85,1,392,14|0,0:1|0:0,0:0:0:0:
290,82,80232,6,0,B|246:52|182:62|151:157|226:220|263:165|307:247|274:342|176:350,1,392,14|0,0:1|0:0,0:0:0:0:
89,326,81450,5,14,0:1:0:0:
109,179,81755,1,14,0:1:0:0:
89,326,82059,1,14,0:1:0:0:
109,179,82364,1,14,0:1:0:0:
89,326,82669,1,14,0:1:0:0:
8,201,82973,5,10,0:1:0:0:
8,201,83049,1,10,0:1:0:0:
8,201,83125,2,0,P|8:148|25:124,1,62.9999980773926,10|8,0:0|0:1,0:0:0:0:
79,75,83430,2,0,L|154:64,1,62.9999980773926,10|8,0:2|0:1,0:0:0:0:
206,145,83735,6,2,B|244:149|244:149|249:157|249:157|306:169,1,84,2|0,0:0|0:0,0:1:0:0:
303,178,84039,6,0,P|331:147|307:45,1,146.999995513916,14|8,0:1|0:1,0:0:0:0:
248,7,84648,2,0,L|184:-1,1,48.9999985046387,8|8,0:0|0:1,0:0:0:0:
58,70,85105,2,0,P|36:117|57:177,1,97.9999970092774,8|8,0:1|0:0,0:0:0:0:
152,275,85714,1,8,0:1:0:0:
152,275,85867,2,0,B|197:255|197:255|256:283,1,97.9999970092774,8|8,0:0|0:1,0:0:0:0:
366,375,86476,6,0,L|377:228,1,146.999995513916,10|8,0:1|0:1,0:0:0:0:
333,162,87085,2,0,P|304:151|268:162,1,48.9999985046387,8|8,0:0|0:1,0:0:0:0:
152,275,87542,2,0,P|97:283|56:254,1,97.9999970092774,8|8,0:1|0:0,0:0:0:0:
2,117,88151,1,8,0:1:0:0:
2,117,88303,2,0,B|29:74|29:74|6:22,1,97.9999970092774,8|8,0:0|0:1,0:0:0:0:
163,135,88912,6,0,B|260:122|220:182|323:174,1,163.800005498657,14|8,0:1|0:1,0:0:0:0:
380,122,89521,2,0,L|388:61,1,54.6000018328858,8|8,0:0|0:1,0:0:0:0:
485,208,89978,2,0,L|468:336,1,109.200003665772,8|8,0:1|0:0,0:0:0:0:
320,384,90587,1,8,0:1:0:0:
320,384,90740,2,0,B|315:338|315:338|319:329|319:329|311:255,1,109.200003665772,8|8,0:0|0:1,0:0:0:0:
202,154,91349,6,0,B|105:141|152:208|42:193,1,163.800005498657,10|8,0:1|0:1,0:0:0:0:
0,128,91958,2,0,L|8:67,1,54.6000018328858,8|8,0:0|0:1,0:0:0:0:
166,10,92415,5,8,0:1:0:0:
217,74,92567,1,8,0:0:0:0:
287,32,92719,2,0,P|339:8|405:34,1,109.200003665772,8|8,0:1|0:1,0:0:0:0:
445,78,93176,2,0,L|438:143,1,54.6000018328858,8|8,0:0|0:1,0:0:0:0:
512,318,93785,6,0,P|479:304|445:308,1,70,14|8,0:1|0:1,0:0:0:0:
344,357,94090,2,0,P|309:360|277:346,1,70,10|8,0:0|0:1,0:0:0:0:
224,247,94394,2,0,L|236:207,2,35,10|8|8,0:1|0:1|0:1,0:0:0:0:
147,329,94699,2,0,B|91:372|91:372|54:296,1,140,10|8,0:0|0:1,0:0:0:0:
0,198,95156,5,10,0:1:0:0:
0,198,95308,2,0,B|71:186,1,70,8|8,0:0|0:1,0:0:0:0:
135,95,95613,2,0,L|82:84,2,35,10|8|8,0:1|0:1|0:1,0:0:0:0:
196,188,95917,1,10,0:0:0:0:
196,188,96070,2,0,B|243:197|243:197|279:171|279:171|333:181,1,140,8|10,0:1|0:1,0:0:0:0:
440,241,96526,5,8,0:0:0:0:
449,142,96679,1,8,0:1:0:0:
460,44,96831,2,0,L|506:27,2,35,10|8|8,0:1|0:1|0:1,0:0:0:0:
368,82,97136,2,0,B|333:83|333:83|300:70,1,70,10|8,0:0|0:1,0:0:0:0:
177,17,97440,6,0,P|214:22|243:6,1,70,10|8,0:1|0:1,0:0:0:0:
200,135,97745,2,0,P|169:119|135:125,1,70,10|8,0:0|0:1,0:0:0:0:
42,178,98049,2,0,L|2:182,2,35,10|8|8,0:1|0:1|0:1,0:0:0:0:
162,235,98354,5,10,0:0:0:0:
214,125,98506,1,12,0:1:0:0:
233,114,98811,5,10,0:1:0:0:
320,175,98963,2,0,L|402:171,1,70,8|8,0:0|0:1,0:0:0:0:
231,238,99268,2,0,L|149:234,1,70,2|8,0:0|0:1,0:0:0:0:
312,291,99572,2,0,B|352:302|352:302|364:357|364:357|408:379,1,140,10|0,0:0|0:0,0:0:0:0:
512,300,100029,5,10,0:1:0:0:
426,224,100181,2,0,P|407:195|410:160,1,70,8|8,0:0|0:1,0:0:0:0:
492,84,100486,2,0,P|510:55|507:20,2,70,2|8|8,0:0|0:1|0:0,0:0:0:0:
387,154,100943,6,0,B|344:145|344:145|298:174|298:174|220:162,1,154.000004699707,10|8,0:1|0:1,0:0:0:0:
150,240,101400,2,0,L|140:145,1,77.0000023498536,10|0,0:0|0:0,0:0:0:0:
41,192,101704,1,10,0:1:0:0:
41,192,101856,2,0,L|51:97,1,77.0000023498536,10|10,0:1|0:0,0:0:0:0:
117,23,102161,6,0,B|171:21|171:21|194:63|194:63|255:86,1,167.999994873047,14|8,0:1|0:1,0:0:0:0:
345,170,102618,1,8,0:0:0:0:
448,104,102770,1,8,0:1:0:0:
448,104,102846,1,8,0:1:0:0:
448,104,102922,2,0,B|463:60|463:60|432:15,1,83.9999974365235,10|8,0:0|0:1,0:0:0:0:
256,86,103379,6,0,B|221:84|221:84|196:106|196:106|133:117,2,112,14|8|8,0:1|0:1|0:0,0:0:0:0:
256,86,104293,1,8,0:1:0:0:
218,156,104445,1,8,0:0:0:0:
303,214,104598,6,0,B|338:212|338:212|363:234|363:234|426:245,1,112,10|8,0:1|0:1,0:0:0:0:
479,200,105054,2,0,P|489:165|489:141,1,56,2|8,0:0|0:0,0:0:0:0:
443,74,105359,2,0,L|378:60,1,56,2|8,0:0|0:1,0:0:0:0:
327,3,105664,1,10,0:0:0:0:
244,73,105816,6,0,B|213:81|182:107|182:107|157:75|128:64,1,140,14|8,0:1|0:1,0:0:0:0:
31,90,106273,2,0,L|13:172,1,70,10|8,0:0|0:1,0:0:0:0:
47,250,106577,2,0,L|29:300,2,35,10|8|8,0:1|0:1|0:1,0:0:0:0:
135,207,106882,1,10,0:0:0:0:
135,207,107034,1,8,0:1:0:0:
194,297,107186,6,0,P|217:321|271:319,1,70,10|8,0:1|0:1,0:0:0:0:
355,274,107491,2,0,L|376:198,1,70,10|8,0:0|0:1,0:0:0:0:
429,111,107795,1,10,0:0:0:0:
488,206,107948,1,8,0:1:0:0:
488,206,108252,6,0,B|303:114|341:378|142:295,1,392,14|0,0:1|0:0,0:0:0:0:
78,236,109471,6,0,B|53:189|100:130|204:150|186:248|154:240|111:232|192:359|252:341|302:324|331:218|240:196,1,440.999986541748,14|0,0:1|0:0,0:0:0:0:
165,148,110689,6,0,B|122:154|122:154|109:172|109:172|51:184,1,112,14|0,0:1|0:0,0:0:0:0:
0,97,111146,2,0,P|-3:73|9:32,1,56,2|0,3:0|0:0,0:0:0:0:
14,33,111374,1,2,3:0:0:0:
26,26,111450,2,0,B|69:26|69:26|83:43|83:43|143:47,1,112,0|2,3:0|0:3,0:0:0:0:
247,0,111907,5,14,0:1:0:0:
165,148,112212,1,14,0:1:0:0:
349,160,112516,5,10,0:1:0:0:
361,65,112669,1,10,0:0:0:0:
274,102,112821,1,10,0:0:0:0:
363,255,113125,6,0,B|422:258|422:258|446:308|446:308|526:342,1,181.999991668702,14|8,0:1|0:1,0:0:0:0:
383,368,113582,2,0,B|301:384,1,77.0000023498536,10|0,0:0|0:0,0:0:0:0:
193,320,113887,1,10,0:1:0:0:
267,253,114039,2,0,B|278:215|278:215|262:180,1,77.0000023498536,2|8,0:1|0:0,0:0:0:0:
142,108,114344,6,0,P|75:85|92:17,1,154.000004699707,2|0,0:0|0:0,0:0:0:0:
210,51,114801,2,0,L|287:40,1,77.0000023498536,10|0,0:0|0:0,0:0:0:0:
371,128,115105,1,10,0:1:0:0:
446,75,115257,2,0,P|452:35|441:-1,1,77.0000023498536,10|8,0:1|0:0,0:0:0:0:
371,128,115562,6,0,P|322:157|325:249,1,154.000004699707,10|8,0:1|0:1,0:0:0:0:
413,305,116019,2,0,L|489:292,1,77.0000023498536,10|0,0:0|0:0,0:0:0:0:
337,372,116323,1,10,0:1:0:0:
246,312,116476,2,0,L|169:299,1,77.0000023498536,2|8,0:0|0:0,0:0:0:0:
71,384,116780,6,0,B|78:327|78:327|72:308|72:308|86:210,1,154.000004699707,2|0,0:0|0:0,0:0:0:0:
92,117,117237,1,10,0:2:0:0:
5,149,117389,1,2,0:1:0:0:
20,58,117542,1,8,0:0:0:0:
107,25,117694,2,0,B|134:23|134:23|148:33|148:33|191:32,1,77.0000023498536,10|8,0:1|0:0,0:0:0:0:
256,156,117999,6,0,P|252:231|350:251,1,181.999991668702,14|8,0:1|0:1,0:0:0:0:
450,177,118455,1,10,0:0:0:0:
388,96,118608,1,2,0:0:0:0:
438,8,118760,2,0,P|408:61|309:36,1,154.000004699707,10|8,0:1|0:0,0:0:0:0:
256,156,119217,6,0,P|213:96|141:108,1,154.000004699707,2|0,0:0|0:0,0:0:0:0:
57,188,119674,2,0,B|64:273,1,77.0000023498536,8|0,0:0|0:0,0:0:0:0:
149,341,119978,2,0,B|196:343|196:343|220:363|220:363|293:384,1,154.000004699707,10|8,0:1|0:0,0:0:0:0:
433,320,120435,6,0,B|457:221|399:256|423:141,1,181.999991668702,14|8,0:1|0:1,0:0:0:0:
512,41,120892,2,0,B|469:57|469:57|432:30,1,90.9999958343508,10|8,0:0|0:1,0:0:0:0:
343,132,121197,2,0,B|386:116|386:116|422:142,1,90.9999958343508,10|8,0:0|0:1,0:0:0:0:
302,52,121501,1,10,0:0:0:0:
260,184,121653,6,0,P|249:237|115:221,1,181.999991668702,14|8,0:1|0:1,0:0:0:0:
49,175,122110,2,0,L|50:67,1,90.9999958343508,8|8,0:0|0:1,0:0:0:0:
157,2,122415,5,8,2:3:0:0:
157,2,122491,1,8,2:3:0:0:
157,2,122567,2,0,P|155:39|180:74,1,70,4|8,2:3|2:2,0:0:0:0:
316,119,122872,6,0,B|423:113|365:189|474:209,1,181.999991668702,14|8,0:1|0:1,0:0:0:0:
334,250,123328,2,0,L|254:237,1,77.0000023498536,10|0,0:0|0:0,0:0:0:0:
159,321,123633,2,0,L|238:333,1,77.0000023498536,10|0,0:1|0:0,0:0:0:0:
155,220,123938,1,10,0:0:0:0:
63,270,124090,6,0,P|9:221|37:155,1,154.000004699707,2|0,0:0|0:0,0:0:0:0:
126,87,124547,2,0,L|211:75,1,77.0000023498536,10|0,0:0|0:0,0:0:0:0:
305,119,124851,1,10,0:1:0:0:
397,72,125004,2,0,B|413:35|413:35|394:-3,1,77.0000023498536,10|8,0:1|0:0,0:0:0:0:
305,119,125308,6,0,B|277:153|277:153|304:267,1,154.000004699707,10|8,0:1|0:1,0:0:0:0:
388,325,125765,2,0,B|421:326|421:326|431:337|431:337|481:350,1,77.0000023498536,10|0,0:0|0:0,0:0:0:0:
299,282,126070,2,0,B|250:290|250:290|231:321|231:321|147:344,1,154.000004699707,10|8,0:1|0:0,0:0:0:0:
33,384,126526,6,0,L|48:217,1,154.000004699707,2|0,0:0|0:0,0:0:0:0:
172,249,126983,2,0,L|157:82,2,154.000004699707,10|8|8,0:0|0:0|0:0,0:0:0:0:
284,317,127745,6,0,P|364:294|355:210,1,181.999991668702,14|8,0:1|0:1,0:0:0:0:
272,142,128202,1,10,0:0:0:0:
370,98,128354,1,2,0:0:0:0:
284,32,128506,2,0,B|224:27|224:27|203:44|203:44|119:38,1,154.000004699707,10|8,0:1|0:0,0:0:0:0:
19,102,128963,5,2,0:0:0:0:
19,102,129039,1,2,0:0:0:0:
19,102,129115,2,0,P|67:122|26:83,1,154.000004699707,10|10,0:1|0:0,0:0:0:0:
111,339,129724,2,0,P|63:359|104:320,1,154.000004699707,10|8,0:1|0:2,0:0:0:0:
215,254,130181,6,0,B|320:250|257:323|358:351,1,181.999991668702,14|8,0:1|0:1,0:0:0:0:
495,329,130638,2,0,L|511:219,1,83.9999974365235,10|0,3:2|3:3,0:0:0:0:
392,145,130943,6,0,B|350:154|350:154|313:134,1,83.9999974365235,10|0,3:1|3:1,0:0:0:0:
215,254,131247,2,0,B|178:234|178:234|136:243,1,83.9999974365235,8|2,3:2|3:1,0:0:0:0:
117,252,131476,1,0,3:0:0:0:
97,259,131552,6,0,P|76:223|82:180,1,83.9999974365235,8|8,3:2|3:1,0:0:0:0:
148,66,131856,2,0,L|232:51,1,83.9999974365235,8|8,3:2|3:1,0:0:0:0:
350,117,132161,5,8,3:2:0:0:
360,0,132313,1,0,3:1:0:0:
350,117,132466,1,8,3:2:0:0:
459,112,132618,6,0,B|459:18|294:31|338:201|390:183|454:161|406:294|342:302|293:246|300:207,1,392,14|0,0:1|0:0,0:0:0:0:
260,130,133836,6,0,P|106:66|98:233,1,392,14|0,0:1|0:0,0:0:0:0:
180,290,135054,5,14,0:1:0:0:
0,339,135359,1,14,0:1:0:0:
180,290,135664,1,14,0:1:0:0:
0,339,135968,1,14,0:1:0:0:
180,290,136273,1,14,0:1:0:0:
345,363,136577,5,10,0:1:0:0:
345,363,136653,1,10,0:1:0:0:
345,363,136729,2,0,L|350:291,1,62.9999980773926,10|8,0:0|0:1,0:0:0:0:
271,213,137034,2,0,L|266:141,1,62.9999980773926,10|8,0:2|0:1,0:0:0:0:
266,150,137491,6,2,B|346:163|346:163|361:197|361:197|447:239,1,195.999994018555,14|8,0:1|0:1,0:1:0:0:
275,239,137948,2,0,P|268:314|174:316,1,161.000003070831,10|10,0:0|0:1,0:0:0:0:
92,380,138405,1,2,0:0:0:0:
19,294,138557,2,0,L|15:187,1,80.5000015354157,10|2,0:0|0:0,0:0:0:0:
133,132,138861,6,0,B|95:147|95:147|60:126,1,80.5000015354157,10|2,0:1|0:0,0:0:0:0:
134,40,139166,2,0,B|168:19|168:19|206:34,1,80.5000015354157,10|2,0:0|0:0,0:0:0:0:
279,115,139471,1,10,0:1:0:0:
379,71,139623,2,0,B|399:36|399:36|384:-1,1,80.5000015354157,2|10,0:0|0:0,0:0:0:0:
283,119,139927,6,2,P|260:164|286:256,1,120.750002303124,10|0,0:1|0:0,0:1:0:0:
281,251,140232,2,2,L|366:258,1,80.5000015354157,10|8,0:1|0:0,0:1:0:0:
457,338,140537,2,2,P|453:300|462:248,1,80.5000015354157,2|8,0:0|0:1,0:1:0:0:
512,158,140841,1,2,0:0:0:0:
418,174,140993,1,10,0:0:0:0:
335,106,141146,6,2,P|269:12|156:30,1,241.500004606247,2|8,0:0|0:0,0:1:0:0:
23,235,141907,5,10,0:0:0:0:
14,138,142059,1,10,0:1:0:0:
102,178,142212,1,10,0:0:0:0:
110,275,142364,6,2,P|126:364|217:373,1,195.999994018555,14|8,0:1|0:1,0:1:0:0:
294,289,142821,2,2,L|311:183,1,80.5000015354157,10|0,0:0|0:0,0:1:0:0:
418,122,143125,6,0,P|367:126|338:105,1,80.5000015354157,10|0,3:1|3:0,0:0:0:0:
327,98,143354,1,0,3:0:0:0:
311,85,143430,2,0,P|275:67|236:74,1,80.5000015354157,8|0,3:2|3:0,0:0:0:0:
158,185,143735,6,0,L|141:291,1,80.5000015354157,10|0,3:1|3:0,0:0:0:0:
135,281,143963,1,0,3:0:0:0:
124,298,144039,2,0,B|89:320|89:320|48:292,1,80.5000015354157,8|0,3:2|3:0,0:0:0:0:
0,183,144344,6,0,L|17:77,1,80.5000015354157,10|0,3:1|3:0,0:0:0:0:
84,17,144648,1,8,3:2:0:0:
218,65,144801,6,2,B|263:84|290:130|290:130|307:80|362:44,1,195.999994018555,14|8,0:1|0:1,0:1:0:0:
488,95,145257,2,0,L|502:200,1,80.5000015354157,10|8,0:0|0:1,0:0:0:0:
401,288,145562,2,0,L|390:208,1,80.5000015354157,10|10,0:0|0:1,0:0:0:0:
290,130,145867,1,10,0:0:0:0:
203,229,146019,6,2,B|90:208|140:325|20:303,1,195.999994018555,14|8,0:1|0:1,0:1:0:0:
0,176,146476,2,0,L|16:76,1,97.9999970092774,10|8,0:0|0:1,0:0:0:0:
137,0,146780,5,10,0:0:0:0:
201,86,146933,2,0,B|171:76|171:76|146:84|146:84|100:74,1,83.9999974365235,10|8,0:1|0:0,0:0:0:0:
248,158,147237,6,2,P|247:232|363:264,1,195.999994018555,14|0,0:1|0:0,0:1:0:0:
447,362,147694,2,0,L|462:169,1,161.000003070831,8|8,0:2|0:1,0:0:0:0:
301,19,148303,5,10,0:2:0:0:
301,19,148455,2,2,P|299:97|145:116,1,241.500004606247,2|8,0:0|0:0,0:1:0:0:
64,94,149065,5,2,0:0:0:0:
99,178,149217,2,0,L|130:8,1,161.000003070831,10|8,0:1|0:0,0:0:0:0:
245,77,149674,6,2,B|348:81|290:134|395:153,1,161.000003070831,10|8,0:1|0:1,0:1:0:0:
494,217,150131,2,0,B|515:168|475:130|475:130|482:172|463:195,1,161.000003070831,8|8,0:0|0:1,0:0:0:0:
316,348,150740,5,10,0:0:0:0:
316,348,150892,2,2,B|260:335|260:335|221:357|221:357|132:337,1,161.000003070831,2|0,0:0|0:0,0:1:0:0:
56,384,151349,2,0,L|43:271,1,80.5000015354157,8|0,0:0|0:0,0:0:0:0:
97,182,151653,5,8,0:0:0:0:
0,215,151806,1,8,0:1:0:0:
19,114,151958,1,8,0:0:0:0:
116,81,152110,6,2,B|207:81|158:145|268:173,1,161.000003070831,14|8,3:1|3:1,0:1:0:0:
342,248,152567,2,0,L|352:168,1,80.5000015354157,10|0,3:2|3:0,0:0:0:0:
472,187,152872,6,0,L|461:107,1,80.5000015354157,10|0,3:1|3:0,0:1:0:0:
456,87,153100,1,0,3:0:0:0:
446,69,153176,2,0,P|404:46|356:60,1,80.5000015354157,8|0,3:2|3:0,0:0:0:0:
260,139,153481,6,0,P|220:141|187:119,1,80.5000015354157,10|0,3:1|3:0,0:1:0:0:
171,106,153709,1,0,3:0:0:0:
159,89,153785,2,0,P|125:67|86:69,1,80.5000015354157,8|0,3:2|3:0,0:0:0:0:
0,169,154090,5,10,2:1:0:0:
74,223,154242,2,0,L|160:211,1,80.5000015354157,2|8,0:0|0:0,0:0:0:0:
273,283,154547,6,2,P|296:355|425:343,1,195.999994018555,14|8,0:1|0:1,0:1:0:0:
487,285,155004,2,0,L|497:188,1,83.9999974365235,10|10,0:0|0:1,0:0:0:0:
391,112,155308,2,0,L|382:195,1,83.9999974365235,10|10,0:0|0:1,0:0:0:0:
284,265,155613,1,10,0:0:0:0:
229,149,155765,6,2,P|206:77|77:89,1,195.999994018555,14|8,0:1|0:1,0:1:0:0:
8,151,156222,2,0,L|-2:248,1,83.9999974365235,10|10,0:0|0:1,0:0:0:0:
46,363,156526,1,10,0:0:0:0:
122,296,156679,1,10,0:1:0:0:
169,384,156831,1,10,0:0:0:0:
279,307,156983,6,2,B|292:256|292:256|282:202|282:202|306:102,1,195.999994018555,14|8,3:1|3:1,0:1:0:0:
236,15,157440,2,0,L|144:-2,1,83.9999974365235,8|0,3:2|3:0,0:0:0:0:
302,115,157745,6,2,L|394:132,1,83.9999974365235,10|0,3:1|3:0,0:1:0:0:
405,133,157973,1,0,3:0:0:0:
425,137,158049,2,0,P|451:79|435:51,1,83.9999974365235,8|0,3:2|3:0,0:0:0:0:
302,115,158354,6,2,P|276:173|292:201,1,83.9999974365235,10|0,3:1|3:0,0:1:0:0:
291,206,158582,1,0,3:0:0:0:
300,224,158658,2,0,P|304:264|279:296,1,83.9999974365235,8|0,3:2|3:0,0:0:0:0:
134,354,158963,5,10,2:2:0:0:
166,228,159115,1,10,2:2:0:0:
166,228,159420,6,0,P|117:262|45:113,2,280,14|2|2,0:1|0:0|0:0,0:0:0:0:
235,151,164293,6,0,B|314:41|314:41|378:359,1,455,2|2,0:0|0:0,0:0:0:0:
377,354,166729,6,0,P|429:368|474:335,1,97.9999970092774,14|0,3:1|3:0,0:0:0:0:
512,281,167186,2,0,L|498:216,1,48.9999985046387,0|0,3:0|3:0,0:0:0:0:
497,221,167415,1,0,3:2:0:0:
491,210,167491,2,0,L|487:104,1,97.9999970092774,0|0,3:2|3:0,0:0:0:0:
409,38,167948,6,0,P|372:34|348:98,1,105.000004005432,2|0,3:2|3:0,0:0:0:0:
293,159,168405,2,0,P|277:167|235:161,1,52.5000020027161,0|0,3:0|3:0,0:0:0:0:
230,160,168633,1,0,3:0:0:0:
218,152,168709,2,0,B|177:119|177:119|108:137,1,105.000004005432,0|0,3:0|3:0,0:0:0:0:
29,209,169166,6,0,L|33:326,1,112,2|0,3:2|3:0,0:0:0:0:
113,364,169623,2,0,P|140:349|169:348,1,56,0|0,3:0|3:0,0:0:0:0:
178,350,169851,1,0,3:0:0:0:
191,354,169927,2,0,P|250:360|268:304,1,112,0|0,3:0|3:0,0:0:0:0:
233,213,170384,5,14,0:1:0:0:
228,192,170993,1,14,0:1:0:0:
223,171,171603,1,14,0:1:0:0:
114,89,171907,6,0,L|65:86,2,31.4999990386963,8|8|8,0:0|0:0|0:1,0:0:0:0:
200,78,172212,1,10,2:1:0:0:
200,78,172288,1,10,2:1:0:0:
200,78,172364,2,0,P|219:46|207:12,1,70,10|10,2:2|2:2,0:0:0:0:
0,334,174039,6,0,B|113:320|56:389|177:380,1,181.999991668702,14|8,0:1|2:1,0:0:0:0:
275,305,174496,5,2,1:1:0:0:
236,282,174648,5,2,1:1:0:0:
212,233,174801,5,2,1:1:0:0:
227,171,174953,5,2,1:1:0:0:
299,136,175105,5,2,1:1:0:0:
406,187,175257,6,0,P|494:176|479:79,1,195.999994018555,14|8,0:1|0:1,0:0:0:0:
393,16,175714,2,0,L|295:21,1,80.5000015354157,10|0,0:0|0:0,0:0:0:0:
203,83,176019,1,10,0:1:0:0:
140,20,176171,1,2,0:0:0:0:
77,83,176323,1,10,0:0:0:0:
140,146,176476,6,0,P|141:224|230:236,1,161.000003070831,2|0,0:0|0:0,0:0:0:0:
309,303,176933,2,0,L|317:217,1,80.5000015354157,10|0,0:0|0:0,0:0:0:0:
390,362,177237,1,10,0:0:0:0:
476,308,177389,2,0,L|468:218,1,80.5000015354157,10|8,0:1|0:0,0:0:0:0:
362,132,177694,6,0,B|303:123|303:123|268:136|268:136|175:122,1,181.999991668702,14|8,0:1|0:1,0:0:0:0:
106,227,178151,1,10,0:2:0:0:
65,137,178303,1,2,0:0:0:0:
1,232,178455,2,0,L|21:50,1,161.000003070831,10|8,0:1|0:0,0:0:0:0:
170,0,178912,6,0,L|187:160,1,161.000003070831,2|0,0:0|0:0,0:0:0:0:
269,227,179369,2,0,L|278:143,1,80.5000015354157,8|0,0:0|0:0,0:0:0:0:
330,48,179674,2,0,P|384:-6|458:13,1,161.000003070831,10|8,0:1|0:0,0:0:0:0:
510,132,180131,6,0,B|500:212|500:212|503:229|503:229|493:331,1,195.999994018555,14|8,0:1|0:1,0:0:0:0:
351,384,180587,2,0,B|367:342|367:342|350:299,1,90.9999958343508,10|8,0:0|0:1,0:0:0:0:
226,261,180892,2,0,B|210:219|210:219|226:176,1,90.9999958343508,10|8,0:0|0:1,0:0:0:0:
322,104,181197,1,10,0:2:0:0:
207,36,181349,5,10,3:1:0:0:
207,36,181425,1,0,3:0:0:0:
207,36,181501,2,0,L|103:16,1,83.9999974365235,8|0,3:2|3:0,0:0:0:0:
16,78,181806,2,0,P|-3:116|6:170,1,83.9999974365235,8|0,3:2|3:0,0:0:0:0:
13,172,182034,1,0,3:0:0:0:
28,186,182110,2,0,L|132:206,1,83.9999974365235,8|0,3:2|3:0,0:0:0:0:
166,278,182415,1,8,3:2:0:0:
246,184,182567,6,0,P|269:95|361:87,1,195.999994018555,14|8,0:1|0:1,0:0:0:0:
470,165,183024,2,0,P|466:203|475:252,1,80.5000015354157,10|0,0:2|0:0,0:0:0:0:
392,329,183328,2,0,P|354:314|297:310,1,80.5000015354157,10|0,0:1|0:0,0:0:0:0:
227,369,183633,1,10,0:0:0:0:
155,282,183785,6,0,B|146:196|169:221|162:121,1,161.000003070831,2|0,0:0|0:0,0:0:0:0:
109,30,184242,2,0,P|79:14|19:30,1,80.5000015354157,10|0,0:2|0:0,0:0:0:0:
162,121,184547,1,10,0:1:0:0:
258,79,184699,2,0,P|274:49|258:-11,1,80.5000015354157,10|8,0:1|0:0,0:0:0:0:
169,128,185004,6,0,P|110:156|114:255,1,161.000003070831,10|8,0:1|0:1,0:0:0:0:
194,315,185460,2,0,B|225:319|225:319|238:332|238:332|287:340,1,80.5000015354157,10|0,0:0|0:0,0:0:0:0:
386,384,185765,2,0,B|394:318|394:318|390:301|390:301|398:224,1,161.000003070831,8|8,0:1|0:0,0:0:0:0:
470,106,186222,6,0,P|432:173|359:144,1,161.000003070831,2|0,0:0|0:0,0:0:0:0:
276,40,186679,2,0,B|344:33|344:33|355:35|355:35|451:26,2,161.000003070831,10|8|8,0:0|0:0|0:0,0:0:0:0:
228,180,187440,6,0,P|226:270|131:288,1,195.999994018555,14|8,0:1|0:1,0:0:0:0:
19,205,187897,1,10,0:0:0:0:
110,153,188049,1,2,0:0:0:0:
30,83,188202,2,0,P|36:155|109:153,1,161.000003070831,10|8,0:1|0:0,0:0:0:0:
234,42,188658,5,2,0:0:0:0:
234,42,188735,1,2,0:0:0:0:
234,42,188811,2,0,B|222:84|181:96|181:96|151:65|162:22,1,161.000003070831,8|10,0:1|0:0,0:0:0:0:
286,240,189420,2,0,B|298:282|339:294|339:294|369:263|357:218,1,161.000003070831,10|8,0:1|0:0,0:0:0:0:
211,182,189877,6,0,B|112:162|149:275|35:264,1,195.999994018555,14|8,0:1|0:1,0:0:0:0:
167,347,190334,2,0,B|217:348|210:369|281:372,1,97.9999970092774,10|8,0:0|0:1,0:0:0:0:
388,315,190638,5,10,2:2:0:0:
457,384,190790,1,8,2:1:0:0:
481,290,190943,1,10,2:0:0:0:
410,221,191095,6,0,B|355:207|355:207|310:238|310:238|212:216,1,195.999994018555,14|8,0:1|0:1,0:0:0:0:
131,141,191552,1,8,0:2:0:0:
128,123,191628,1,8,0:2:0:0:
126,106,191704,1,8,0:2:0:0:
124,88,191780,1,8,0:2:0:0:
122,71,191856,2,0,B|88:51|88:51|52:65,2,77.0000023498536,8|8|8,0:3|0:3|0:0,0:0:0:0:
232,140,192313,6,0,B|343:116|301:208|412:182,1,195.999994018555,14|8,0:1|0:1,0:0:0:0:
507,129,192770,2,0,P|518:97|506:42,1,77.0000023498536,8|0,0:0|0:0,0:0:0:0:
419,189,193075,1,10,0:1:0:0:
419,189,193227,2,0,P|413:226|424:263,1,77.0000023498536,2|8,0:0|0:0,0:0:0:0:
331,120,193532,6,0,P|326:71|213:54,1,154.000004699707,2|0,0:0|0:0,0:0:0:0:
147,95,193988,2,0,L|70:88,1,77.0000023498536,8|0,0:0|0:0,0:0:0:0:
127,195,194293,2,0,P|148:265|220:277,1,154.000004699707,10|8,0:1|0:0,0:0:0:0:
310,358,194750,6,0,B|319:299|319:299|319:283|319:283|334:193,1,154.000004699707,10|8,0:1|0:1,0:0:0:0:
415,277,195207,1,8,0:0:0:0:
415,277,195511,1,10,0:1:0:0:
494,203,195664,2,0,L|489:119,1,77.0000023498536,2|8,0:0|0:0,0:0:0:0:
401,30,195968,6,0,B|303:16|349:87|260:82,1,154.000004699707,2|0,0:2|0:0,0:0:0:0:
155,100,196425,2,0,B|164:-1,1,77.0000023498536,8|0,0:0|0:0,0:0:0:0:
224,164,196729,1,10,0:2:0:0:
146,204,196882,2,0,P|108:196|79:171,1,77.0000023498536,10|10,0:1|0:0,0:0:0:0:
224,164,197186,6,0,B|331:169|260:245|367:290,1,195.999994018555,14|8,0:1|0:1,0:0:0:0:
512,245,197643,1,10,0:0:0:0:
446,169,197795,1,2,0:0:0:0:
512,93,197948,2,0,P|480:131|377:110,1,154.000004699707,10|8,0:1|0:2,0:0:0:0:
249,145,198405,6,0,P|229:74|158:59,1,154.000004699707,2|0,0:0|0:0,0:0:0:0:
64,103,198861,2,0,L|47:201,1,77.0000023498536,8|0,0:0|0:0,0:0:0:0:
103,272,199166,2,0,B|181:261|162:327|229:348,1,154.000004699707,10|8,0:1|0:0,0:0:0:0:
372,384,199623,6,0,B|381:300|381:300|379:293|379:293|390:186,1,195.999994018555,14|8,0:1|0:1,0:0:0:0:
488,88,200080,2,0,B|469:134|469:134|487:178,1,97.9999970092774,10|10,0:0|0:1,0:0:0:0:
360,103,200384,2,0,B|379:57|379:57|360:12,1,97.9999970092774,10|10,0:0|0:1,0:0:0:0:
267,76,200689,1,10,0:0:0:0:
151,21,200841,6,0,P|62:20|59:108,1,195.999994018555,14|8,0:1|0:1,0:0:0:0:
171,175,201298,2,0,B|211:176|211:176|225:184|225:184|277:191,1,97.9999970092774,8|8,0:0|0:1,0:0:0:0:
126,265,201603,5,8,0:3:0:0:
126,265,201679,1,8,0:3:0:0:
126,265,201755,2,0,B|93:265|93:265|79:270|79:270|38:272,1,70,8|8,0:3|0:0,0:0:0:0:
226,307,202059,6,0,B|295:317|295:317|321:349|321:349|408:366,1,195.999994018555,14|8,0:1|0:1,0:0:0:0:
512,315,202516,2,0,L|505:234,1,80.5000015354157,8|0,0:0|0:0,0:0:0:0:
419,174,202821,2,0,B|407:147|407:147|428:49|428:49|454:93,1,161.000003070831,10|8,0:1|0:0,0:0:0:0:
322,98,203278,6,0,B|224:66|268:141|158:115,1,161.000003070831,2|0,0:0|0:0,0:0:0:0:
64,80,203735,2,0,L|56:-21,1,80.5000015354157,8|0,0:0|0:0,0:0:0:0:
173,121,204039,2,0,P|171:197|100:226,1,161.000003070831,8|8,0:1|0:0,0:0:0:0:
254,273,204496,6,0,P|255:349|326:378,1,161.000003070831,10|8,0:1|0:1,0:0:0:0:
451,295,204953,2,0,L|359:282,1,80.5000015354157,8|0,0:0|0:0,0:0:0:0:
450,204,205257,2,0,P|448:127|377:98,1,161.000003070831,10|8,0:1|0:0,0:0:0:0:
282,0,205714,6,0,P|280:76|209:105,1,161.000003070831,2|0,0:0|0:0,0:0:0:0:
109,130,206171,2,0,L|103:27,1,80.5000015354157,8|0,0:0|0:0,0:0:0:0:
188,200,206476,1,8,0:0:0:0:
92,237,206628,2,0,L|7:223,1,80.5000015354157,8|8,0:1|0:0,0:0:0:0:
188,200,206933,6,0,B|300:192|239:286|374:275,1,195.999994018555,14|8,0:1|0:1,0:0:0:0:
199,303,207389,2,0,B|209:342|209:342|190:377,1,80.5000015354157,10|8,0:0|0:1,0:0:0:0:
27,383,207694,2,0,B|8:348|8:348|18:308,1,80.5000015354157,10|8,0:0|0:1,0:0:0:0:
99,207,207999,1,10,0:0:0:0:
0,141,208151,6,0,P|87:153|99:52,1,181.999991668702,14|8,0:1|0:1,0:0:0:0:
241,0,208608,2,0,P|230:40|240:80,1,83.9999974365235,10|8,0:0|0:1,0:0:0:0:
368,122,208912,1,10,0:0:0:0:
324,41,209065,1,8,0:1:0:0:
286,152,209217,1,10,0:0:0:0:
405,197,209369,6,0,P|453:159|360:138,1,195.999994018555,14|8,0:1|0:1,0:0:0:0:
253,173,209826,2,0,L|164:156,1,80.5000015354157,10|0,3:2|3:0,0:0:0:0:
287,273,210131,2,0,P|280:335|370:365,1,161.000003070831,8|8,3:2|3:2,0:0:0:0:
490,287,210587,5,2,3:2:0:0:
490,287,210664,1,0,3:0:0:0:
490,287,210740,2,0,L|484:191,1,87.5,8|8,3:2|3:1,0:0:0:0:
362,107,211044,2,0,L|356:194,1,87.5,8|8,3:2|3:1,0:0:0:0:
265,293,211349,5,10,0:0:0:0:
265,293,211501,2,0,B|235:283|235:283|217:286|217:286|163:274,1,77.0000023498536,10|8,0:0|0:3,0:0:0:0:
113,341,211806,6,0,B|37:374|37:374|80:67,1,392,14|0,0:1|0:0,0:0:0:0:
165,29,213024,6,0,B|222:-5|280:35|278:102|254:107|234:116|255:188|302:203|302:203|334:191|369:154|356:103,1,392,14|0,0:1|0:0,0:0:0:0:
301,49,214242,5,14,0:1:0:0:
242,209,214547,1,14,0:1:0:0:
301,49,214851,1,14,0:1:0:0:
242,209,215156,1,14,0:1:0:0:
301,49,215460,1,14,0:1:0:0:
426,186,215765,5,10,0:1:0:0:
426,186,215841,1,10,0:1:0:0:
426,186,215917,2,0,P|434:145|411:107,1,62.9999980773926,10|8,0:0|0:1,0:0:0:0:
363,59,216222,2,0,L|292:47,1,62.9999980773926,10|8,0:2|0:1,0:0:0:0:
231,111,216526,6,2,B|197:114|197:114|184:127|184:127|131:135,1,84,2|0,0:0|0:0,0:1:0:0:
129,124,216831,6,0,P|132:79|54:42,2,140,14|8|8,0:1|0:0|0:1,0:0:0:0:
57,198,217592,2,0,P|43:230|46:265,1,70,2|8,0:0|0:0,0:0:0:0:
130,339,217897,6,0,B|178:340|178:340|196:355|196:355|269:364,1,140,2|0,0:0|0:0,0:0:0:0:
377,384,218354,2,0,L|373:314,1,70,10|0,0:0|0:0,0:0:0:0:
272,275,218658,1,10,0:1:0:0:
272,275,218811,2,0,L|275:205,1,70,2|10,0:1|0:0,0:0:0:0:
382,143,219115,6,0,P|436:141|444:54,1,140,10|8,0:1|0:1,0:0:0:0:
361,18,219572,2,0,B|338:15|338:15|321:18|321:18|276:11,1,70,10|0,0:0|0:0,0:0:0:0:
214,87,219877,1,10,0:1:0:0:
214,87,220029,2,0,L|208:0,1,70,2|8,0:0|0:0,0:0:0:0:
118,103,220334,6,0,P|64:105|56:192,1,140,2|0,0:0|0:0,0:0:0:0:
89,277,220790,2,0,L|167:273,1,70,8|0,0:0|0:0,0:0:0:0:
233,349,221095,1,10,0:1:0:0:
315,283,221247,2,0,P|323:247|313:209,1,70,10|8,0:1|0:0,0:0:0:0:
226,133,221552,6,0,P|200:77|251:12,1,140,14|8,0:1|0:1,0:0:0:0:
345,38,222009,2,0,L|424:31,1,70,10|0,0:0|0:0,0:0:0:0:
480,130,222313,1,10,0:1:0:0:
480,130,222466,2,0,L|401:123,1,70,2|8,0:0|0:0,0:0:0:0:
317,200,222770,6,0,B|304:243|304:243|310:304|310:304|292:345,1,140,2|0,0:0|0:0,0:0:0:0:
195,384,223227,2,0,L|182:302,1,70,10|0,0:0|0:0,0:0:0:0:
75,345,223532,1,10,0:1:0:0:
75,345,223684,2,0,L|92:255,1,70,2|10,0:0|0:0,0:0:0:0:
24,162,223988,6,0,P|64:221|129:205,1,140,14|8,0:1|0:1,0:0:0:0:
223,130,224445,1,10,3:2:0:0:
228,114,224521,1,0,3:0:0:0:
232,98,224598,1,0,3:0:0:0:
238,83,224674,1,0,3:0:0:0:
243,68,224750,2,0,B|251:42|251:42|249:34|249:34|259:0,2,70,8|0|8,3:1|3:0|3:1,0:0:0:0:
323,158,225207,6,0,B|349:156|349:156|365:148|365:148|411:143,1,70,2|8,3:2|3:1,0:0:0:0:
497,103,225511,2,0,L|508:66,2,35,2|0|8,3:2|3:0|0:0,0:0:0:0:
483,210,225816,2,0,L|493:245,2,35,2|0|8,3:2|3:0|3:1,0:0:0:0:
402,157,226120,1,2,3:2:0:0:
402,157,226197,1,0,3:0:0:0:
402,157,226273,2,0,L|386:81,1,59.5000011348725,8|0,3:2|3:0,0:0:0:0:
259,30,226729,6,0,L|311:21,2,48.9999985046387,2|2|2,0:2|0:2|0:2,0:0:0:0:
188,83,227186,2,0,L|136:74,2,48.9999985046387,2|2|2,0:2|0:2|0:2,0:0:0:0:
266,133,227643,6,2,B|282:170|282:170|266:204|266:204|252:181,1,97.9999970092774,14|0,0:1|0:0,0:1:0:0:
