osu file format v14

[General]
AudioFilename: audio2.mp3
AudioLeadIn: 0
PreviewTime: 59445
Countdown: 0
SampleSet: Soft
StackLeniency: 0.3
Mode: 0
LetterboxInBreaks: 0
WidescreenStoryboard: 0

[Editor]
DistanceSpacing: 0.8
BeatDivisor: 4
GridSize: 32
TimelineZoom: 2.5

[Metadata]
Title:BWLAUTE BEIRRD
TitleUnicode:BWLAUTE BEIRRD
Artist:Yumeno Yuki
ArtistUnicode:夢乃ゆき
Creator:Lasse
Version:AIR's Extra.
Source:抜きゲーみたいな島に住んでる貧乳(わたし)はどうすりゃいいですか? 2
Tags:nukitashi 2 Is the prospect LMT AIR or Kalibe Hope or Despair opening full version eroge visual novel blue bird water japanese pop rock english sbeve
BeatmapID:2130910
BeatmapSetID:1014034

[Difficulty]
HPDrainRate:5
CircleSize:4
OverallDifficulty:8
ApproachRate:9.2
SliderMultiplier:1.82
SliderTickRate:1

[Events]
//Background and Video events
0,0,"d.jpg",0,0
//Break Periods
//Storyboard Layer 0 (Background)
//Storyboard Layer 1 (Fail)
//Storyboard Layer 2 (Pass)
//Storyboard Layer 3 (Foreground)
//Storyboard Layer 4 (Overlay)
//Storyboard Sound Samples

[TimingPoints]
1197,304.568527918782,4,2,0,70,1,0
10334,-100,4,2,34,40,0,0
10638,-100,4,2,34,5,0,0
10714,-100,4,2,34,5,0,0
10790,-166.666666666667,4,2,35,55,0,0
11247,-166.666666666667,4,2,35,50,0,0
12770,-166.666666666667,4,2,35,55,0,0
13684,-166.666666666667,4,2,35,50,0,0
15054,-142.857142857143,4,2,35,55,0,0
15664,-125,4,2,35,55,0,0
18100,-111.111111111111,4,2,35,55,0,0
18557,-111.111111111111,4,2,35,55,0,0
19318,-100,4,2,35,60,0,0
20080,-166.666666666667,4,2,35,65,0,0
20156,-166.666666666667,4,2,35,5,0,0
20537,-166.666666666667,4,2,35,40,0,0
20613,-166.666666666667,4,2,35,10,0,0
20689,-90.9090909090909,4,2,34,68,0,0
25410,-90.9090909090909,4,2,35,68,0,0
25714,-90.9090909090909,4,2,34,68,0,0
27846,-90.9090909090909,4,2,35,68,0,0
30359,-90.9090909090909,4,2,35,5,0,0
30435,-125,4,2,35,50,0,0
35232,-125,4,2,35,5,0,0
35308,-125,4,2,35,50,0,0
38049,-125,4,2,35,50,0,0
38202,-125,4,2,35,40,0,0
38354,-125,4,2,35,50,0,0
38506,-125,4,2,35,40,0,0
38658,-125,4,2,35,50,0,0
38811,-125,4,2,35,40,0,0
38963,-125,4,2,35,42,0,0
39115,-125,4,2,35,44,0,0
39268,-125,4,2,35,46,0,0
39420,-125,4,2,35,48,0,0
39572,-125,4,2,35,50,0,0
39724,-125,4,2,35,52,0,0
39877,-125,4,2,35,54,0,0
40029,-125,4,2,35,56,0,0
40105,-125,4,2,35,5,0,0
40181,-100,4,2,34,60,0,0
44902,-100,4,2,35,60,0,0
45207,-100,4,2,34,60,0,0
47339,-90.9090909090909,4,2,35,62,0,0
48557,-83.3333333333333,4,2,35,64,0,0
49775,-125,4,2,35,60,0,0
52212,-100,4,2,35,64,0,0
52669,-100,4,2,35,62,0,0
54648,-125,4,2,35,60,0,0
56095,-125,4,2,35,30,0,0
56171,-125,4,2,35,60,0,0
57085,-125,4,2,35,50,0,0
57313,-125,4,2,35,5,0,0
57389,-125,4,2,35,40,0,0
57846,-142.857142857143,4,2,35,40,0,0
58303,-125,4,2,35,64,0,0
58912,-125,4,2,35,66,0,0
59065,-125,4,2,35,68,0,0
59217,-125,4,2,35,70,0,0
59521,-76.9230769230769,4,2,34,76,0,1
59978,-90.9090909090909,4,2,35,76,0,1
64394,-76.9230769230769,4,2,35,76,0,1
64699,-90.9090909090909,4,2,35,76,0,1
66831,-76.9230769230769,4,2,35,76,0,1
68049,-71.4285714285714,4,2,35,76,0,1
68811,-100,4,2,35,76,0,1
69115,-100,4,2,35,76,0,0
69268,-76.9230769230769,4,2,34,76,0,1
69724,-90.9090909090909,4,2,35,76,0,1
74141,-76.9230769230769,4,2,35,76,0,1
74598,-90.9090909090909,4,2,35,76,0,1
76577,-76.9230769230769,4,2,35,76,0,1
77339,-100,4,2,35,76,0,1
79014,-166.666666666667,4,2,35,60,0,0
79090,-166.666666666667,4,2,35,5,0,0
79471,-166.666666666667,4,2,35,40,0,0
79775,-166.666666666667,4,2,35,50,0,0
80080,-166.666666666667,4,2,35,35,0,0
80232,-166.666666666667,4,2,35,60,0,0
80308,-166.666666666667,4,2,35,5,0,0
80689,-166.666666666667,4,2,35,40,0,0
80993,-166.666666666667,4,2,35,50,0,0
81298,-166.666666666667,4,2,35,35,0,0
81450,-166.666666666667,4,2,35,60,0,0
81526,-166.666666666667,4,2,35,5,0,0
81755,-166.666666666667,4,2,35,60,0,0
81831,-166.666666666667,4,2,35,5,0,0
82059,-166.666666666667,4,2,35,60,0,0
82135,-166.666666666667,4,2,35,5,0,0
82364,-166.666666666667,4,2,35,60,0,0
82440,-166.666666666667,4,2,35,5,0,0
82669,-166.666666666667,4,2,35,60,0,0
82745,-166.666666666667,4,2,35,5,0,0
82973,-111.111111111111,4,2,35,60,0,0
83735,-166.666666666667,4,2,35,50,0,0
83963,-166.666666666667,4,2,35,5,0,0
84039,-142.857142857143,4,2,35,48,0,0
88912,-128.205128205128,4,2,35,50,0,0
92567,-128.205128205128,4,2,35,52,0,0
93024,-128.205128205128,4,2,35,54,0,0
93557,-128.205128205128,4,2,35,48,0,0
93785,-100,4,2,34,60,0,0
98506,-100,4,2,35,60,0,0
98811,-100,4,2,35,60,0,0
100943,-90.9090909090909,4,2,35,60,0,0
102161,-83.3333333333333,4,2,35,60,0,0
103379,-125,4,2,35,60,0,0
104826,-125,4,2,35,30,0,0
104902,-125,4,2,35,60,0,0
105816,-100,4,2,35,60,0,0
106273,-100,4,2,35,60,0,0
108252,-125,4,2,35,60,0,0
108405,-125,4,2,35,5,0,0
109318,-125,4,2,35,40,0,0
109471,-111.111111111111,4,2,35,62,0,0
109547,-111.111111111111,4,2,35,5,0,0
109775,-111.111111111111,4,2,35,30,0,0
109927,-111.111111111111,4,2,35,52,0,0
110689,-125,4,2,35,60,0,0
110917,-125,4,2,35,5,0,0
110993,-125,4,2,35,40,0,0
111450,-142.857142857143,4,2,35,40,0,0
111907,-125,4,2,35,64,0,0
112516,-125,4,2,35,66,0,0
112669,-125,4,2,35,68,0,0
112821,-125,4,2,35,70,0,0
113125,-71.4285714285714,4,2,34,76,0,1
113582,-83.3333333333333,4,2,35,76,0,1
117999,-71.4285714285714,4,2,35,76,0,1
118455,-83.3333333333333,4,2,35,76,0,1
120435,-71.4285714285714,4,2,35,76,0,1
121501,-66.6666666666667,4,2,35,76,0,1
122719,-66.6666666666667,4,2,35,76,0,0
122872,-71.4285714285714,4,2,34,76,0,1
123328,-83.3333333333333,4,2,35,76,0,1
127745,-71.4285714285714,4,2,35,76,0,1
128202,-83.3333333333333,4,2,35,76,0,1
130181,-71.4285714285714,4,2,35,76,0,1
130943,-100,4,2,35,76,0,1
132618,-166.666666666667,4,2,35,60,0,0
132770,-166.666666666667,4,2,35,5,0,0
133075,-166.666666666667,4,2,35,35,0,0
133379,-166.666666666667,4,2,35,50,0,0
133684,-166.666666666667,4,2,35,35,0,0
133836,-166.666666666667,4,2,35,60,0,0
133988,-166.666666666667,4,2,35,5,0,0
134293,-166.666666666667,4,2,35,35,0,0
134598,-166.666666666667,4,2,35,50,0,0
134902,-166.666666666667,4,2,35,35,0,0
135054,-166.666666666667,4,2,35,60,0,0
135131,-166.666666666667,4,2,35,5,0,0
135359,-166.666666666667,4,2,35,60,0,0
135435,-166.666666666667,4,2,35,5,0,0
135664,-166.666666666667,4,2,35,60,0,0
135740,-166.666666666667,4,2,35,5,0,0
135968,-166.666666666667,4,2,35,60,0,0
136044,-166.666666666667,4,2,35,5,0,0
136273,-166.666666666667,4,2,35,60,0,0
136349,-166.666666666667,4,2,35,5,0,0
136577,-111.111111111111,4,2,35,60,0,0
137491,-71.4285714285714,4,2,34,72,0,1
137948,-83.3333333333334,4,2,35,72,0,1
140156,-83.3333333333334,4,2,35,32,0,1
140232,-83.3333333333334,4,2,35,72,0,1
141907,-83.3333333333334,4,2,35,72,0,0
142364,-71.4285714285714,4,2,35,72,0,1
142821,-83.3333333333334,4,2,35,72,0,1
144801,-71.4285714285714,4,2,35,72,0,1
146019,-71.4285714285714,4,2,35,74,0,1
146933,-100,4,2,35,72,0,0
147085,-100,4,2,35,70,0,0
147237,-66.6666666666667,4,2,34,74,0,1
147694,-83.3333333333333,4,2,35,74,0,1
151653,-83.3333333333333,4,2,35,74,0,0
152110,-83.3333333333333,4,2,35,74,0,1
154090,-83.3333333333333,4,2,35,74,0,0
154547,-62.5,4,2,35,74,0,1
155765,-62.5,4,2,35,75,0,1
156983,-71.4285714285714,4,2,35,76,0,1
157745,-71.4285714285714,4,2,35,77,0,1
158354,-71.4285714285714,4,2,35,78,0,1
158963,-71.4285714285714,4,2,35,80,0,1
159420,-200,4,2,35,52,0,0
159496,-200,4,2,35,5,0,0
159877,-200,4,2,35,30,0,0
160181,-200,4,2,35,34,0,0
160486,-200,4,2,35,30,0,0
160638,-200,4,2,35,34,0,0
160790,-200,4,2,35,5,0,0
161095,-200,4,2,35,30,0,0
161400,-200,4,2,35,34,0,0
161704,-200,4,2,35,30,0,0
161856,-200,4,2,35,34,0,0
164293,-200,4,2,35,36,0,0
164445,-200,4,2,35,5,0,0
164750,-200,4,2,35,30,0,0
165054,-200,4,2,35,36,0,0
165359,-200,4,2,35,30,0,0
165511,-200,4,2,35,36,0,0
165968,-200,4,2,35,30,0,0
166273,-200,4,2,35,32,0,0
166577,-200,4,2,35,30,0,0
166729,-142.857142857143,4,2,35,38,0,0
167948,-133.333333333333,4,2,35,39,0,0
169166,-125,4,2,35,40,0,0
170384,-125,4,2,35,50,0,0
170993,-125,4,2,35,52,0,0
171603,-125,4,2,35,54,0,0
171907,-111.111111111111,4,2,35,56,0,0
172212,-76.9230769230769,4,2,35,58,0,0
172516,-66.6666666666667,4,2,35,60,0,0
172821,-133.333333333333,4,2,35,40,0,0
173506,-133.333333333333,4,2,35,5,0,0
173582,-133.333333333333,4,2,35,40,0,0
174039,-66.6666666666667,4,2,35,74,0,1
174344,-66.6666666666667,4,2,35,66,0,1
174496,-66.6666666666667,4,2,35,68,0,0
174648,-66.6666666666667,4,2,35,70,0,0
174801,-66.6666666666667,4,2,35,72,0,0
174953,-66.6666666666667,4,2,35,74,0,0
175105,-66.6666666666667,4,2,35,76,0,0
175257,-62.5,4,2,34,78,0,1
175714,-76.9230769230769,4,2,35,78,0,1
177694,-66.6666666666667,4,2,35,78,0,1
178151,-76.9230769230769,4,2,35,78,0,1
180131,-66.6666666666667,4,2,35,78,0,1
182415,-100,4,2,35,78,0,0
182567,-66.6666666666667,4,2,34,78,0,1
183024,-76.9230769230769,4,2,35,78,0,1
187440,-66.6666666666667,4,2,35,78,0,1
187897,-76.9230769230769,4,2,35,78,0,1
189877,-66.6666666666667,4,2,35,78,0,1
191095,-62.5,4,2,35,78,0,1
191400,-62.5,4,2,35,72,0,1
191552,-62.5,4,2,35,74,0,1
191856,-62.5,4,2,35,76,0,1
192161,-62.5,4,2,35,78,0,0
192313,-66.6666666666667,4,2,34,78,0,1
192770,-83.3333333333333,4,2,35,78,0,1
197186,-66.6666666666667,4,2,35,78,0,1
197643,-83.3333333333333,4,2,35,78,0,1
199623,-66.6666666666667,4,2,35,78,0,1
200841,-62.5,4,2,35,78,0,1
201603,-100,4,2,35,78,0,1
201907,-100,4,2,35,78,0,0
202059,-62.5,4,2,34,78,0,1
202516,-76.9230769230769,4,2,35,78,0,1
205181,-76.9230769230769,4,2,35,38,0,1
205257,-76.9230769230769,4,2,35,78,0,1
206933,-62.5,4,2,35,79,0,1
207389,-76.9230769230769,4,2,35,79,0,1
208151,-66.6666666666667,4,2,35,79,0,1
208608,-62.5,4,2,35,79,0,1
209369,-62.5,4,2,35,80,0,1
209826,-76.9230769230769,4,2,35,80,0,1
211349,-83.3333333333333,4,2,35,80,0,1
211653,-83.3333333333333,4,2,35,74,0,1
211806,-166.666666666667,4,2,35,60,0,0
211958,-166.666666666667,4,2,35,5,0,0
212262,-166.666666666667,4,2,35,40,0,0
212567,-166.666666666667,4,2,35,50,0,0
212872,-166.666666666667,4,2,35,35,0,0
213024,-166.666666666667,4,2,35,60,0,0
213176,-166.666666666667,4,2,35,5,0,0
213481,-166.666666666667,4,2,35,40,0,0
213785,-166.666666666667,4,2,35,50,0,0
214090,-166.666666666667,4,2,35,35,0,0
214242,-166.666666666667,4,2,35,60,0,0
214318,-166.666666666667,4,2,35,5,0,0
214547,-166.666666666667,4,2,35,60,0,0
214623,-166.666666666667,4,2,35,5,0,0
214851,-166.666666666667,4,2,35,60,0,0
214927,-166.666666666667,4,2,35,5,0,0
215156,-166.666666666667,4,2,35,60,0,0
215232,-166.666666666667,4,2,35,5,0,0
215460,-166.666666666667,4,2,35,60,0,0
215537,-166.666666666667,4,2,35,5,0,0
215765,-111.111111111111,4,2,35,60,0,0
216526,-166.666666666667,4,2,35,50,0,0
216755,-166.666666666667,4,2,35,5,0,0
216831,-90.9090909090909,4,2,34,68,0,0
217136,-90.9090909090909,4,2,35,68,0,0
226120,-142.857142857143,4,2,35,68,0,0
226729,-142.857142857143,4,2,35,37,0,0
226882,-142.857142857143,4,2,35,38,0,0
227034,-142.857142857143,4,2,35,39,0,0
227186,-142.857142857143,4,2,35,40,0,0
227339,-142.857142857143,4,2,35,41,0,0
227491,-142.857142857143,4,2,35,42,0,0
227643,-166.666666666667,4,2,35,60,0,0
227948,-166.666666666667,4,2,35,40,0,0

[Colours]
Combo1 : 250,190,230
Combo2 : 130,200,230
Combo3 : 255,230,140
Combo4 : 170,245,170

[HitObjects]
419,174,10334,6,2,B|443:186|452:220|452:220|450:156|374:110|295:170,1,227.5,2|0,0:0|0:0,0:1:0:0:
256,206,10790,5,14,0:1:0:0:
256,206,11247,1,0,0:0:0:0:
256,206,11856,1,0,0:0:0:0:
256,206,12466,1,0,0:0:0:0:
9,21,12770,6,0,L|59:29,1,27.2999991668701,8|0,0:0|0:0,0:0:0:0:
128,172,12922,2,0,L|178:180,1,27.2999991668701,8|0,0:1|0:0,0:0:0:0:
47,106,13075,2,0,L|97:114,1,27.2999991668701,8|0,0:0|0:0,0:0:0:0:
0,210,13227,5,12,0:1:0:0:
0,210,13684,1,0,0:0:0:0:
0,210,14293,1,0,0:0:0:0:
0,210,14902,1,0,0:0:0:0:
86,237,15054,1,8,0:1:0:0:
95,289,15131,1,8,0:1:0:0:
67,330,15207,1,8,0:0:0:0:
0,210,15359,1,8,0:1:0:0:
199,238,15664,6,0,L|235:74,1,145.6,14|0,0:1|0:0,0:0:0:0:
138,194,16120,2,0,L|145:122,1,72.8,8|0,0:1|0:0,0:0:0:0:
345,132,16425,1,8,0:0:0:0:
70,115,16577,2,0,B|23:111|23:111|86:77,1,109.2,8|0,0:1|0:0,0:0:0:0:
138,43,16882,6,0,B|286:52,1,145.6,14|0,0:1|0:0,0:0:0:0:
435,61,17339,1,8,0:1:0:0:
435,61,17415,1,8,0:1:0:0:
435,61,17491,1,8,0:1:0:0:
435,61,17567,1,8,0:1:0:0:
435,61,17643,2,0,L|417:124,1,36.4,8|0,0:0|0:0,0:0:0:0:
500,180,17795,2,0,L|482:243,1,36.4,8|0,0:1|0:0,0:0:0:0:
107,377,18100,6,0,P|91:352|146:377,1,163.799995001221,14|0,0:1|0:0,0:0:0:0:
7,263,18557,1,10,3:2:0:0:
3,252,18633,1,0,3:0:0:0:
2,241,18709,1,0,3:0:0:0:
2,232,18785,1,0,3:0:0:0:
15,201,18861,1,8,3:1:0:0:
42,183,18938,1,0,3:0:0:0:
75,180,19014,1,0,3:0:0:0:
103,194,19090,1,0,3:0:0:0:
142,204,19166,1,8,3:2:0:0:
182,196,19242,1,0,3:0:0:0:
210,160,19318,1,0,3:2:0:0:
210,114,19394,1,0,3:0:0:0:
167,79,19471,6,0,P|141:84|89:75,1,45.5,8|0,3:2|3:0,0:1:0:0:
78,51,19623,2,0,P|72:25|107:4,1,45.5,0|0,3:0|3:0,0:1:0:0:
225,1,19775,2,0,P|239:18|224:55,1,45.5,8|0,3:2|3:0,0:1:0:0:
344,48,19927,2,0,P|362:36|360:15,1,45.5,0|0,3:0|3:0,0:1:0:0:
339,141,20080,6,2,B|334:176|334:176|338:200|338:200|331:224|331:224|328:310,1,163.799995001221,2|0,0:0|0:0,0:1:0:0:
39,372,20689,6,0,P|7:322|83:329,1,150.150004582214,14|0,0:1|0:0,0:0:0:0:
141,308,20993,2,0,P|183:259|173:194,1,100.10000305481,8|0,0:0|0:0,0:0:0:0:
329,304,21298,2,0,P|289:262|311:128,1,200.200006109619,8|8,0:1|0:0,0:0:0:0:
396,149,21755,1,2,0:0:0:0:
397,178,21831,1,2,0:0:0:0:
398,207,21907,1,8,0:1:0:0:
509,113,22059,1,0,0:0:0:0:
368,71,22212,1,10,0:0:0:0:
477,186,22364,1,0,0:0:0:0:
443,3,22516,1,10,0:1:0:0:
307,131,22669,1,2,0:1:0:0:
253,28,22821,1,10,0:0:0:0:
39,83,22973,6,0,L|195:78,1,150.150004582214,10|0,0:1|0:0,0:0:0:0:
121,101,23278,2,0,L|7:128,2,100.10000305481,8|10|0,0:1|0:0|0:0,0:0:0:0:
194,349,23735,2,0,P|262:300|401:326,1,200.200006109619,10|8,0:1|0:0,0:0:0:0:
485,379,24191,1,2,0:0:0:0:
455,384,24268,1,2,0:0:0:0:
427,371,24344,1,8,0:1:0:0:
480,282,24496,1,0,0:0:0:0:
333,195,24648,1,8,0:0:0:0:
427,165,24801,1,0,0:0:0:0:
261,73,24953,1,10,0:1:0:0:
471,105,25105,1,10,0:1:0:0:
336,269,25257,1,8,0:0:0:0:
427,165,25410,6,0,P|498:207|480:301,1,150.150004582214,14|0,0:1|0:0,0:0:0:0:
454,201,25714,2,0,P|457:132|487:84,2,100.10000305481,8|10|0,0:1|0:0|0:0,0:0:0:0:
246,255,26171,2,0,P|220:332|80:378,1,200.200006109619,10|8,0:1|0:0,0:0:0:0:
31,330,26628,1,2,0:0:0:0:
27,300,26704,1,2,0:0:0:0:
23,270,26780,1,8,0:1:0:0:
143,283,26933,1,0,0:0:0:0:
93,180,27085,1,10,0:0:0:0:
31,330,27237,1,0,0:0:0:0:
246,255,27389,1,10,0:1:0:0:
71,107,27542,1,2,0:0:0:0:
163,210,27694,1,10,0:0:0:0:
143,283,27846,6,0,B|106:215|159:152|159:152|166:236,1,200.200006109619,14|8,0:1|0:1,0:0:0:0:
316,353,28303,1,10,3:2:0:0:
329,359,28379,1,0,3:0:0:0:
343,361,28455,1,0,3:0:0:0:
358,361,28532,1,0,3:0:0:0:
394,344,28608,1,8,3:1:0:0:
411,308,28684,1,0,3:0:0:0:
399,269,28760,1,0,3:0:0:0:
366,246,28836,1,0,3:0:0:0:
341,202,28912,1,8,3:1:0:0:
345,152,28988,1,0,3:0:0:0:
376,112,29065,1,0,3:2:0:0:
423,97,29141,1,0,3:2:0:0:
469,115,29217,6,0,P|486:121|504:94,1,50.0500015274048,8|0,3:1|3:0,0:1:0:0:
495,70,29369,2,0,P|478:42|440:29,1,50.0500015274048,2|0,3:2|3:0,0:1:0:0:
371,26,29521,2,0,P|348:42|315:29,1,50.0500015274048,8|0,3:2|3:0,0:1:0:0:
229,41,29674,2,0,P|213:34|232:10,1,50.0500015274048,2|0,3:2|3:0,0:1:0:0:
259,130,29826,2,0,P|273:162|264:203,1,50.0500015274048,8|0,3:1|3:0,0:1:0:0:
267,261,29978,2,0,P|252:300|221:320,1,50.0500015274048,2|0,3:2|3:0,0:1:0:0:
167,334,30131,2,0,B|129:323|129:323|102:328|102:328|71:320|71:320|12:326,1,150.150004582214,8|0,3:2|0:0,0:1:0:0:
9,311,30435,6,0,P|14:257|99:260,2,145.6,14|10|2,0:1|0:0|0:0,0:0:0:0:
184,216,31197,1,0,0:0:0:0:
123,136,31349,2,0,P|140:77|99:-2,1,145.6,10|0,0:0|0:0,0:0:0:0:
499,124,31958,2,0,B|417:114|430:222|516:194,1,145.6,10|2,0:0|0:0,0:0:0:0:
345,122,32415,1,8,0:1:0:0:
424,63,32567,2,0,L|462:-3,1,72.8,10|8,0:0|0:1,0:0:0:0:
374,303,33024,5,8,0:1:0:0:
294,255,33176,2,0,L|136:266,1,145.6,10|2,0:0|0:0,0:0:0:0:
192,344,33633,2,0,P|231:349|254:380,1,72.8,0|8,0:0|0:0,0:0:0:0:
374,303,33938,2,0,P|387:264|427:249,1,72.8,0|2,0:0|0:0,0:0:0:0:
316,93,34242,2,0,P|286:109|235:98,1,72.8,0|8,0:0|0:0,0:0:0:0:
147,57,34547,2,0,P|129:32|165:22,1,72.8,0|2,0:0|0:0,0:0:0:0:
173,162,34851,1,8,0:1:0:0:
316,93,35004,2,0,P|274:112|193:69,1,109.2,10|0,0:0|0:0,0:0:0:0:
147,57,35308,6,0,P|129:32|165:22,1,72.8,8|0,0:1|0:0,0:0:0:0:
173,162,35613,2,0,L|146:308,1,145.6,10|2,0:0|0:0,0:0:0:0:
8,17,36222,1,10,0:0:0:0:
179,380,36526,1,0,0:0:0:0:
128,307,36831,2,0,L|131:158,1,145.6,10|2,0:0|0:0,0:0:0:0:
43,246,37288,2,0,L|58:328,1,72.8,8|10,0:1|0:0,0:0:0:0:
258,344,37592,6,0,P|264:300|359:267,1,145.6,8|10,0:1|0:1,0:0:0:0:
426,321,38049,2,0,P|386:354|372:319,1,72.8,10|0,0:0|0:0,0:0:0:0:
457,207,38354,2,0,P|461:171|417:166,1,72.8,2|0,0:0|0:0,0:0:0:0:
197,175,38658,2,0,P|190:147|222:113,1,72.8,10|0,0:0|0:0,0:0:0:0:
315,175,38963,5,2,0:3:0:0:
161,71,39115,1,2,0:3:0:0:
351,71,39268,1,2,0:3:0:0:
197,175,39420,1,2,0:3:0:0:
197,175,39496,1,2,0:3:0:0:
197,175,39572,1,2,0:3:0:0:
256,0,39724,1,2,0:3:0:0:
351,71,39877,2,0,P|280:93|231:120,1,109.2,2|0,0:3|0:0,0:0:0:0:
197,175,40181,6,0,P|252:235|305:305,1,136.5,14|0,0:1|0:0,0:0:0:0:
263,355,40486,2,0,P|214:362|215:302,1,91,10|8,0:0|0:1,0:0:0:0:
407,278,40790,1,10,0:1:0:0:
410,250,40867,1,8,0:1:0:0:
413,222,40943,1,8,0:1:0:0:
197,175,41095,2,0,L|197:72,2,91,10|8|8,0:0|0:1|0:1,0:0:0:0:
276,213,41552,1,10,0:1:0:0:
99,252,41704,2,0,B|61:276|61:276|40:229,1,91,8|8,0:0|0:1,0:0:0:0:
61,104,42009,1,10,0:1:0:0:
61,76,42085,1,8,0:1:0:0:
61,48,42161,1,8,0:1:0:0:
312,117,42313,2,0,L|315:15,1,91,10|8,0:0|0:1,0:0:0:0:
154,372,42770,5,10,0:1:0:0:
262,315,42922,2,0,P|290:274|248:211,1,91,8|8,0:0|0:1,0:0:0:0:
400,317,43227,1,10,0:1:0:0:
401,289,43303,1,8,0:1:0:0:
402,261,43379,1,8,0:1:0:0:
262,315,43532,2,0,P|295:261|237:181,1,136.5,10|0,0:0|0:0,0:0:0:0:
194,173,43836,2,0,P|165:217|198:228,1,91,10|8,0:1|0:1,0:0:0:0:
309,20,44141,2,0,P|265:37|223:91,1,91,10|8,0:0|0:1,0:0:0:0:
399,78,44445,1,10,0:1:0:0:
163,22,44598,1,8,0:1:0:0:
332,119,44750,1,10,0:0:0:0:
234,67,44902,6,0,P|282:24|433:9,1,182,12|10,0:1|0:1,0:0:0:0:
163,22,45359,2,0,P|123:1|131:46,1,91,8|8,0:0|0:1,0:0:0:0:
290,195,45664,2,0,P|303:178|325:223,1,91,2|8,0:0|0:1,0:0:0:0:
224,338,45968,1,10,0:0:0:0:
132,302,46120,2,0,B|87:255|10:278|10:278|76:304,1,182,2|10,0:0|0:1,0:0:0:0:
224,338,46577,1,8,0:2:0:0:
251,337,46653,1,8,0:1:0:0:
278,337,46729,1,8,0:1:0:0:
132,302,46882,2,0,P|74:335|59:371,1,91,2|8,0:0|0:1,0:0:0:0:
157,217,47186,1,8,0:0:0:0:
332,273,47339,6,0,B|314:138|435:242|415:69,1,200.200006109619,10|8,0:1|0:1,0:0:0:0:
422,271,47795,2,0,P|442:303|439:262,1,100.10000305481,10|0,0:0|0:0,0:0:0:0:
329,119,48100,2,0,P|301:75|318:14,1,100.10000305481,10|10,0:1|0:1,0:0:0:0:
486,2,48405,1,10,0:0:0:0:
486,2,48557,1,14,0:1:0:0:
23,374,48861,1,8,0:1:0:0:
158,354,49014,2,0,L|175:262,1,54.5999983337403,8|0,0:0|0:0,0:0:0:0:
185,210,49166,2,0,L|175:263,1,54.5999983337403,8|0,0:1|0:1,0:0:0:0:
354,354,49318,2,0,L|337:262,1,54.5999983337403,10|0,0:0|0:0,0:0:0:0:
327,210,49471,2,0,L|337:263,1,54.5999983337403,8|0,0:1|0:0,0:0:0:0:
256,306,49775,6,0,L|81:286,2,145.6,14|8|8,0:1|0:1|0:0,0:0:0:0:
256,45,50537,1,2,0:0:0:0:
365,34,50689,2,0,L|454:24,1,72.8,8|8,0:1|0:0,0:0:0:0:
271,142,50993,2,0,L|155:143,1,109.2,10|0,0:1|0:0,0:0:0:0:
103,142,51298,2,0,B|70:163|70:163|75:101,1,72.8,8|2,0:1|0:0,0:0:0:0:
256,45,51603,1,8,0:0:0:0:
365,34,51755,1,2,0:0:0:0:
409,142,51907,2,0,B|442:163|442:163|437:101,1,72.8,8|10,0:1|0:0,0:0:0:0:
350,249,52212,2,0,B|366:338|366:338|449:380,1,182,14|8,0:1|0:1,0:0:0:0:
483,290,52669,6,0,P|486:268|445:288,1,91,10|8,0:0|0:1,0:0:0:0:
289,331,52973,1,10,0:1:0:0:
261,331,53049,1,8,0:1:0:0:
233,331,53125,1,8,0:1:0:0:
93,235,53278,2,0,L|-20:244,1,91,10|8,0:0|0:1,0:0:0:0:
263,152,53582,2,0,L|150:161,1,91,10|8,0:1|0:1,0:0:0:0:
434,73,53887,2,0,L|321:82,1,91,10|8,0:0|0:1,0:0:0:0:
41,24,54191,1,10,0:0:0:0:
333,191,54344,1,8,0:1:0:0:
65,341,54648,6,0,P|54:317|140:291,1,145.6,14|8,0:1|0:1,0:0:0:0:
367,352,55105,2,0,L|374:278,1,72.8,8|0,0:0|0:0,0:0:0:0:
274,367,55410,1,2,0:0:0:0:
459,340,55562,2,0,L|466:266,1,72.8,8|8,0:1|0:0,0:0:0:0:
306,193,55867,2,0,L|288:54,1,109.2,10|0,0:1|0:0,0:0:0:0:
287,53,56171,2,0,B|245:46|245:46|270:68,2,72.8,8|10|0,0:1|0:0|0:0,0:0:0:0:
415,79,56628,1,2,0:0:0:0:
427,193,56780,2,0,L|521:193,1,72.8,8|8,0:1|0:0,0:0:0:0:
308,228,57085,6,0,L|180:228,1,109.2,14|0,0:1|0:0,0:0:0:0:
154,228,57389,1,0,0:0:0:0:
78,302,57542,6,0,P|69:341|44:320,1,72.8,2|0,3:0|0:0,0:0:0:0:
56,111,57846,6,0,P|88:121|66:149,1,63.6999980560303,2|0,3:0|0:0,0:0:0:0:
154,228,58151,1,2,3:3:0:0:
0,35,58303,5,14,0:1:0:0:
255,316,58608,1,14,0:1:0:0:
512,35,58912,2,0,L|486:40,3,18.2,10|0|0|0,0:1|0:0|0:0|0:0,0:0:0:0:
446,77,59065,2,0,L|420:82,3,18.2,10|0|0|0,0:0|0:0|0:0|0:0,0:0:0:0:
384,122,59217,2,0,L|358:127,3,18.2,10|0|0|0,0:0|0:0|0:0|0:0,0:0:0:0:
213,246,59521,6,0,B|196:140|378:179|229:346,1,236.599989169312,14|8,0:1|0:1,0:0:0:0:
194,218,59978,2,0,P|208:164|277:119,1,100.10000305481,10|0,0:0|0:0,0:0:0:0:
333,340,60283,1,10,0:1:0:0:
129,277,60435,2,0,L|15:248,1,100.10000305481,2|8,0:2|0:0,0:0:0:0:
271,118,60740,2,0,L|493:108,1,200.200006109619,2|0,0:0|0:0,0:0:0:0:
349,166,61197,2,0,P|283:140|267:104,1,100.10000305481,10|2,0:0|0:0,0:0:0:0:
492,29,61501,1,10,0:1:0:0:
426,196,61653,2,0,P|459:242|429:307,1,100.10000305481,10|8,0:1|0:0,0:0:0:0:
167,130,61958,6,0,B|151:47|221:10|221:10|213:96,1,200.200006109619,10|8,0:1|0:1,0:0:0:0:
38,53,62415,2,0,L|22:184,1,100.10000305481,10|2,0:0|0:0,0:0:0:0:
255,297,62719,1,10,0:1:0:0:
338,241,62872,1,2,0:0:0:0:
342,211,62948,1,2,0:0:0:0:
347,181,63024,1,10,0:0:0:0:
440,298,63176,2,0,B|434:355|434:355|504:318|488:235,1,200.200006109619,2|0,0:0|0:0,0:0:0:0:
255,297,63633,2,0,L|252:175,1,100.10000305481,10|2,0:0|0:1,0:0:0:0:
28,266,63938,2,0,P|3:235|3:196,1,50.0500015274048,8|0,0:0|0:0,0:0:0:0:
153,144,64090,2,0,P|173:113|165:76,1,50.0500015274048,10|0,0:1|0:1,0:0:0:0:
89,207,64242,2,0,P|112:233|143:219,1,50.0500015274048,8|0,0:0|0:0,0:0:0:0:
28,266,64394,6,0,B|29:199|82:180|82:180|122:201|167:180|167:180|150:162|154:132,1,236.599989169312,14|8,0:1|0:1,0:0:0:0:
340,103,64851,2,0,P|374:54|320:22,1,100.10000305481,10|2,0:0|0:0,0:0:0:0:
353,112,65156,2,0,P|388:69|280:51,1,200.200006109619,10|8,0:1|0:0,0:0:0:0:
254,209,65613,2,0,B|235:218|214:222|214:222|240:247|288:265|288:265|282:297|300:344,2,200.200006109619,2|0|0,0:0|0:0|0:1,0:0:0:0:
391,301,66374,1,10,0:1:0:0:
475,277,66526,1,8,0:1:0:0:
483,306,66603,1,8,0:1:0:0:
491,334,66679,1,8,0:0:0:0:
500,137,66831,6,0,B|477:189|477:189|423:100|481:11,1,236.599989169312,14|8,0:1|0:1,0:0:0:0:
277,49,67288,2,0,L|194:64,1,59.149997292328,10|0,0:0|0:0,0:0:0:0:
339,120,67440,2,0,L|306:58,1,59.149997292328,10|0,0:1|0:0,0:0:0:0:
203,182,67592,2,0,L|263:204,1,59.149997292328,10|0,0:0|0:0,0:0:0:0:
190,85,67745,2,0,L|184:160,1,59.149997292328,10|0,0:1|0:0,0:0:0:0:
299,194,67897,2,0,L|343:140,1,59.149997292328,10|0,0:0|0:0,0:0:0:0:
277,49,68049,6,0,B|255:27|222:21|222:21|283:95|257:209,1,254.799992224121,14|8,0:1|0:1,0:0:0:0:
8,204,68506,2,0,B|18:184|36:176|36:176|21:233|57:305,1,127.399996112061,8|8,0:0|0:1,0:0:0:0:
195,376,68811,1,8,0:3:0:0:
223,340,68887,1,8,0:3:0:0:
214,295,68963,1,4,0:3:0:0:
487,265,69115,1,8,0:0:0:0:
343,303,69268,6,0,B|347:233|418:195|418:195|458:261|538:288,1,236.599989169312,14|8,0:1|0:1,0:0:0:0:
316,315,69724,2,0,P|303:247|248:193,1,100.10000305481,10|0,0:0|0:0,0:0:0:0:
438,332,70029,1,10,0:1:0:0:
481,133,70181,2,0,P|478:83|493:35,1,100.10000305481,2|10,0:0|0:2,0:0:0:0:
297,132,70486,2,0,P|277:78|145:12,1,200.200006109619,2|0,0:0|0:0,0:0:0:0:
377,104,70943,2,0,P|381:64|412:4,1,100.10000305481,10|2,0:0|0:0,0:0:0:0:
195,178,71247,1,10,0:1:0:0:
66,113,71400,2,0,P|60:50|1:8,1,100.10000305481,10|8,0:1|0:0,0:0:0:0:
31,297,71704,6,0,B|17:356|17:356|-16:291|23:222,1,200.200006109619,10|8,0:1|0:1,0:0:0:0:
239,279,72161,2,0,B|189:356|329:358|264:271,1,150.150004582214,10|0,0:0|0:0,0:0:0:0:
239,279,72466,2,0,P|254:350|262:277,1,200.200006109619,10|8,0:1|0:0,0:0:0:0:
156,358,72922,2,0,P|228:334|359:366,1,200.200006109619,2|0,0:0|0:0,0:0:0:0:
492,334,73379,2,0,L|484:216,1,100.10000305481,10|8,0:0|0:1,0:0:0:0:
220,78,73684,2,0,P|253:106|266:81,1,50.0500015274048,8|0,0:0|0:0,0:0:0:0:
419,93,73836,2,0,P|440:62|476:84,1,50.0500015274048,8|0,0:1|0:1,0:0:0:0:
302,51,73988,2,0,P|310:24|353:40,1,50.0500015274048,8|0,0:0|0:0,0:0:0:0:
220,78,74141,6,0,B|273:89|305:67|305:67|340:90|357:124|357:124|390:100|424:92,1,236.599989169312,14|8,0:1|0:1,0:0:0:0:
158,139,74598,2,0,B|118:150|118:150|150:73,1,100.10000305481,10|0,0:0|0:0,0:0:0:0:
357,212,74902,2,0,B|386:245|386:245|389:342,1,100.10000305481,10|0,0:1|0:0,0:0:0:0:
137,369,75207,1,8,0:0:0:0:
234,306,75359,2,0,B|275:342|275:342|277:269|187:221,1,200.200006109619,2|0,0:0|0:0,0:0:0:0:
421,76,75816,2,0,P|483:80|521:48,1,100.10000305481,10|0,0:0|0:0,0:0:0:0:
256,69,76120,1,10,0:1:0:0:
159,43,76273,1,8,0:1:0:0:
165,82,76349,1,8,0:1:0:0:
171,121,76425,1,8,0:0:0:0:
331,146,76577,6,0,B|326:210|326:210|279:255|269:330|269:330|309:295,1,236.599989169312,14|8,0:1|0:1,0:0:0:0:
423,324,77034,2,0,B|442:284|442:284|397:270|383:326,1,118.299994584656,10|0,3:2|3:0,0:0:0:0:
154,335,77339,2,0,L|133:284,3,45.5,10|0|0|0,3:1|3:1|3:1|3:1,0:0:0:0:
65,268,77643,2,0,L|12:264,1,45.5,8|0,3:2|0:0,0:0:0:0:
182,221,77795,2,0,L|227:224,1,45.5,2|0,3:1|3:0,0:0:0:0:
77,133,77948,5,8,3:2:0:0:
45,115,78024,1,0,3:0:0:0:
33,80,78100,1,0,3:0:0:0:
42,44,78176,1,0,3:0:0:0:
69,20,78252,1,8,3:2:0:0:
105,16,78328,1,0,3:0:0:0:
137,32,78405,1,0,3:0:0:0:
153,64,78481,1,0,3:0:0:0:
153,100,78557,2,0,P|132:128|100:137,1,45.5,8|0,3:2|3:0,0:1:0:0:
326,136,78709,2,0,P|339:165|381:189,1,45.5,0|0,3:0|3:0,0:1:0:0:
268,17,78861,2,0,P|256:45|275:79,1,45.5,8|0,3:2|3:2,0:0:0:0:
426,109,79014,6,0,B|455:93|466:54|466:54|509:100|484:164,1,163.799995001221,14|0,0:1|0:0,0:0:0:0:
258,269,79775,2,0,L|241:378,1,109.199996667481
86,275,80232,6,0,B|57:291|46:330|46:330|3:284|28:220,1,163.799995001221,14|0,0:1|0:0,0:0:0:0:
254,115,80993,2,0,L|271:6,1,109.199996667481,0|0,0:0|0:0,0:0:0:0:
53,24,81450,6,0,L|54:63,1,27.2999991668701,14|0,0:1|0:0,0:0:0:0:
459,24,81755,2,0,L|458:63,1,27.2999991668701,14|0,0:1|0:0,0:0:0:0:
110,118,82059,2,0,L|107:153,1,27.2999991668701,14|0,0:1|0:0,0:0:0:0:
402,118,82364,2,0,L|405:153,1,27.2999991668701,14|0,0:1|0:0,0:0:0:0:
166,221,82669,2,0,L|158:257,1,27.2999991668701,14|0,0:1|0:0,0:0:0:0:
346,221,82973,5,10,0:1:0:0:
347,253,83049,1,10,0:1:0:0:
349,285,83125,1,10,0:0:0:0:
138,137,83278,1,8,0:1:0:0:
374,137,83430,1,10,0:2:0:0:
257,238,83582,1,8,0:1:0:0:
160,247,83735,6,2,B|161:280|161:280|165:288|165:288|163:298|163:298|165:350,1,81.8999975006104,2|0,0:0|0:0,0:1:0:0:
122,384,84039,6,0,P|71:375|54:288,1,127.399996112061,14|0,0:1|0:0,0:0:0:0:
390,0,84648,2,0,P|441:9|458:96,2,127.399996112061,8|0|0,0:0|0:0|0:0,0:0:0:0:
81,73,85562,2,0,P|54:104|79:113,1,63.6999980560303,2|8,0:0|0:1,0:0:0:0:
195,129,85867,2,0,L|187:-1,1,127.399996112061,8|8,0:0|0:1,0:0:0:0:
317,255,86476,6,0,L|325:385,2,127.399996112061,10|0|8,0:1|0:0|0:0,0:0:0:0:
434,237,87237,2,0,P|453:242|437:289,1,63.6999980560303,8|0,0:1|0:0,0:0:0:0:
488,160,87542,2,0,P|484:222|447:291,1,127.399996112061,8|8,0:1|0:0,0:0:0:0:
310,82,87999,2,0,L|233:84,1,63.6999980560303,2|8,0:0|0:1,0:0:0:0:
255,197,88303,2,0,L|178:199,1,63.6999980560303,8|8,0:0|0:0,0:0:0:0:
206,312,88608,2,0,L|62:315,1,127.399996112061,8|14,0:1|0:1,0:0:0:0:
473,377,89217,6,0,P|501:344|466:322,1,70.9800023827516,2|8,0:0|0:1,0:0:0:0:
395,326,89521,2,0,B|400:254|400:254|424:225|450:187,1,141.960004765503,8|0,0:0|0:0,0:0:0:0:
117,58,90131,2,0,B|112:130|112:130|88:159|62:197,2,141.960004765503,0|0|8,0:0|0:0|0:0,0:0:0:0:
43,27,90892,2,0,B|6:24|6:24|33:55,1,70.9800023827516,8|8,0:0|0:1,0:0:0:0:
397,30,91349,2,0,B|446:25|446:25|454:32|454:32|467:31|467:31|506:110,1,141.960004765503,10|0,0:1|0:0,0:0:0:0:
115,354,91958,2,0,B|66:359|66:359|58:352|58:352|45:353|45:353|6:274,1,141.960004765503,8|0,0:0|0:0,0:0:0:0:
168,291,92415,1,8,0:1:0:0:
291,244,92567,6,0,L|272:321,1,70.9800023827516,10|8,0:0|0:1,0:0:0:0:
227,132,92872,2,0,L|236:211,1,70.9800023827516,2|8,0:0|0:1,0:0:0:0:
283,17,93176,2,0,L|277:100,1,70.9800023827516,10|8,0:0|0:1,0:0:0:0:
454,87,93481,2,0,P|468:88|487:69,3,35.4900011913758,2|0|0|0,0:0|0:0|0:0|0:0,0:0:0:0:
408,26,93785,6,0,P|430:108|448:195,1,136.5,14|0,0:1|0:0,0:0:0:0:
450,237,94090,2,0,B|439:284|439:284|477:255,1,91,10|8,0:0|0:1,0:0:0:0:
280,239,94394,1,10,0:1:0:0:
278,202,94471,1,8,0:1:0:0:
276,165,94547,1,8,0:1:0:0:
133,260,94699,2,0,P|104:282|101:240,2,91,10|8|8,0:0|0:1|0:1,0:0:0:0:
12,300,95156,1,10,0:1:0:0:
140,174,95308,2,0,P|159:151|148:75,1,91,8|8,0:0|0:1,0:0:0:0:
30,115,95613,1,10,0:1:0:0:
24,79,95689,1,8,0:1:0:0:
19,43,95765,1,8,0:1:0:0:
246,89,95917,2,0,P|240:29|196:8,1,91,10|8,0:0|0:1,0:0:0:0:
345,370,96374,5,10,0:1:0:0:
423,300,96526,2,0,P|470:267|517:291,1,91,8|8,0:0|0:1,0:0:0:0:
361,225,96831,1,10,0:1:0:0:
364,188,96907,1,8,0:1:0:0:
367,151,96983,1,8,0:1:0:0:
269,280,97136,2,0,P|235:324|126:331,1,136.5,10|0,0:0|0:0,0:0:0:0:
90,304,97440,2,0,P|61:281|-3:284,1,91,10|8,0:1|0:1,0:0:0:0:
217,204,97745,2,0,P|255:182|312:195,1,91,10|8,0:0|0:1,0:0:0:0:
104,102,98049,1,10,0:1:0:0:
101,65,98125,1,8,0:1:0:0:
98,28,98202,1,8,0:1:0:0:
126,199,98354,1,10,0:0:0:0:
282,59,98506,6,0,B|274:13|274:13|344:39|372:133,1,182,12|10,0:1|0:1,0:0:0:0:
506,97,98963,2,0,L|507:3,1,91,8|8,0:0|0:1,0:0:0:0:
427,229,99268,2,0,P|414:247|406:200,1,91,2|8,0:0|0:1,0:0:0:0:
504,318,99572,1,10,0:0:0:0:
382,209,99724,2,0,P|443:223|503:347,1,182,2|10,0:0|0:1,0:0:0:0:
337,295,100181,1,8,0:0:0:0:
301,300,100257,1,8,0:1:0:0:
264,305,100334,1,8,0:1:0:0:
389,362,100486,1,2,0:0:0:0:
257,218,100638,2,0,B|277:178|277:178|228:188,1,91,8|8,0:1|0:0,0:0:0:0:
97,253,100943,6,0,B|72:271|72:271|105:137|105:137|83:162,1,200.200006109619,10|8,0:1|0:1,0:0:0:0:
181,306,101400,2,0,L|81:242,1,100.10000305481,10|0,0:0|0:0,0:0:0:0:
0,107,101704,2,0,L|100:171,1,100.10000305481,10|10,0:1|0:1,0:0:0:0:
19,335,102009,1,10,0:0:0:0:
19,335,102161,1,14,0:1:0:0:
487,51,102466,1,8,0:1:0:0:
328,24,102618,2,0,P|354:48|339:108,1,54.5999983337403,8|0,0:0|0:0,0:0:0:0:
234,161,102770,2,0,P|207:143|239:111,1,54.5999983337403,8|0,0:1|0:1,0:0:0:0:
339,173,102922,2,0,P|362:202|368:243,1,54.5999983337403,10|0,0:0|0:0,0:0:0:0:
353,307,103075,2,0,P|336:331|274:357,1,54.5999983337403,8|0,0:1|0:0,0:0:0:0:
290,255,103379,6,0,L|453:272,2,145.6,14|8|8,0:1|0:1|0:0,0:0:0:0:
16,53,104141,1,2,0:0:0:0:
105,34,104293,2,0,L|95:118,1,72.8,8|8,0:1|0:0,0:0:0:0:
385,148,104598,2,0,L|371:19,1,109.2,10|0,0:1|0:0,0:0:0:0:
426,10,104902,2,0,P|466:19|448:63,1,72.8,8|2,0:1|0:0,0:0:0:0:
188,102,105207,1,8,0:0:0:0:
258,277,105359,1,2,0:0:0:0:
166,242,105511,2,0,P|132:266|154:286,1,72.8,8|10,0:1|0:0,0:0:0:0:
386,357,105816,6,0,P|410:313|311:235,1,182,14|8,0:1|0:1,0:0:0:0:
258,277,106273,2,0,L|271:171,1,91,10|8,0:0|0:1,0:0:0:0:
106,339,106577,1,10,0:1:0:0:
69,341,106653,1,8,0:1:0:0:
32,343,106729,1,8,0:1:0:0:
14,142,106882,2,0,P|45:128|54:187,1,91,10|8,0:0|0:1,0:0:0:0:
269,186,107186,2,0,P|218:167|256:152,1,91,10|8,0:1|0:1,0:0:0:0:
442,169,107491,2,0,P|457:130|498:142,1,91,10|8,0:0|0:1,0:0:0:0:
264,83,107795,1,10,0:0:0:0:
512,271,107948,1,8,0:1:0:0:
17,42,108252,6,0,B|115:46|157:142|185:344|-60:295|-54:88|94:51|145:158|211:208|130:288,1,509.6,14|0,0:1|0:0,0:0:0:0:
65,309,109471,2,0,B|37:310|12:316|12:316|74:316|146:362,1,163.799995001221,14|0,0:1|0:0,0:0:0:0:
234,331,109927,2,0,L|248:280,2,40.9499987503052
361,378,110232,2,0,L|388:278,1,81.8999975006104,0|0,0:0|0:0,0:0:0:0:
497,373,110537,1,2,0:0:0:0:
414,190,110689,6,0,P|421:144|485:166,1,109.2,14|0,0:1|0:0,0:0:0:0:
512,198,110993,1,0,0:0:0:0:
303,118,111146,2,0,L|298:23,1,72.8,2|0,3:0|0:0,0:0:0:0:
230,267,111450,2,0,L|235:347,1,63.6999980560303,2|0,3:3|0:0,0:0:0:0:
93,169,111755,1,2,0:3:0:0:
419,215,111907,5,14,0:1:0:0:
16,229,112212,1,14,0:1:0:0:
496,155,112516,2,0,L|468:161,3,18.2,10|0|0|0,0:1|0:0|0:0|0:0,0:0:0:0:
420,130,112669,2,0,L|392:136,3,18.2,10|0|0|0,0:0|0:0|0:0|0:0,0:0:0:0:
344,110,112821,2,0,L|316:116,3,18.2,10|0|0|0,0:0|0:0|0:0|0:0,0:0:0:0:
206,302,113125,6,0,B|188:370|188:370|292:290|292:290|313:200,1,254.799992224121,14|8,0:1|0:1,0:0:0:0:
80,264,113582,2,0,B|28:284|28:284|80:294,1,109.199996667481,10|0,0:0|0:0,0:0:0:0:
302,380,113887,1,10,0:1:0:0:
439,326,114039,2,0,L|462:210,1,109.199996667481,2|8,0:1|0:0,0:0:0:0:
216,168,114344,2,0,B|181:181|181:181|202:78|202:78|134:17,1,218.399993334961,2|0,0:0|0:0,0:0:0:0:
273,118,114801,2,0,B|279:81|279:81|357:150|357:150|430:127,1,218.399993334961,10|10,0:0|0:1,0:0:0:0:
289,196,115257,2,0,B|272:328,1,109.199996667481,10|8,0:1|0:0,0:0:0:0:
42,97,115562,6,0,B|-3:106|-3:106|50:40|148:26,1,218.399993334961,10|8,0:1|0:1,0:0:0:0:
420,40,116019,2,0,P|418:25|402:59,1,109.199996667481,10|2,0:0|0:0,0:0:0:0:
470,287,116323,1,10,0:1:0:0:
495,132,116476,1,2,0:0:0:0:
451,127,116552,1,2,0:0:0:0:
424,161,116628,1,8,0:0:0:0:
470,287,116780,6,0,B|515:278|515:278|462:344|364:358,1,218.399993334961,2|0,0:0|0:0,0:0:0:0:
201,306,117237,2,0,P|182:280|201:269,1,54.5999983337403,10|0,0:2|0:0,0:0:0:0:
237,258,117389,2,0,P|269:271|288:322,1,54.5999983337403,2|0,0:1|0:0,0:0:0:0:
103,250,117542,2,0,P|80:249|44:209,1,54.5999983337403,8|0,0:0|0:0,0:0:0:0:
214,141,117694,2,0,P|236:104|214:93,1,54.5999983337403,10|0,0:1|0:1,0:0:0:0:
116,25,117846,2,0,P|117:67|150:90,1,54.5999983337403,8|0,0:0|0:0,0:0:0:0:
103,250,117999,6,0,B|125:179|192:157|192:157|157:128|161:85|161:85|142:71|112:78,1,254.799992224121,14|8,0:1|0:1,0:0:0:0:
435,102,118455,2,0,B|410:51|410:51|484:57,1,109.199996667481,10|2,0:0|0:0,0:0:0:0:
435,102,118760,2,0,B|376:100|376:100|436:10|436:10|465:60,1,218.399993334961,10|8,0:1|0:0,0:0:0:0:
362,267,119217,2,0,B|432:279|497:332|497:332|455:267,1,218.399993334961,2|0,0:0|0:0,0:0:0:0:
274,290,119674,2,0,B|248:325|212:341|212:341|226:284,1,109.199996667481,8|0,0:0|0:0,0:0:0:0:
348,373,119978,1,10,0:1:0:0:
227,196,120131,1,8,0:1:0:0:
252,160,120207,1,8,0:1:0:0:
293,147,120283,1,8,0:0:0:0:
112,255,120435,6,0,P|49:277|110:206,1,254.799992224121,14|8,0:1|0:1,0:0:0:0:
227,196,120892,2,0,P|239:162|216:98,1,63.6999980560303,10|0,0:0|0:0,0:0:0:0:
161,68,121044,2,0,P|192:75|225:116,1,63.6999980560303,10|0,0:1|0:0,0:0:0:0:
361,65,121197,2,0,P|390:44|434:39,1,63.6999980560303,10|0,0:0|0:0,0:0:0:0:
454,43,121349,2,0,P|482:59|506:91,1,63.6999980560303,10|0,0:1|0:0,0:0:0:0:
343,107,121501,2,0,P|344:148|379:189,1,68.250002603531,10|0,0:0|0:0,0:0:0:0:
481,153,121653,6,0,P|473:86|395:175,1,273.000010414124,14|8,0:1|0:1,0:0:0:0:
221,348,122110,2,0,B|214:297|170:275|170:275|188:336,1,136.500005207062,8|8,0:0|0:1,0:0:0:0:
265,233,122415,1,8,2:3:0:0:
245,182,122491,1,8,2:3:0:0:
271,134,122567,1,4,2:3:0:0:
435,323,122719,1,8,2:2:0:0:
265,233,122872,6,0,B|169:253|79:104|277:74|240:222|106:223,1,254.799992224121,14|8,0:1|0:1,0:0:0:0:
4,230,123328,2,0,L|10:105,1,109.199996667481,10|0,0:0|0:0,0:0:0:0:
254,42,123633,1,10,0:1:0:0:
390,74,123785,2,0,B|435:64|435:64|406:25|336:40,1,109.199996667481,2|10,0:0|0:0,0:0:0:0:
473,176,124090,2,0,P|489:107|344:54,1,218.399993334961,2|0,0:0|0:0,0:0:0:0:
445,247,124547,2,0,P|438:185|491:186,1,109.199996667481,10|0,0:0|0:0,0:0:0:0:
501,369,124851,1,10,0:1:0:0:
314,272,125004,2,0,B|298:323|298:323|260:268,1,109.199996667481,10|8,0:1|0:0,0:0:0:0:
15,141,125308,6,0,B|29:79|29:79|85:134|62:269,1,218.399993334961,10|8,0:1|0:1,0:0:0:0:
269,97,125765,2,0,P|304:53|228:68,1,163.799995001221,10|0,0:0|0:0,0:0:0:0:
269,97,126070,2,0,P|305:69|223:72,1,218.399993334961,10|8,0:1|0:0,0:0:0:0:
380,95,126526,2,0,P|306:93|152:134,1,218.399993334961,2|0,0:0|0:0,0:0:0:0:
459,56,126983,2,0,B|488:85|527:91|527:91|498:33,1,109.199996667481,10|8,0:0|0:1,0:0:0:0:
394,199,127288,2,0,P|365:238|387:275,1,54.5999983337403,8|0,0:0|0:0,0:0:0:0:
501,330,127440,2,0,P|486:304|454:293,1,54.5999983337403,8|0,0:1|0:1,0:0:0:0:
307,335,127592,2,0,P|280:349|237:318,1,54.5999983337403,8|0,0:0|0:0,0:0:0:0:
394,199,127745,6,0,B|433:240|430:298|430:298|388:312|363:352|363:352|339:337|303:335,1,254.799992224121,14|8,0:1|0:1,0:0:0:0:
75,311,128202,2,0,B|20:325|20:325|57:375,1,109.199996667481,10|0,0:0|0:0,0:0:0:0:
201,348,128506,2,0,L|215:223,1,109.199996667481,10|0,0:1|0:0,0:0:0:0:
13,82,128811,1,8,0:0:0:0:
292,77,128963,2,0,B|323:22|323:22|238:19|181:73,1,218.399993334961,2|0,0:0|0:3,0:0:0:0:
390,94,129420,2,0,B|439:124|439:124|434:65,1,109.199996667481,10|0,0:0|0:0,0:0:0:0:
243,161,129724,1,10,0:1:0:0:
391,236,129877,1,8,0:1:0:0:
395,268,129953,1,8,0:1:0:0:
400,300,130029,1,8,0:2:0:0:
220,379,130181,6,0,B|123:350|86:233|253:183|230:353,1,254.799992224121,14|8,0:1|0:1,0:0:0:0:
75,376,130638,2,0,P|42:338|8:233,1,127.399996112061,10|0,3:2|3:0,0:0:0:0:
145,89,130943,2,0,P|166:65|141:60,3,45.5,10|0|0|0,3:1|3:1|3:1|3:1,0:0:0:0:
92,35,131247,2,0,L|63:92,1,45.5,8|0,3:2|0:0,0:0:0:0:
151,176,131400,2,0,L|122:233,1,45.5,0|0,3:1|3:0,0:0:0:0:
286,178,131552,5,8,3:2:0:0:
322,179,131628,1,0,3:0:0:0:
354,162,131704,1,0,3:0:0:0:
372,130,131780,1,0,3:0:0:0:
368,93,131856,1,8,3:2:0:0:
343,65,131933,1,0,3:0:0:0:
308,54,132009,1,0,3:0:0:0:
273,63,132085,1,0,3:0:0:0:
248,89,132161,2,0,L|259:144,1,45.5,8|0,3:2|3:0,0:1:0:0:
432,175,132313,2,0,L|443:230,1,45.5,0|0,3:0|3:0,0:1:0:0:
341,288,132466,2,0,L|352:343,1,45.5,8|0,3:2|3:2,0:0:0:0:
478,373,132618,6,0,B|521:339|508:274|508:274|441:313,1,163.799995001221,14|0,0:1|0:0,0:0:0:0:
232,128,133379,2,0,P|229:79|272:26,1,109.199996667481,0|0,0:0|0:0,0:0:0:0:
47,78,133836,6,0,B|4:110|4:110|-9:45|34:11,1,163.799995001221,14|0,0:1|0:0,0:0:0:0:
280,256,134598,2,0,P|283:305|240:358,1,109.199996667481,0|0,0:0|0:0,0:0:0:0:
386,173,135054,6,0,L|436:182,1,27.2999991668701,14|0,0:1|0:0,0:0:0:0:
126,211,135359,2,0,L|76:202,1,27.2999991668701,14|0,0:1|0:0,0:0:0:0:
359,110,135664,2,0,L|406:93,1,27.2999991668701,14|0,0:1|0:0,0:0:0:0:
152,273,135968,2,0,L|105:290,1,27.2999991668701,14|0,0:1|0:0,0:0:0:0:
304,69,136273,2,0,L|337:31,1,27.2999991668701,14|0,0:1|0:0,0:0:0:0:
207,314,136577,1,10,0:1:0:0:
240,312,136653,1,10,0:1:0:0:
272,310,136729,1,10,0:0:0:0:
20,242,136882,1,8,0:1:0:0:
121,372,137034,1,10,0:2:0:0:
272,310,137186,1,8,0:1:0:0:
288,21,137491,6,2,P|391:129|417:41,1,254.799992224121,14|8,0:1|0:1,0:1:0:0:
348,67,137948,1,10,0:0:0:0:
197,68,138100,1,2,0:0:0:0:
410,13,138252,1,10,0:1:0:0:
350,226,138405,1,2,0:0:0:0:
348,67,138557,1,10,0:0:0:0:
430,242,138709,1,2,0:0:0:0:
238,228,138861,2,0,B|242:260|242:260|240:273|240:273|244:281|244:281|256:370,1,109.199996667481,10|2,0:1|0:0,0:0:0:0:
273,229,139166,2,0,B|265:267|265:267|259:280|259:280|260:295|260:295|245:360,1,109.199996667481,10|2,0:0|0:0,0:0:0:0:
346,215,139471,2,0,L|343:280,1,54.5999983337403,10|0,0:1|0:0,0:0:0:0:
168,269,139623,2,0,L|166:215,1,54.5999983337403,2|0,0:0|0:0,0:0:0:0:
260,122,139775,2,0,L|261:40,1,54.5999983337403,10|0,0:0|0:0,0:0:0:0:
53,46,139927,6,2,B|-4:13|-4:13|66:-8|124:32,1,163.799995001221,10|0,0:1|0:0,0:1:0:0:
145,51,140232,2,2,P|159:111|155:189,1,109.199996667481,10|8,0:1|0:0,0:1:0:0:
173,51,140537,2,2,P|174:94|151:176,1,109.199996667481,2|8,0:0|0:1,0:1:0:0:
329,352,140841,2,0,P|355:342|340:312,1,54.5999983337403,2|0,0:0|0:0,0:0:0:0:
247,242,140993,2,0,P|254:269|248:295,1,54.5999983337403,10|0,0:0|0:0,0:0:0:0:
155,318,141146,2,0,P|98:284|130:368,2,218.399993334961,2|0|0,0:0|0:0|0:0,0:1:0:0:
363,111,141907,2,0,P|336:97|349:51,1,54.5999983337403,10|0,0:0|0:0,0:0:0:0:
496,76,142059,2,0,P|491:108|469:86,1,54.5999983337403,10|0,0:1|0:0,0:0:0:0:
331,75,142212,2,0,P|312:95|308:156,1,54.5999983337403,10|0,0:0|0:0,0:0:0:0:
496,76,142364,6,2,B|439:85|401:133|401:133|402:78|359:46|359:46|341:69|316:86,1,254.799992224121,14|8,0:1|0:1,0:1:0:0:
112,203,142821,2,2,B|86:201|86:201|68:202|68:202|-19:198,1,109.199996667481,10|0,0:0|0:0,0:1:0:0:
258,253,143125,2,0,P|280:271|239:312,3,54.5999983337403,10|0|0|0,3:1|3:0|3:0|3:0,0:0:0:0:
351,315,143430,2,0,P|388:297|392:264,3,54.5999983337403,8|0|0|0,3:2|3:0|3:0|3:0,0:0:0:0:
385,217,143735,5,10,3:1:0:0:
356,183,143811,1,0,3:0:0:0:
354,139,143887,1,0,3:0:0:0:
377,101,143963,1,0,3:0:0:0:
417,85,144039,1,8,3:2:0:0:
451,111,144115,1,0,3:0:0:0:
471,149,144191,1,0,3:0:0:0:
480,192,144268,1,0,3:0:0:0:
483,235,144344,2,0,P|456:237|461:211,1,54.5999983337403,10|0,3:1|3:0,0:0:0:0:
503,57,144496,2,0,P|477:46|470:83,1,54.5999983337403,0|0,3:0|3:0,0:0:0:0:
304,85,144648,2,0,P|274:99|239:79,1,54.5999983337403,8|0,3:2|3:0,0:0:0:0:
188,51,144801,6,2,B|159:19|159:19|380:47,1,254.799992224121,14|8,0:1|0:1,0:1:0:0:
190,213,145257,2,0,B|163:226|163:226|264:240,1,127.399996112061,10|10,0:0|0:1,0:0:0:0:
398,203,145562,1,10,0:0:0:0:
189,140,145714,1,10,0:1:0:0:
257,354,145867,1,10,0:0:0:0:
389,323,146019,6,2,B|398:387|398:387|447:292|373:146,1,254.799992224121,14|8,0:1|0:1,0:1:0:0:
189,140,146476,1,10,0:0:0:0:
147,0,146628,1,10,0:1:0:0:
374,20,146780,2,0,L|448:26,2,63.6999980560303,10|0|10,0:0|0:0|0:1,0:0:0:0:
189,140,147085,1,8,0:0:0:0:
437,25,147237,6,2,B|475:87|475:87|304:48|304:48|346:31,1,273.000010414124,14|0,0:1|0:0,0:1:0:0:
374,20,147694,2,0,L|375:153,1,109.199996667481,8|0,0:2|0:0,0:0:0:0:
141,277,147999,2,0,B|90:246|90:246|185:232|258:302,1,218.399993334961,8|10,0:1|0:2,0:0:0:0:
50,364,148455,1,2,0:0:0:0:
239,286,148608,2,2,B|190:306|165:337|165:337|175:293|153:246|153:246|137:291,1,218.399993334961,8|8,0:1|0:0,0:1:0:0:
343,362,149065,1,2,0:0:0:0:
403,264,149217,2,0,B|417:219|417:219|442:266|442:317,1,109.199996667481,10|2,0:1|0:0,0:0:0:0:
243,84,149521,2,0,P|266:94|265:66,1,54.5999983337403,8|0,0:0|0:0,0:0:0:0:
354,106,149674,6,2,B|312:43|213:37|213:37|252:98,1,218.399993334961,10|8,0:1|0:1,0:1:0:0:
463,116,150131,2,0,L|499:0,1,109.199996667481,8|0,0:0|0:0,0:0:0:0:
341,233,150435,2,0,B|266:245|163:144|302:93|312:199|245:248,1,218.399993334961,8|10,0:1|0:0,0:0:0:0:
155,224,150892,1,2,0:0:0:0:
155,224,151044,2,2,B|212:219|257:175|257:175|294:223|357:237,1,218.399993334961,8|8,0:1|0:0,0:1:0:0:
463,251,151501,1,8,0:1:0:0:
463,251,151577,1,8,0:1:0:0:
463,251,151653,2,0,P|470:218|508:188,1,54.5999983337403,8|0,0:0|0:0,0:0:0:0:
408,124,151806,2,0,P|393:148|406:190,1,54.5999983337403,8|0,0:1|0:0,0:0:0:0:
401,302,151958,2,0,P|434:331|471:326,1,54.5999983337403,8|0,0:0|0:0,0:0:0:0:
362,160,152110,6,0,P|370:134|387:113,5,54.5999983337403,14|0|0|0|8|0,3:1|3:0|3:0|3:0|3:1|3:0,0:0:0:0:
265,171,152567,2,0,P|246:137|257:85,1,54.5999983337403,8|0,3:2|3:0,0:0:0:0:
179,46,152719,2,0,P|150:75|155:116,1,54.5999983337403,0|0,3:0|3:0,0:0:0:0:
169,208,152872,1,10,3:1:0:0:
186,248,152948,1,0,3:0:0:0:
178,290,153024,1,0,3:0:0:0:
147,321,153100,1,0,3:0:0:0:
103,325,153176,1,8,3:2:0:0:
64,304,153252,1,0,3:0:0:0:
49,262,153328,1,0,3:0:0:0:
59,219,153405,1,0,3:0:0:0:
95,194,153481,6,0,P|126:224|118:257,1,54.5999983337403,10|0,3:1|3:0,0:0:0:0:
253,297,153633,2,0,P|272:273|258:221,1,54.5999983337403,0|0,3:0|3:0,0:0:0:0:
312,370,153785,2,0,P|350:361|369:324,1,54.5999983337403,8|0,3:2|3:0,0:0:0:0:
234,302,153938,2,0,P|249:268|236:228,1,54.5999983337403,0|0,3:0|3:0,0:0:0:0:
362,160,154090,2,0,P|374:189|336:199,1,54.5999983337403,10|0,2:1|0:0,0:0:0:0:
228,112,154242,2,0,B|222:86|222:86|226:69|226:69|217:55|217:55|200:-12,1,109.199996667481,2|8,0:0|0:0,0:0:0:0:
205,8,154547,6,2,B|246:-21|246:-21|224:55|224:55|206:71|206:71|185:149|185:149|242:100,1,291.2,14|8,0:1|0:1,0:1:0:0:
351,71,155004,1,10,0:0:0:0:
189,227,155156,1,10,0:1:0:0:
323,227,155308,1,10,0:0:0:0:
161,71,155460,1,10,0:1:0:0:
382,293,155613,1,10,0:0:0:0:
130,293,155765,6,2,B|98:272|99:228|99:228|60:304|169:392|255:288,1,291.2,14|8,0:1|0:1,0:1:0:0:
408,141,156222,2,0,B|405:114|435:111|435:111|419:224,1,145.6,10|10,0:0|0:1,0:0:0:0:
255,156,156526,1,10,0:0:0:0:
104,141,156679,2,0,B|107:114|77:111|77:111|90:209,1,145.6,10|10,0:1|0:0,0:0:0:0:
188,64,156983,6,0,P|205:37|195:-8,3,63.6999980560303,14|0|0|0,3:1|3:0|3:0|3:0,0:0:0:0:
131,86,157288,2,0,P|101:86|70:48,1,63.6999980560303,8|0,3:1|3:0,0:0:0:0:
283,81,157440,2,0,P|311:61|351:105,1,63.6999980560303,8|0,3:2|3:0,0:0:0:0:
255,156,157592,2,0,P|219:151|249:127,1,63.6999980560303,0|0,3:0|3:0,0:0:0:0:
415,80,157745,1,10,3:1:0:0:
460,57,157821,1,0,3:0:0:0:
496,92,157897,1,0,3:0:0:0:
487,142,157973,1,0,3:0:0:0:
440,162,158049,1,8,3:2:0:0:
389,157,158125,1,0,3:0:0:0:
351,192,158202,1,0,3:0:0:0:
356,242,158278,1,0,3:0:0:0:
398,270,158354,6,0,P|423:261|439:315,1,63.6999980560303,10|0,3:1|3:0,0:1:0:0:
467,327,158506,2,0,P|463:358|436:334,1,63.6999980560303,0|0,3:0|3:0,0:1:0:0:
297,298,158658,2,0,P|285:330|301:380,1,63.6999980560303,8|0,3:2|3:0,0:1:0:0:
182,323,158811,2,0,P|190:360|225:396,1,63.6999980560303,0|0,3:0|3:0,0:1:0:0:
366,338,158963,1,10,2:2:0:0:
84,297,159115,1,10,2:2:0:0:
432,44,159420,6,0,B|438:21|438:21|479:57|495:134,1,136.5,14|0,0:1|0:0,0:0:0:0:
248,78,160181,2,0,P|233:120|228:174,1,91,0|0,0:0|0:0,0:0:0:0:
142,60,160638,2,0,P|210:136|234:178,1,136.5,2|0,0:0|0:0,0:0:0:0:
29,215,161400,2,0,P|12:269|8:309,1,91,0|0,0:0|0:0,0:0:0:0:
29,215,161856,1,2,0:0:0:0:
116,353,164293,6,0,B|96:376|96:376|74:321|107:259,1,136.5,2|0,0:0|0:0,0:0:0:0:
337,367,165054,2,0,P|343:330|316:262,1,91,0|0,0:0|0:0,0:0:0:0:
431,357,165511,2,0,P|380:341|324:267,1,136.5,2|0,0:0|0:0,0:0:0:0:
186,26,166273,2,0,P|159:56|100:62,1,91,2|0,0:0|0:0,0:0:0:0:
17,31,166729,5,14,3:1:0:0:
325,104,167034,1,0,3:0:0:0:
403,59,167186,1,0,3:0:0:0:
405,146,167339,2,0,L|398:184,2,31.8499990280152,0|0|0,3:0|3:2|3:2,0:0:0:0:
442,252,167643,1,0,0:0:0:0:
358,248,167795,1,0,3:0:0:0:
420,155,167948,6,0,L|394:306,1,136.500005207062,2|0,3:2|3:0,0:0:0:0:
296,366,168405,1,0,3:0:0:0:
221,315,168557,2,0,L|212:268,2,34.1250013017655,0|0|0,3:0|3:0|3:0,0:0:0:0:
146,355,168861,1,0,0:0:0:0:
294,289,169014,1,0,3:0:0:0:
214,325,169166,6,0,L|181:171,1,145.6,2|0,3:2|3:0,0:0:0:0:
34,115,169623,1,0,3:0:0:0:
130,56,169775,2,0,L|120:95,2,36.4,0|0|0,3:0|3:0|3:0,0:0:0:0:
224,9,170080,1,0,0:0:0:0:
38,38,170232,1,0,3:0:0:0:
237,140,170384,5,14,0:1:0:0:
237,140,170993,1,14,0:1:0:0:
237,140,171603,1,14,0:1:0:0:
321,35,171907,6,0,L|389:46,1,40.9499987503052,8|8,0:0|0:0,0:0:0:0:
398,110,172059,2,0,L|466:121,1,40.9499987503052,8|8,0:1|0:1,0:0:0:0:
451,191,172212,2,0,L|530:202,1,59.149997292328,10|10,2:1|2:1,0:0:0:0:
379,266,172364,2,0,L|333:273,3,29.574998646164,10|0|0|0,2:2|0:0|2:1|0:0,0:0:0:0:
316,326,172516,2,0,L|268:333,3,34.1250013017655,10|0|0|0,2:2|0:0|2:0|0:0,0:0:0:0:
57,242,172821,6,0,P|41:195|79:232,1,136.500005207062,2|2,0:0|0:0,0:0:0:0:
264,123,173278,2,0,P|264:104|243:127,1,68.250002603531,2|2,0:0|0:0,0:0:0:0:
436,230,173582,2,0,P|447:212|413:219,1,68.250002603531,2|2,0:0|0:0,0:0:0:0:
161,212,173887,1,2,0:0:0:0:
415,131,174039,6,0,L|169:155,1,204.750007810593,14|0,0:1|0:0,0:0:0:0:
161,212,174344,6,0,P|190:239|203:218,1,68.250002603531,8|0,2:1|0:0,0:0:0:0:
211,150,174496,6,0,P|199:133|169:162,1,68.250002603531,2|0,1:1|0:0,0:0:0:0:
289,222,174648,6,0,P|280:184|222:185,1,68.250002603531,2|0,1:1|0:0,0:0:0:0:
108,242,174801,6,0,P|145:253|173:202,1,68.250002603531,2|0,1:1|0:0,0:0:0:0:
175,77,174953,6,0,P|146:103|176:153,1,68.250002603531,2|0,1:1|0:0,0:0:0:0:
23,86,175105,6,0,P|55:78|30:105,1,68.250002603531,2|0,1:1|0:0,0:0:0:0:
167,154,175257,6,0,B|181:50|295:19|295:19|240:125,1,291.2,14|8,0:1|0:1,0:0:0:0:
350,327,175714,2,0,B|382:364|433:353|433:353|403:335,1,118.299994584656,10|2,0:0|0:0,0:0:0:0:
254,226,176019,1,10,0:1:0:0:
165,310,176171,2,0,L|42:326,1,118.299994584656,2|10,0:0|0:0,0:0:0:0:
254,226,176476,6,0,B|300:160|386:176|386:176|408:258|479:271,1,236.599989169312,2|0,0:0|0:0,0:0:0:0:
507,145,176933,2,0,P|506:115|499:152,1,118.299994584656,10|0,0:0|0:0,0:0:0:0:
335,261,177237,1,10,0:0:0:0:
476,152,177389,2,0,P|507:88|509:28,1,118.299994584656,10|8,0:1|0:0,0:0:0:0:
510,41,177694,6,0,B|446:108|330:75|330:75|426:40,1,273.000010414124,14|8,0:1|0:1,0:0:0:0:
103,62,178151,2,0,P|170:49|198:95,1,118.299994584656,10|2,0:2|0:0,0:0:0:0:
52,189,178455,2,0,P|0:131|114:70,1,236.599989169312,10|8,0:1|0:0,0:0:0:0:
196,83,178912,2,0,B|204:164|130:213|130:213|86:211|41:182,1,236.599989169312,2|0,0:0|0:0,0:0:0:0:
150,146,179369,2,0,L|168:267,1,118.299994584656,8|0,0:0|0:0,0:0:0:0:
388,235,179674,1,10,0:1:0:0:
317,153,179826,1,8,0:1:0:0:
286,188,179902,1,8,0:1:0:0:
276,234,179978,1,8,0:0:0:0:
474,323,180131,6,0,B|502:386|502:386|383:360|388:197,1,273.000010414124,14|8,0:1|0:1,0:0:0:0:
472,55,180587,2,0,L|459:138,3,68.250002603531,10|0|0|0,0:0|0:0|0:1|0:0,0:0:0:0:
388,141,180892,2,0,P|345:126|344:89,3,68.250002603531,10|0|0|0,0:0|0:0|0:1|0:0,0:0:0:0:
339,27,181197,2,0,P|377:11|377:44,1,68.250002603531,10|0,0:2|0:0,0:0:0:0:
252,75,181349,2,0,L|167:86,1,68.250002603531,10|0,2:1|2:0,0:0:0:0:
104,13,181501,5,8,3:2:0:0:
49,11,181577,1,0,3:0:0:0:
12,51,181653,1,0,3:0:0:0:
19,104,181729,1,0,3:0:0:0:
67,130,181806,1,8,3:2:0:0:
121,127,181882,1,0,3:0:0:0:
160,164,181958,1,0,3:0:0:0:
166,218,182034,1,0,3:0:0:0:
129,258,182110,2,0,P|94:271|92:228,1,68.250002603531,8|0,3:2|3:0,0:1:0:0:
237,204,182262,2,0,P|279:229|285:292,1,68.250002603531,0|0,3:0|3:0,0:1:0:0:
249,352,182415,2,0,P|216:365|196:345,1,45.5,8|0,3:2|3:0,0:1:0:0:
320,325,182567,6,0,B|349:336|361:367|361:367|371:271|273:226|179:312,1,273.000010414124,14|8,0:1|0:1,0:0:0:0:
320,325,183024,2,0,P|370:279|360:209,1,118.299994584656,10|0,0:2|0:0,0:0:0:0:
183,49,183328,1,10,0:1:0:0:
266,14,183481,2,0,P|296:75|259:141,1,118.299994584656,2|10,0:0|0:0,0:0:0:0:
183,49,183785,2,0,P|178:109|318:186,1,236.599989169312,2|0,0:0|0:0,0:0:0:0:
473,82,184242,2,0,B|491:25|491:25|405:61,1,118.299994584656,10|0,0:2|0:0,0:0:0:0:
437,336,184547,2,0,B|491:359|491:359|473:302,2,118.299994584656,10|10|8,0:1|0:1|0:0,0:0:0:0:
496,171,185004,6,0,L|379:161,1,118.299994584656,10|0,0:1|0:0,0:0:0:0:
496,171,185308,1,8,0:1:0:0:
291,287,185460,2,0,P|324:226|418:178,1,177.449991876984,10|0,0:0|0:0,0:0:0:0:
496,171,185765,2,0,P|405:168|284:263,1,236.599989169312,8|8,0:1|0:0,0:0:0:0:
445,253,186222,2,0,P|370:227|269:104,1,236.599989169312,2|0,0:0|0:0,0:0:0:0:
170,320,186679,2,0,P|101:359|43:355,1,118.299994584656,10|8,0:0|0:1,0:0:0:0:
14,84,186983,2,0,P|46:97|31:137,1,59.149997292328,8|0,0:0|0:0,0:0:0:0:
167,188,187136,2,0,P|156:205|103:212,1,59.149997292328,8|0,0:1|0:1,0:0:0:0:
165,68,187288,2,0,P|201:43|252:64,1,59.149997292328,8|0,0:0|0:0,0:0:0:0:
121,218,187440,6,0,B|92:163|61:137|61:137|96:94|107:42|107:42|147:72|176:68,1,273.000010414124,14|8,0:1|0:1,0:0:0:0:
385,86,187897,2,0,B|409:79|433:64|433:64|425:113|439:178,1,118.299994584656,10|0,0:0|0:0,0:0:0:0:
261,255,188202,2,0,L|244:381,1,118.299994584656,10|0,0:1|0:0,0:0:0:0:
428,346,188506,1,8,0:0:0:0:
267,216,188658,2,0,B|221:190|221:190|247:387,1,236.599989169312,2|0,0:0|0:0,0:0:0:0:
195,264,189115,2,0,L|249:380,1,118.299994584656,10|0,0:0|0:0,0:0:0:0:
378,229,189420,1,10,0:1:0:0:
243,118,189572,1,8,0:1:0:0:
223,75,189648,1,8,0:1:0:0:
248,34,189724,1,8,0:0:0:0:
354,79,189877,6,0,B|274:135|165:122|165:122|237:63,1,273.000010414124,14|8,0:1|0:1,0:0:0:0:
430,180,190334,2,0,P|495:228|528:290,1,136.500005207062,10|8,0:0|0:1,0:0:0:0:
378,229,190638,1,10,2:2:0:0:
219,206,190790,1,8,2:1:0:0:
352,345,190943,1,10,2:0:0:0:
218,355,191095,6,0,B|189:286|112:280|112:280|82:340|19:352|19:352|29:313,1,291.2,14|8,0:1|0:1,0:0:0:0:
94,164,191552,1,8,0:2:0:0:
136,124,191628,1,8,0:2:0:0:
117,69,191704,1,8,0:2:0:0:
60,54,191780,1,8,0:2:0:0:
20,96,191856,2,0,P|30:141|66:129,1,72.8,8|8,0:3|0:3,0:0:0:0:
201,79,192009,2,0,P|219:63|225:0,1,72.8,8|8,0:3|0:3,0:0:0:0:
225,126,192161,2,0,P|269:144|317:133,1,72.8,8|0,0:0|0:0,0:0:0:0:
195,179,192313,6,0,B|228:264|326:260|326:260|374:200|471:183,1,273.000010414124,14|8,0:1|0:1,0:0:0:0:
489,282,192770,2,0,P|502:323|468:300,1,109.199996667481,8|0,0:0|0:0,0:0:0:0:
510,135,193075,2,0,B|489:65|410:29|410:29|447:109,1,218.399993334961,10|8,0:1|0:0,0:0:0:0:
438,90,193532,2,0,P|496:35|512:-1,2,109.199996667481,2|8|0,0:0|0:1|0:0,0:0:0:0:
230,78,193988,2,0,P|196:48|125:27,1,109.199996667481,8|0,0:0|0:0,0:0:0:0:
388,143,194293,2,0,P|419:177|497:200,1,109.199996667481,10|0,0:1|0:1,0:0:0:0:
341,60,194598,1,8,0:0:0:0:
263,155,194750,6,0,B|182:156|132:218|132:218|130:181|190:134,1,218.399993334961,10|8,0:1|0:1,0:0:0:0:
25,129,195207,2,0,B|22:94|22:94|18:85|18:85|10:3,1,109.199996667481,8|0,0:0|0:0,0:0:0:0:
25,129,195511,2,0,B|-10:148|-10:148|38:7|38:7|-16:38,1,218.399993334961,10|8,0:1|0:0,0:0:0:0:
125,86,195968,2,0,B|165:128|165:128|198:292,1,218.399993334961,2|0,0:2|0:0,0:0:0:0:
50,282,196425,2,0,B|0:265|0:265|62:229,1,109.199996667481,8|0,0:0|0:0,0:0:0:0:
327,199,196729,2,0,P|364:207|345:242,1,54.5999983337403,10|0,0:2|0:0,0:0:0:0:
498,280,196882,2,0,P|489:316|453:289,1,54.5999983337403,10|0,0:1|0:0,0:0:0:0:
318,300,197034,2,0,P|297:308|284:254,1,54.5999983337403,10|0,0:0|0:0,0:0:0:0:
327,199,197186,6,0,B|362:251|421:260|421:260|401:300|399:327|399:327|348:327|306:291,1,273.000010414124,14|8,0:1|0:1,0:0:0:0:
463,133,197643,2,0,B|470:104|470:104|480:93|480:93|496:9,1,109.199996667481,10|2,0:0|0:0,0:0:0:0:
196,90,197948,2,0,B|138:79|138:79|198:151|318:143,1,218.399993334961,10|8,0:1|0:2,0:0:0:0:
355,59,198405,2,0,B|413:70|413:70|353:-2|233:6,1,218.399993334961,2|0,0:0|0:0,0:0:0:0:
133,192,198861,2,0,L|19:214,1,109.199996667481,8|0,0:0|0:0,0:0:0:0:
267,306,199166,2,0,B|351:305|391:395|274:405|278:318|385:293,1,218.399993334961,10|8,0:1|0:0,0:0:0:0:
134,326,199623,6,0,B|192:307|244:247|244:247|295:288|383:299,1,273.000010414124,14|8,0:1|0:1,0:0:0:0:
296,131,200080,2,0,P|278:154|330:184,1,68.250002603531,10|0,0:0|0:0,0:0:0:0:
346,195,200232,2,0,P|368:178|371:104,1,68.250002603531,10|0,0:1|0:0,0:0:0:0:
228,50,200384,2,0,P|207:73|151:49,1,68.250002603531,10|0,0:0|0:0,0:0:0:0:
33,17,200537,2,0,P|76:27|88:75,1,68.250002603531,10|0,0:1|0:0,0:0:0:0:
110,192,200689,2,0,P|100:168|111:123,1,68.250002603531,10|0,0:0|0:0,0:0:0:0:
228,50,200841,6,0,B|155:65|91:26|91:26|161:100|113:202,1,291.2,14|8,0:1|0:1,0:0:0:0:
12,346,201298,1,8,0:0:0:0:
179,230,201450,1,8,0:1:0:0:
63,280,201603,1,8,0:3:0:0:
104,297,201679,1,8,0:3:0:0:
145,315,201755,1,8,0:3:0:0:
385,283,201907,1,8,0:0:0:0:
302,318,202059,6,0,B|319:379|319:379|207:312|260:153,1,291.2,14|8,0:1|0:1,0:0:0:0:
422,85,202516,2,0,B|457:100|471:131|471:131|520:73|474:0|409:11,2,236.599989169312,8|10|8,0:0|0:1|0:0,0:0:0:0:
323,57,203278,1,2,0:0:0:0:
323,57,203354,1,2,0:0:0:0:
323,57,203430,1,8,0:1:0:0:
363,145,203582,1,0,0:0:0:0:
263,128,203735,2,0,L|139:151,1,118.299994584656,8|0,0:0|0:0,0:0:0:0:
12,53,204039,1,8,0:1:0:0:
116,7,204191,2,0,B|172:20|172:20|124:84,1,118.299994584656,8|8,0:1|0:0,0:0:0:0:
30,180,204496,6,0,B|19:245|19:245|57:291|65:358|65:358|25:312,1,236.599989169312,10|8,0:1|0:1,0:0:0:0:
194,273,204953,2,0,L|318:295,1,118.299994584656,8|0,0:0|0:0,0:0:0:0:
194,273,205257,2,0,B|171:308|171:308|329:268|329:268|292:320,1,236.599989169312,10|8,0:1|0:0,0:0:0:0:
414,379,205714,1,2,0:0:0:0:
414,379,205790,1,2,0:0:0:0:
414,379,205867,1,8,0:1:0:0:
501,231,206019,1,8,0:1:0:0:
414,295,206171,1,8,0:0:0:0:
508,135,206323,1,8,0:1:0:0:
301,122,206476,2,0,P|310:152|339:137,1,59.149997292328,8|0,0:0|0:0,0:0:0:0:
385,54,206628,2,0,P|412:59|419:17,1,59.149997292328,8|0,0:1|0:0,0:0:0:0:
248,40,206780,2,0,P|212:46|228:92,1,59.149997292328,8|0,0:0|0:0,0:0:0:0:
301,122,206933,6,0,B|337:127|362:137|362:137|366:80|378:41|378:41|294:57|246:40,1,291.2,14|8,0:1|0:1,0:0:0:0:
228,201,207389,2,0,B|230:241|230:241|235:254|235:254|239:338,1,118.299994584656,10|8,0:0|0:1,0:0:0:0:
53,358,207694,2,0,B|15:368|15:368|31:325|75:298,1,118.299994584656,10|8,0:0|0:1,0:0:0:0:
182,374,207999,1,10,0:0:0:0:
104,196,208151,2,0,B|178:172|178:172|100:96|-21:110,1,273.000010414124,14|8,0:1|0:1,0:0:0:0:
164,67,208608,2,0,P|117:136|103:202,1,145.6,10|8,0:0|0:1,0:0:0:0:
347,224,208912,1,10,0:0:0:0:
442,167,209065,2,0,P|479:239|480:327,1,145.6,8|10,0:1|0:0,0:0:0:0:
355,91,209369,6,0,B|474:79|495:-41|336:-46|356:114|541:79,1,291.2,14|8,0:1|0:1,0:0:0:0:
257,35,209826,2,0,P|225:61|232:125,3,59.149997292328,10|0|0|0,3:2|3:0|3:0|3:0,0:0:0:0:
228,147,210131,2,0,P|241:166|281:179,3,59.149997292328,8|0|0|0,3:2|3:0|3:0|3:0,0:0:0:0:
160,198,210435,2,0,P|126:215|88:178,1,59.149997292328,8|0,3:2|3:0,0:0:0:0:
60,136,210587,2,0,P|58:107|90:95,1,59.149997292328,2|0,3:2|3:0,0:0:0:0:
194,115,210740,5,8,3:2:0:0:
228,147,210816,1,0,3:0:0:0:
240,192,210892,1,0,3:0:0:0:
229,238,210968,1,0,3:0:0:0:
193,268,211044,1,8,3:2:0:0:
162,304,211120,1,0,3:0:0:0:
161,351,211197,1,0,3:0:0:0:
202,373,211273,1,0,3:0:0:0:
255,360,211349,2,0,P|266:334|240:312,1,54.5999983337403,10|0,0:0|0:0,0:1:0:0:
380,331,211501,2,0,P|393:310|378:270,1,54.5999983337403,10|0,0:0|0:0,0:1:0:0:
492,370,211653,2,0,P|506:348|500:317,1,54.5999983337403,8|0,0:3|0:0,0:1:0:0:
380,331,211806,6,0,P|366:280|432:178,1,163.799995001221,14|0,0:1|0:0,0:0:0:0:
125,118,212567,2,0,P|139:83|124:53,1,54.5999983337403,0|0,0:0|0:0,0:0:0:0:
158,162,213024,2,0,P|180:105|157:-4,1,163.799995001221,14|0,0:1|0:0,0:0:0:0:
345,101,213785,2,0,P|311:135|289:204,1,109.199996667481,0|0,0:0|0:0,0:0:0:0:
423,137,214242,6,0,L|434:89,1,27.2999991668701,14|0,0:1|0:0,0:0:0:0:
89,137,214547,2,0,L|78:89,1,27.2999991668701,14|0,0:1|0:0,0:0:0:0:
391,218,214851,2,0,L|391:182,1,27.2999991668701,14|0,0:1|0:0,0:0:0:0:
121,218,215156,2,0,L|121:182,1,27.2999991668701,14|0,0:1|0:0,0:0:0:0:
399,305,215460,2,0,L|383:260,1,27.2999991668701,14|0,0:1|0:0,0:0:0:0:
113,305,215765,5,10,0:1:0:0:
122,273,215841,1,10,0:1:0:0:
131,241,215917,1,10,0:0:0:0:
323,156,216070,1,8,0:1:0:0:
189,156,216222,1,10,0:2:0:0:
381,241,216374,1,8,0:1:0:0:
256,225,216526,2,0,B|257:250|257:250|254:263|254:263|257:277|257:277|255:324,1,81.8999975006104,2|0,0:0|0:0,0:0:0:0:
294,362,216831,6,0,B|346:311|422:311|422:311|369:365,2,200.200006109619,14|8|8,0:1|0:0|0:1,0:0:0:0:
161,210,217592,2,0,L|25:197,1,100.10000305481,2|8,0:0|0:0,0:0:0:0:
4,275,217897,1,2,0:0:0:0:
38,295,217973,1,2,0:0:0:0:
77,288,218049,1,8,0:1:0:0:
177,123,218202,1,0,0:0:0:0:
59,58,218354,1,10,0:0:0:0:
265,47,218506,1,0,0:0:0:0:
161,210,218658,1,10,0:1:0:0:
177,123,218811,2,0,L|279:117,1,100.10000305481,2|10,0:1|0:0,0:0:0:0:
460,138,219115,6,0,P|492:100|418:91,1,150.150004582214,10|0,0:1|0:0,0:0:0:0:
385,124,219420,2,0,P|385:180|439:222,2,100.10000305481,8|10|0,0:1|0:0|0:0,0:0:0:0:
161,216,219877,2,0,P|193:155|159:20,1,200.200006109619,10|8,0:1|0:0,0:0:0:0:
70,44,220334,1,2,0:0:0:0:
77,83,220410,1,2,0:0:0:0:
84,122,220486,1,8,0:1:0:0:
298,45,220638,1,0,0:0:0:0:
244,231,220790,1,8,0:0:0:0:
225,116,220943,1,0,0:0:0:0:
348,289,221095,1,10,0:1:0:0:
144,287,221247,2,0,L|48:325,1,100.10000305481,10|8,0:1|0:0,0:0:0:0:
244,231,221552,6,0,P|270:317|341:342,1,150.150004582214,14|0,0:1|0:0,0:0:0:0:
348,289,221856,2,0,P|399:261|438:277,2,100.10000305481,8|10|0,0:1|0:0|0:0,0:0:0:0:
453,130,222313,2,0,P|366:112|290:0,1,200.200006109619,10|8,0:1|0:0,0:0:0:0:
413,22,222770,1,2,0:0:0:0:
452,22,222846,1,2,0:0:0:0:
491,22,222922,1,8,0:1:0:0:
492,200,223075,1,0,0:0:0:0:
317,195,223227,1,10,0:0:0:0:
433,112,223379,1,0,0:0:0:0:
350,296,223532,1,10,0:1:0:0:
203,153,223684,2,0,L|197:32,1,100.10000305481,2|10,0:0|0:0,0:0:0:0:
32,191,223988,6,0,B|21:261|21:261|77:222|133:124,1,200.200006109619,14|8,0:1|0:1,0:0:0:0:
203,327,224445,1,10,3:2:0:0:
216,332,224521,1,0,3:0:0:0:
230,336,224598,1,0,3:0:0:0:
244,339,224674,1,0,3:0:0:0:
273,333,224750,1,8,3:1:0:0:
296,314,224826,1,0,3:0:0:0:
305,285,224902,1,0,3:0:0:0:
298,255,224978,1,0,3:0:0:0:
267,228,225054,1,8,3:1:0:0:
226,228,225131,1,0,3:0:0:0:
191,248,225207,1,0,3:2:0:0:
151,248,225283,1,0,3:2:0:0:
116,227,225359,6,0,P|134:202|141:168,1,50.0500015274048,8|0,3:1|3:0,0:1:0:0:
186,142,225511,2,0,P|185:116|162:66,1,50.0500015274048,2|0,3:2|3:0,0:1:0:0:
112,22,225664,2,0,P|84:51|121:70,1,50.0500015274048,8|0,3:2|3:0,0:1:0:0:
254,51,225816,2,0,P|267:73|288:40,1,50.0500015274048,2|0,3:2|3:0,0:1:0:0:
400,22,225968,2,0,P|428:51|391:70,1,50.0500015274048,8|0,3:1|3:0,0:1:0:0:
365,155,226120,2,0,L|308:165,1,31.8499990280152,2|0,3:2|3:0,0:1:0:0:
422,224,226273,2,0,L|365:234,1,31.8499990280152,8|0,3:2|3:0,0:1:0:0:
477,293,226425,2,0,L|420:303,1,31.8499990280152,0|0,3:0|3:0,0:1:0:0:
86,340,226729,5,2,0:2:0:0:
111,343,226806,1,2,0:0:0:0:
136,346,226882,1,2,0:2:0:0:
4,343,227034,1,2,0:2:0:0:
212,318,227186,1,2,0:2:0:0:
48,270,227339,2,0,L|75:189,1,63.6999980560303,2|0,0:2|0:2,0:0:0:0:
8,28,227643,1,14,0:1:0:0:
