osu file format v14

[General]
AudioFilename: audio.mp3
AudioLeadIn: 0
PreviewTime: 92195
Countdown: 0
SampleSet: Soft
StackLeniency: 0.7
Mode: 3
LetterboxInBreaks: 0
SpecialStyle: 0
WidescreenStoryboard: 1

[Editor]
Bookmarks: 670,6093,11517,12865,16941,18297,22534,23212,23720,24737,25076,33212,34568,35246,35924,46771,52873,53212,54907,56263,56941,67110,69144,69483,71517,71856,73890,74229,76263,76602,78805,79314,87449,90500,91517,92195,92873,103381,103720,109144,113890,114568,122703,125415,130839,138297,140161,144398
DistanceSpacing: 0.9
BeatDivisor: 4
GridSize: 16
TimelineZoom: 1.2

[Metadata]
Title:Lyrith -Meikyu Lilith-
TitleUnicode:Lyrith -迷宮リリス-
Artist:Yumemido
ArtistUnicode:ユメミド
Creator:Kawawa
Version:Hyper
Source:BMS
Tags:BOFU2017 -LEGENDA EST A MYTH- THE BMS OF FIGHTERS ULTIMATE 2017 めいきゅう 孤高クローバー エース 遥壱朗 テンソル FRENZ IRON MAIDEN
BeatmapID:1437415
BeatmapSetID:679414

[Difficulty]
HPDrainRate:8
CircleSize:7
OverallDifficulty:7.8
ApproachRate:5
SliderMultiplier:1.4
SliderTickRate:1

[Events]
//Background and Video events
Video,-177,"Ramuchi Converted.mp4"
0,0,"BG.png",0,0
//Break Periods
//Storyboard Layer 0 (Background)
//Storyboard Layer 1 (Fail)
//Storyboard Layer 2 (Pass)
//Storyboard Layer 3 (Foreground)
//Storyboard Sound Samples

[TimingPoints]
670,338.983050847458,4,2,1,20,1,0
16941,-100,4,2,1,20,0,1
18297,-100,4,2,1,20,0,0
22534,-100,4,2,1,20,0,1
23212,-100,4,2,1,20,0,0
24737,-100,4,2,1,20,0,1
25076,-100,4,2,1,20,0,0
34568,-100,4,2,1,20,0,1
35246,-100,4,2,1,20,0,0
52873,-100,4,2,1,20,0,1
53212,-100,4,2,1,20,0,0
56263,-100,4,2,1,20,0,1
56941,-100,4,2,1,20,0,0
69144,-100,4,2,1,20,0,1
69483,-100,4,2,1,20,0,0
71517,-100,4,2,1,20,0,1
71856,-100,4,2,1,20,0,0
73890,-100,4,2,1,20,0,1
74229,-100,4,2,1,20,0,0
76263,-100,4,2,1,20,0,1
76602,-100,4,2,1,20,0,0
78805,-100,4,2,1,20,0,1
79314,-100,4,2,1,20,0,0
90500,-100,4,2,1,20,0,1
91517,-100,4,2,1,20,0,0
92873,-100,4,2,1,20,0,1
103381,-100,4,2,1,20,0,0
103720,-100,4,2,1,20,0,1
109144,-100,4,2,1,20,0,0
113890,-100,4,2,1,20,0,1
114568,-100,4,2,1,20,0,0
122703,-100,4,2,1,20,0,1
125415,-100,4,2,1,20,0,0
130839,-100,4,2,1,20,0,1
138297,-100,4,2,1,20,0,0
144059,-100,4,2,1,20,0,1
144398,-100,4,2,1,20,0,0

[HitObjects]
475,192,585,5,0,0:0:0:0:
402,192,627,1,0,0:0:0:0:
329,192,670,5,0,0:0:0:0:
182,192,670,1,0,0:0:0:0:
36,192,670,1,0,0:0:0:0:
109,192,1008,1,0,0:0:0:0:
475,192,1008,128,0,1093:0:0:0:0:
182,192,1347,1,0,0:0:0:0:
329,192,1347,128,0,1432:0:0:0:0:
256,192,1686,1,0,0:0:0:0:
475,192,1686,128,0,1771:0:0:0:0:
329,192,2025,1,0,0:0:0:0:
36,192,2025,128,0,2110:0:0:0:0:
109,192,2703,128,0,2788:0:0:0:0:
256,192,2703,1,0,0:0:0:0:
475,192,3212,1,0,0:0:0:0:
402,192,3297,1,0,0:0:0:0:
182,192,3381,1,0,0:0:0:0:
329,192,3381,128,0,3466:0:0:0:0:
36,192,3720,128,0,3805:0:0:0:0:
256,192,3720,1,0,0:0:0:0:
329,192,4059,1,0,0:0:0:0:
109,192,4059,128,0,4144:0:0:0:0:
402,192,4398,1,0,0:0:0:0:
182,192,4398,128,0,4483:0:0:0:0:
475,192,4737,128,0,5754:0:0:0:0:
256,192,4737,128,0,4822:0:0:0:0:
182,192,5076,128,0,5161:0:0:0:0:
329,192,5246,1,0,0:0:0:0:
329,192,5415,128,0,5754:0:0:0:0:
109,192,5415,128,0,5500:0:0:0:0:
36,192,5754,128,0,5839:0:0:0:0:
182,192,5754,1,0,0:0:0:70:Low-KicK.wav
329,192,5867,1,0,0:0:0:70:Low-KicK.wav
182,192,5980,1,0,0:0:0:70:Low-KicK.wav
36,192,6093,128,0,7449:0:0:0:0:
475,192,6093,1,0,0:0:0:70:Low-KicK.wav
329,192,6093,1,0,0:0:0:70:Cymbal.wav
475,192,6432,1,0,0:0:0:0:
402,192,6771,1,0,0:0:0:0:
329,192,7110,1,0,0:0:0:0:
329,192,7449,1,0,0:0:0:0:
182,192,7449,128,0,8805:0:0:0:0:
475,192,7788,128,0,7873:0:0:0:0:
329,192,7958,128,0,8042:0:0:0:0:
109,192,8127,128,0,8212:0:0:0:0:
256,192,8297,128,0,8381:0:0:0:0:
402,192,8466,128,0,8551:0:0:0:0:
329,192,8805,128,0,10161:0:0:0:0:
36,192,8805,1,0,0:0:0:70:KicK.wav
475,192,8805,1,0,0:0:0:0:
109,192,9144,1,0,0:0:0:0:
475,192,9483,1,0,0:0:0:70:KicK.wav
182,192,9483,1,0,0:0:0:0:
109,192,9822,1,0,0:0:0:0:
475,192,10161,128,0,11517:0:0:0:0:
36,192,10161,1,0,0:0:0:0:
256,192,10161,1,0,0:0:0:70:KicK.wav
36,192,10500,1,0,0:0:0:0:
256,192,10500,1,0,0:0:0:70:KicK.wav
36,192,10839,128,0,11517:0:0:0:0:
329,192,10839,1,0,0:0:0:70:KicK.wav
182,192,10839,1,0,0:0:0:0:
182,192,11178,1,0,0:0:0:0:
329,192,11178,1,0,0:0:0:70:KicK.wav
256,192,11517,1,0,0:0:0:70:BeLL.wav
36,192,12534,1,0,0:0:0:0:
182,192,12647,1,0,0:0:0:0:
329,192,12760,1,0,0:0:0:0:
256,192,12873,1,0,0:0:0:70:CrashL.wav
475,192,12873,1,0,0:0:0:70:KicK.wav
36,192,12873,1,0,0:0:0:0:
109,192,13042,1,0,0:0:0:0:
36,192,13212,1,0,0:0:0:0:
475,192,13212,128,0,13297:0:0:0:0:
182,192,13381,1,0,0:0:0:0:
402,192,13381,128,0,13466:0:0:0:0:
329,192,13551,128,0,14059:0:0:0:0:
36,192,13551,1,0,0:0:0:0:
109,192,13720,1,0,0:0:0:0:
36,192,13890,1,0,0:0:0:0:
475,192,14059,1,0,0:0:0:70:KicK.wav
182,192,14059,1,0,0:0:0:0:
36,192,14229,1,0,0:0:0:0:
475,192,14229,1,0,0:0:0:70:KicK.wav
256,192,14229,1,0,0:0:0:70:CrashL.wav
329,192,14568,1,0,0:0:0:70:Low-KicK.wav
36,192,14568,128,0,14653:0:0:0:0:
256,192,14653,1,0,0:0:0:70:Low-KicK.wav
475,192,14737,1,0,0:0:0:70:Low-KicK.wav
182,192,14737,128,0,14822:0:0:0:0:
402,192,14822,1,0,0:0:0:70:Low-KicK.wav
109,192,14907,128,0,15246:0:0:0:0:
329,192,14907,1,0,0:0:0:70:Low-KicK.wav
402,192,15076,1,0,0:0:0:70:Low-KicK.wav
475,192,15246,128,0,15500:0:0:0:70:Low-KicK.wav
256,192,15246,1,0,0:0:0:0:
182,192,15585,1,0,0:0:0:70:CrashL.wav
475,192,15585,1,0,0:0:0:70:KicK.wav
329,192,15585,1,0,0:0:0:0:
109,192,15754,1,0,0:0:0:0:
256,192,15924,1,0,0:0:0:0:
109,192,16093,1,0,0:0:0:0:
475,192,16093,1,0,0:0:0:70:KicK.wav
182,192,16263,1,0,0:0:0:70:CrashL.wav
475,192,16263,1,0,0:0:0:70:KicK.wav
329,192,16263,1,0,0:0:0:0:
109,192,16432,1,0,0:0:0:0:
256,192,16602,1,0,0:0:0:0:
109,192,16771,1,0,0:0:0:0:
182,192,16941,1,0,0:0:0:0:
329,192,16941,1,0,0:0:0:0:
475,192,17025,1,0,0:0:0:0:
36,192,17110,1,0,0:0:0:70:KicK.wav
109,192,17195,1,0,0:0:0:0:
182,192,17280,1,0,0:0:0:70:KicK.wav
256,192,17364,1,0,0:0:0:70:KicK.wav
475,192,17449,1,0,0:0:0:0:
402,192,17534,1,0,0:0:0:70:KicK.wav
329,192,17619,1,0,0:0:0:70:KicK.wav
109,192,17703,1,0,0:0:0:0:
182,192,17788,1,0,0:0:0:70:KicK.wav
256,192,17873,1,0,0:0:0:0:
475,192,17958,1,0,0:0:0:0:
329,192,18042,1,0,0:0:0:0:
182,192,18127,1,0,0:0:0:70:KicK.wav
36,192,18127,1,0,0:0:0:0:
475,192,18297,1,0,0:0:0:70:KicK.wav
182,192,18297,1,0,0:0:0:70:CrashL.wav
36,192,18297,1,0,0:0:0:0:
402,192,18466,1,0,0:0:0:70:HihaT.wav
182,192,18636,128,0,18805:0:0:0:0:
329,192,18636,1,0,0:0:0:70:Snare.wav
36,192,18636,128,0,18805:0:0:0:0:
402,192,18805,1,0,0:0:0:70:HihaT.wav
109,192,18975,1,0,0:0:0:0:
475,192,18975,1,0,0:0:0:70:KicK.wav
109,192,19144,1,0,0:0:0:70:HihaT.wav
182,192,19229,1,0,0:0:0:0:
402,192,19314,128,0,19398:0:0:0:70:Snare.wav
475,192,19314,128,0,19398:0:0:0:0:
256,192,19314,1,0,0:0:0:0:
109,192,19483,128,0,19568:0:0:0:0:
36,192,19483,128,0,19568:0:0:0:70:HihaT.wav
475,192,19653,1,0,0:0:0:0:
256,192,19653,1,0,0:0:0:70:KicK.wav
182,192,19822,1,0,0:0:0:70:HihaT.wav
109,192,19992,1,0,0:0:0:0:
329,192,19992,1,0,0:0:0:70:Snare.wav
475,192,19992,1,0,0:0:0:0:
256,192,20161,1,0,0:0:0:70:HihaT.wav
36,192,20331,128,0,20415:0:0:0:0:
475,192,20331,1,0,0:0:0:70:KicK.wav
182,192,20331,128,0,20415:0:0:0:0:
402,192,20500,128,0,20585:0:0:0:0:
256,192,20500,128,0,20585:0:0:0:70:HihaT.wav
329,192,20670,128,0,20754:0:0:0:0:
36,192,20670,1,0,0:0:0:70:Snare.wav
182,192,20670,128,0,20754:0:0:0:0:
402,192,20839,128,0,20924:0:0:0:0:
475,192,20839,128,0,20924:0:0:0:70:HihaT.wav
36,192,21008,1,0,0:0:0:0:
256,192,21008,1,0,0:0:0:70:KicK.wav
109,192,21178,1,0,0:0:0:70:HihaT.wav
475,192,21347,128,0,21517:0:0:0:0:
329,192,21347,128,0,21517:0:0:0:0:
182,192,21347,1,0,0:0:0:70:Snare.wav
109,192,21517,1,0,0:0:0:70:HihaT.wav
329,192,21686,1,0,0:0:0:0:
36,192,21686,1,0,0:0:0:70:KicK.wav
329,192,21856,1,0,0:0:0:70:HihaT.wav
402,192,21941,1,0,0:0:0:0:
475,192,22025,1,0,0:0:0:70:KicK.wav
109,192,22025,128,0,22110:0:0:0:0:
256,192,22025,128,0,22110:0:0:0:0:
182,192,22195,128,0,22280:0:0:0:0:
329,192,22195,128,0,22280:0:0:0:70:HihaT.wav
36,192,22364,1,0,0:0:0:0:
475,192,22364,1,0,0:0:0:70:KicK.wav
329,192,22534,1,0,0:0:0:70:CrashL.wav
475,192,22534,1,0,0:0:0:70:KicK.wav
182,192,22534,1,0,0:0:0:0:
36,192,22534,1,0,0:0:0:0:
109,192,22703,1,0,0:0:0:70:KicK.wav
402,192,22703,1,0,0:0:0:70:CrashS.wav
256,192,22788,1,0,0:0:0:70:KicK.wav
256,192,22958,1,0,0:0:0:70:KicK.wav
109,192,23042,1,0,0:0:0:70:KicK.wav
402,192,23042,1,0,0:0:0:70:CrashS.wav
36,192,23212,1,0,0:0:0:0:
182,192,23212,1,0,0:0:0:70:KicK.wav
329,192,23212,1,0,0:0:0:70:CrashL.wav
475,192,23212,1,0,0:0:0:0:
109,192,23720,1,0,0:0:0:0:
256,192,23720,128,0,24653:0:0:0:0:
402,192,23805,1,0,0:0:0:0:
109,192,23975,1,0,0:0:0:0:
402,192,24059,1,0,0:0:0:0:
402,192,24229,1,0,0:0:0:0:
402,192,24398,1,0,0:0:0:0:
329,192,24653,1,0,0:0:0:70:CrashS.wav
36,192,24653,1,0,0:0:0:70:KicK.wav
182,192,24653,1,0,0:0:0:0:
256,192,24907,1,0,0:0:0:0:
36,192,24907,1,0,0:0:0:70:KicK.wav
475,192,25076,1,0,0:0:0:0:
329,192,25076,1,0,0:0:0:70:CrashL.wav
36,192,25076,1,0,0:0:0:70:KicK.wav
182,192,25076,1,0,0:0:0:0:
109,192,25415,1,0,0:0:0:0:
182,192,25585,1,0,0:0:0:0:
256,192,25754,1,0,0:0:0:0:
109,192,26093,1,0,0:0:0:0:
182,192,26263,1,0,0:0:0:0:
402,192,26263,1,0,0:0:0:70:KicK.wav
256,192,26432,1,0,0:0:0:0:
402,192,26432,1,0,0:0:0:70:KicK.wav
182,192,26602,1,0,0:0:0:0:
109,192,26771,1,0,0:0:0:0:
402,192,26941,1,0,0:0:0:70:KicK.wav
256,192,26941,1,0,0:0:0:0:
402,192,27110,1,0,0:0:0:70:KicK.wav
109,192,27110,1,0,0:0:0:0:
182,192,27449,1,0,0:0:0:0:
36,192,27619,1,0,0:0:0:70:KicK.wav
329,192,27619,1,0,0:0:0:0:
36,192,27788,1,0,0:0:0:70:KicK.wav
475,192,27788,1,0,0:0:0:0:
182,192,28127,1,0,0:0:0:0:
329,192,28297,1,0,0:0:0:0:
475,192,28466,1,0,0:0:0:0:
182,192,28805,1,0,0:0:0:0:
36,192,28975,1,0,0:0:0:70:KicK.wav
329,192,28975,1,0,0:0:0:0:
36,192,29144,1,0,0:0:0:70:KicK.wav
475,192,29144,1,0,0:0:0:0:
402,192,29314,1,0,0:0:0:0:
329,192,29483,1,0,0:0:0:0:
36,192,29653,1,0,0:0:0:70:KicK.wav
475,192,29653,1,0,0:0:0:0:
36,192,29822,1,0,0:0:0:70:KicK.wav
329,192,29822,1,0,0:0:0:0:
36,192,30161,1,0,0:0:0:0:
475,192,30331,1,0,0:0:0:70:KicK.wav
109,192,30331,1,0,0:0:0:0:
475,192,30500,1,0,0:0:0:70:KicK.wav
182,192,30500,1,0,0:0:0:0:
109,192,30839,1,0,0:0:0:0:
182,192,31008,1,0,0:0:0:0:
256,192,31178,1,0,0:0:0:0:
182,192,31517,1,0,0:0:0:0:
475,192,31686,1,0,0:0:0:70:KicK.wav
256,192,31686,1,0,0:0:0:0:
475,192,31856,1,0,0:0:0:70:KicK.wav
329,192,31856,1,0,0:0:0:0:
256,192,32025,1,0,0:0:0:0:
182,192,32195,1,0,0:0:0:0:
475,192,32364,1,0,0:0:0:70:KicK.wav
329,192,32364,1,0,0:0:0:0:
475,192,32534,1,0,0:0:0:70:KicK.wav
182,192,32534,1,0,0:0:0:0:
182,192,32873,1,0,0:0:0:0:
475,192,33042,1,0,0:0:0:70:KicK.wav
256,192,33042,1,0,0:0:0:0:
475,192,33212,1,0,0:0:0:0:
109,192,33212,128,0,33551:0:0:0:70:KicK.wav
36,192,33212,128,0,33551:0:0:0:0:
329,192,33212,1,0,0:0:0:0:
329,192,33551,1,0,0:0:0:0:
402,192,33720,1,0,0:0:0:0:
256,192,33890,1,0,0:0:0:0:
36,192,33890,128,0,34229:0:0:0:0:
109,192,33890,128,0,34229:0:0:0:0:
475,192,33890,1,0,0:0:0:0:
475,192,34229,1,0,0:0:0:0:
402,192,34398,1,0,0:0:0:0:
329,192,34568,128,0,34737:0:0:0:0:
182,192,34568,128,0,34737:0:0:0:0:
109,192,34568,128,0,34737:0:0:0:0:
36,192,34568,128,0,34737:0:0:0:0:
256,192,34907,128,0,35161:0:0:0:0:
402,192,34907,128,0,35161:0:0:0:0:
475,192,34907,128,0,35161:0:0:0:0:
182,192,35246,1,0,0:0:0:0:
329,192,35246,1,0,0:0:0:0:
475,192,35246,1,0,0:0:0:0:
36,192,35246,1,0,0:0:0:0:
402,192,35585,1,0,0:0:0:70:BeLL.wav
402,192,35754,1,0,0:0:0:70:BeLL.wav
36,192,35924,1,0,0:0:0:70:KicK.wav
475,192,35924,1,0,0:0:0:70:BeLL.wav
256,192,35924,1,0,0:0:0:70:CrashL.wav
402,192,35924,1,0,0:0:0:0:
109,192,36008,1,0,0:0:0:0:
182,192,36093,1,0,0:0:0:0:
475,192,36178,1,0,0:0:0:0:
329,192,36263,1,0,0:0:0:70:Snare.wav
109,192,36347,1,0,0:0:0:0:
182,192,36432,1,0,0:0:0:0:
256,192,36517,1,0,0:0:0:0:
475,192,36602,1,0,0:0:0:70:KicK.wav
329,192,36686,1,0,0:0:0:0:
182,192,36771,1,0,0:0:0:0:
36,192,36856,1,0,0:0:0:0:
256,192,36941,1,0,0:0:0:70:Snare.wav
402,192,37025,1,0,0:0:0:0:
182,192,37110,1,0,0:0:0:0:
329,192,37195,1,0,0:0:0:0:
36,192,37280,128,0,37364:0:0:0:70:KicK.wav
475,192,37280,128,0,37364:0:0:0:0:
109,192,37449,128,0,37534:0:0:0:0:
402,192,37449,128,0,37534:0:0:0:0:
182,192,37619,128,0,37703:0:0:0:70:Snare.wav
329,192,37619,128,0,37703:0:0:0:0:
36,192,37788,128,0,37873:0:0:0:0:
182,192,37788,128,0,37873:0:0:0:0:
329,192,37958,128,0,38042:0:0:0:70:KicK.wav
475,192,37958,128,0,38042:0:0:0:0:
36,192,38127,1,0,0:0:0:0:
256,192,38127,1,0,0:0:0:0:
182,192,38212,1,0,0:0:0:70:KicK.wav
329,192,38297,1,0,0:0:0:70:KicK.wav
109,192,38297,1,0,0:0:0:70:Snare.wav
402,192,38466,1,0,0:0:0:0:
182,192,38466,1,0,0:0:0:0:
475,192,38636,1,0,0:0:0:0:
256,192,38636,1,0,0:0:0:70:KicK.wav
36,192,38636,1,0,0:0:0:0:
402,192,38720,1,0,0:0:0:0:
329,192,38805,1,0,0:0:0:0:
36,192,38890,1,0,0:0:0:0:
182,192,38975,1,0,0:0:0:70:Snare.wav
329,192,39059,1,0,0:0:0:0:
475,192,39144,1,0,0:0:0:0:
256,192,39229,1,0,0:0:0:0:
36,192,39314,1,0,0:0:0:70:KicK.wav
109,192,39398,1,0,0:0:0:0:
182,192,39483,1,0,0:0:0:0:
329,192,39568,1,0,0:0:0:0:
256,192,39653,1,0,0:0:0:70:Snare.wav
182,192,39737,1,0,0:0:0:0:
475,192,39822,1,0,0:0:0:0:
329,192,39907,1,0,0:0:0:0:
182,192,39992,128,0,40076:0:0:0:70:KicK.wav
36,192,39992,128,0,40076:0:0:0:0:
182,192,40161,128,0,40246:0:0:0:0:
329,192,40161,128,0,40246:0:0:0:0:
329,192,40331,128,0,40415:0:0:0:70:Snare.wav
475,192,40331,128,0,40415:0:0:0:0:
256,192,40500,128,0,40585:0:0:0:0:
402,192,40500,128,0,40585:0:0:0:0:
182,192,40670,128,0,40754:0:0:0:70:KicK.wav
329,192,40670,128,0,40754:0:0:0:0:
36,192,40839,1,0,0:0:0:0:
182,192,40839,1,0,0:0:0:0:
256,192,40924,1,0,0:0:0:70:KicK.wav
329,192,41008,1,0,0:0:0:70:KicK.wav
475,192,41008,1,0,0:0:0:70:Snare.wav
475,192,41178,1,0,0:0:0:70:KicK.wav
256,192,41178,1,0,0:0:0:0:
36,192,41347,1,0,0:0:0:0:
182,192,41347,1,0,0:0:0:0:
475,192,41347,1,0,0:0:0:70:KicK.wav
402,192,41432,1,0,0:0:0:0:
329,192,41517,1,0,0:0:0:0:
36,192,41602,1,0,0:0:0:0:
182,192,41686,1,0,0:0:0:70:Snare.wav
329,192,41771,1,0,0:0:0:0:
256,192,41856,1,0,0:0:0:0:
182,192,41941,1,0,0:0:0:0:
329,192,42025,1,0,0:0:0:70:KicK.wav
475,192,42110,1,0,0:0:0:0:
36,192,42195,1,0,0:0:0:0:
182,192,42280,1,0,0:0:0:0:
329,192,42364,1,0,0:0:0:70:Snare.wav
256,192,42449,1,0,0:0:0:0:
182,192,42534,1,0,0:0:0:0:
109,192,42619,1,0,0:0:0:0:
36,192,42703,128,0,42788:0:0:0:0:
475,192,42703,128,0,42788:0:0:0:70:KicK.wav
109,192,42873,128,0,42958:0:0:0:0:
402,192,42873,128,0,42958:0:0:0:0:
182,192,43042,128,0,43127:0:0:0:0:
329,192,43042,128,0,43127:0:0:0:70:Snare.wav
475,192,43212,128,0,43297:0:0:0:0:
329,192,43212,128,0,43297:0:0:0:0:
36,192,43381,128,0,43466:0:0:0:0:
182,192,43381,128,0,43466:0:0:0:70:KicK.wav
402,192,43551,1,0,0:0:0:0:
182,192,43551,1,0,0:0:0:0:
256,192,43636,1,0,0:0:0:70:KicK.wav
329,192,43720,1,0,0:0:0:70:Snare.wav
109,192,43720,1,0,0:0:0:70:KicK.wav
36,192,43890,1,0,0:0:0:0:
256,192,43890,1,0,0:0:0:0:
329,192,44059,1,0,0:0:0:70:KicK.wav
182,192,44059,1,0,0:0:0:0:
475,192,44059,1,0,0:0:0:0:
36,192,44144,1,0,0:0:0:0:
256,192,44229,1,0,0:0:0:0:
109,192,44314,1,0,0:0:0:0:
402,192,44398,1,0,0:0:0:70:Snare.wav
329,192,44483,1,0,0:0:0:0:
256,192,44568,1,0,0:0:0:0:
182,192,44653,1,0,0:0:0:0:
475,192,44737,1,0,0:0:0:70:KicK.wav
329,192,44822,1,0,0:0:0:0:
36,192,44907,1,0,0:0:0:0:
182,192,44992,1,0,0:0:0:0:
329,192,45076,1,0,0:0:0:70:Snare.wav
109,192,45161,1,0,0:0:0:0:
182,192,45246,1,0,0:0:0:0:
256,192,45331,1,0,0:0:0:0:
475,192,45415,128,0,45500:0:0:0:70:KicK.wav
329,192,45415,128,0,45500:0:0:0:0:
36,192,45585,1,0,0:0:0:0:
182,192,45585,1,0,0:0:0:0:
329,192,45670,1,0,0:0:0:70:KicK.wav
36,192,45754,128,0,45839:0:0:0:70:Snare.wav
182,192,45754,128,0,45839:0:0:0:70:KicK.wav
109,192,45924,128,0,46008:0:0:0:70:KicK.wav
256,192,45924,128,0,46008:0:0:0:0:
329,192,46093,128,0,46178:0:0:0:0:
182,192,46093,128,0,46178:0:0:0:70:KicK.wav
475,192,46263,1,0,0:0:0:0:
329,192,46263,1,0,0:0:0:0:
256,192,46347,1,0,0:0:0:70:KicK.wav
36,192,46432,1,0,0:0:0:70:KicK.wav
182,192,46432,1,0,0:0:0:70:Snare.wav
329,192,46602,1,0,0:0:0:0:
182,192,46602,1,0,0:0:0:70:KicK.wav
36,192,46771,128,0,47364:0:0:0:70:CrashL.wav
329,192,46771,1,0,0:0:0:70:KicK.wav
475,192,46771,1,0,0:0:0:0:
182,192,46856,1,0,0:0:0:0:
402,192,46941,1,0,0:0:0:0:
182,192,47025,1,0,0:0:0:0:
329,192,47110,1,0,0:0:0:70:Snare.wav
475,192,47195,1,0,0:0:0:0:
329,192,47280,1,0,0:0:0:0:
182,192,47364,1,0,0:0:0:0:
36,192,47449,128,0,47534:0:0:0:70:KicK.wav
256,192,47534,1,0,0:0:0:0:
109,192,47619,128,0,47703:0:0:0:0:
329,192,47703,1,0,0:0:0:0:
182,192,47788,128,0,47873:0:0:0:70:Snare.wav
402,192,47873,1,0,0:0:0:0:
256,192,47958,128,0,48042:0:0:0:0:
475,192,48042,1,0,0:0:0:0:
329,192,48127,128,0,48466:0:0:0:0:
36,192,48127,1,0,0:0:0:70:KicK.wav
182,192,48212,1,0,0:0:0:0:
475,192,48297,1,0,0:0:0:0:
182,192,48381,1,0,0:0:0:70:KicK.wav
36,192,48466,128,0,48551:0:0:0:70:Snare.wav
329,192,48551,1,0,0:0:0:0:
109,192,48636,128,0,48720:0:0:0:70:KicK.wav
256,192,48720,1,0,0:0:0:0:
36,192,48805,128,0,49144:0:0:0:70:KicK.wav
182,192,48890,1,0,0:0:0:0:
329,192,48975,1,0,0:0:0:0:
475,192,49059,1,0,0:0:0:70:KicK.wav
329,192,49144,128,0,49229:0:0:0:70:Snare.wav
182,192,49229,1,0,0:0:0:0:
402,192,49314,128,0,49398:0:0:0:70:KicK.wav
256,192,49398,1,0,0:0:0:0:
475,192,49483,128,0,50161:0:0:0:70:KicK.wav
36,192,49483,1,0,0:0:0:0:
182,192,49568,1,0,0:0:0:0:
329,192,49653,1,0,0:0:0:0:
109,192,49737,1,0,0:0:0:0:
256,192,49822,1,0,0:0:0:70:Snare.wav
109,192,49907,1,0,0:0:0:0:
402,192,49992,1,0,0:0:0:0:
256,192,50076,1,0,0:0:0:0:
109,192,50161,128,0,50246:0:0:0:70:KicK.wav
329,192,50246,1,0,0:0:0:0:
182,192,50331,128,0,50415:0:0:0:0:
402,192,50415,1,0,0:0:0:70:KicK.wav
256,192,50500,128,0,50585:0:0:0:70:Snare.wav
109,192,50585,1,0,0:0:0:0:
329,192,50670,128,0,50754:0:0:0:70:KicK.wav
182,192,50754,1,0,0:0:0:0:
402,192,50839,128,0,51178:0:0:0:70:KicK.wav
36,192,50839,1,0,0:0:0:0:
256,192,50924,1,0,0:0:0:0:
109,192,51008,1,0,0:0:0:0:
329,192,51093,1,0,0:0:0:70:KicK.wav
182,192,51178,128,0,51263:0:0:0:70:Snare.wav
329,192,51263,1,0,0:0:0:0:
109,192,51347,128,0,51432:0:0:0:70:KicK.wav
402,192,51432,1,0,0:0:0:0:
36,192,51517,128,0,51771:0:0:0:70:KicK.wav
475,192,51602,1,0,0:0:0:0:
329,192,51686,1,0,0:0:0:0:
182,192,51771,1,0,0:0:0:0:
36,192,51856,1,0,0:0:0:0:
475,192,51856,1,0,0:0:0:70:KicK.wav
329,192,51856,1,0,0:0:0:70:Snare.wav
402,192,52025,1,0,0:0:0:70:KicK.wav
256,192,52025,1,0,0:0:0:0:
109,192,52025,1,0,0:0:0:0:
182,192,52195,1,0,0:0:0:0:
329,192,52195,1,0,0:0:0:70:CrashL.wav
36,192,52195,1,0,0:0:0:0:
475,192,52195,1,0,0:0:0:70:KicK.wav
109,192,52534,128,0,52873:0:0:0:0:
256,192,52703,128,0,52873:0:0:0:0:
402,192,52873,1,0,0:0:0:0:
475,192,52873,1,0,0:0:0:70:KicK.wav
402,192,53212,1,0,0:0:0:70:Emphasized.wav
475,192,53212,1,0,0:0:0:70:KicK.wav
109,192,53212,1,0,0:0:0:0:
256,192,53212,1,0,0:0:0:0:
36,192,53551,128,0,53805:0:0:0:70:KicK.wav
329,192,53720,128,0,53975:0:0:0:0:
36,192,53890,128,0,54144:0:0:0:70:KicK.wav
329,192,54059,128,0,54229:0:0:0:0:
475,192,54229,1,0,0:0:0:70:CrashS.wav
36,192,54229,1,0,0:0:0:70:KicK.wav
182,192,54229,1,0,0:0:0:0:
329,192,54398,1,0,0:0:0:0:
256,192,54483,1,0,0:0:0:0:
182,192,54568,128,0,54822:0:0:0:0:
402,192,54568,128,0,54822:0:0:0:0:
329,192,54907,1,0,0:0:0:70:KicK.wav
182,192,54907,1,0,0:0:0:0:
36,192,54907,1,0,0:0:0:0:
475,192,54907,1,0,0:0:0:70:CrashL.wav
475,192,55161,1,0,0:0:0:70:KicK.wav
36,192,55161,1,0,0:0:0:0:
329,192,55246,1,0,0:0:0:70:KicK.wav
182,192,55246,1,0,0:0:0:0:
329,192,55415,1,0,0:0:0:70:KicK.wav
182,192,55415,1,0,0:0:0:0:
256,192,55585,1,0,0:0:0:0:
475,192,55585,1,0,0:0:0:0:
36,192,55585,1,0,0:0:0:0:
402,192,55585,1,0,0:0:0:70:KicK.wav
329,192,55754,1,0,0:0:0:70:KicK.wav
109,192,55754,1,0,0:0:0:0:
402,192,55924,1,0,0:0:0:0:
182,192,55924,1,0,0:0:0:70:KicK.wav
256,192,56093,1,0,0:0:0:0:
475,192,56093,1,0,0:0:0:70:KicK.wav
256,192,56263,128,0,56432:0:0:0:0:
109,192,56263,128,0,56432:0:0:0:70:KicK.wav
36,192,56263,128,0,56432:0:0:0:0:
475,192,56263,128,0,56432:0:0:0:70:CrashS.wav
182,192,56602,128,0,56856:0:0:0:70:KicK.wav
36,192,56602,128,0,56856:0:0:0:0:
329,192,56602,128,0,56856:0:0:0:70:CrashS.wav
475,192,56941,1,0,0:0:0:70:KicK.wav
402,192,56941,1,0,0:0:0:0:
256,192,56941,1,0,0:0:0:70:CrashS.wav
109,192,56941,1,0,0:0:0:0:
329,192,57619,1,0,0:0:0:70:KicK.wav
475,192,57619,1,0,0:0:0:0:
36,192,57619,128,0,57958:0:0:0:70:BeLL.wav
182,192,57619,1,0,0:0:0:70:CrashL.wav
256,192,57788,1,0,0:0:0:0:
329,192,57958,1,0,0:0:0:0:
36,192,58127,128,0,58466:0:0:0:70:KicK.wav
182,192,58127,1,0,0:0:0:70:CrashS.wav
402,192,58127,1,0,0:0:0:0:
329,192,58297,1,0,0:0:0:0:
402,192,58466,1,0,0:0:0:0:
182,192,58636,1,0,0:0:0:70:KicK.wav
36,192,58636,128,0,58975:0:0:0:70:CrashS.wav
475,192,58636,1,0,0:0:0:0:
182,192,58805,1,0,0:0:0:0:
329,192,58890,1,0,0:0:0:0:
475,192,58975,1,0,0:0:0:0:
256,192,59144,1,0,0:0:0:70:CrashS.wav
475,192,59144,128,0,59483:0:0:0:0:
36,192,59144,1,0,0:0:0:70:KicK.wav
109,192,59314,1,0,0:0:0:0:
182,192,59483,1,0,0:0:0:0:
329,192,59653,1,0,0:0:0:70:KicK.wav
182,192,59653,1,0,0:0:0:0:
402,192,59737,1,0,0:0:0:70:KicK.wav
329,192,59822,1,0,0:0:0:0:
109,192,59822,1,0,0:0:0:70:KicK.wav
182,192,59907,1,0,0:0:0:70:KicK.wav
36,192,59992,1,0,0:0:0:70:CrashL.wav
402,192,59992,1,0,0:0:0:70:KicK.wav
475,192,59992,1,0,0:0:0:0:
256,192,59992,128,0,60331:0:0:0:70:BeLL.wav
182,192,60161,1,0,0:0:0:0:
329,192,60331,1,0,0:0:0:0:
256,192,60500,128,0,60839:0:0:0:70:KicK.wav
36,192,60500,1,0,0:0:0:70:CrashS.wav
475,192,60500,1,0,0:0:0:0:
329,192,60670,1,0,0:0:0:0:
182,192,60839,1,0,0:0:0:0:
36,192,61008,1,0,0:0:0:70:KicK.wav
256,192,61008,128,0,61347:0:0:0:70:CrashS.wav
475,192,61008,1,0,0:0:0:0:
475,192,61178,1,0,0:0:0:0:
329,192,61263,1,0,0:0:0:0:
182,192,61347,1,0,0:0:0:0:
475,192,61517,1,0,0:0:0:70:CrashS.wav
182,192,61517,128,0,61856:0:0:0:0:
36,192,61517,1,0,0:0:0:70:KicK.wav
402,192,61686,1,0,0:0:0:0:
329,192,61856,1,0,0:0:0:0:
329,192,62025,1,0,0:0:0:70:KicK.wav
36,192,62025,1,0,0:0:0:0:
109,192,62110,1,0,0:0:0:70:KicK.wav
182,192,62195,1,0,0:0:0:0:
402,192,62195,1,0,0:0:0:70:KicK.wav
329,192,62280,1,0,0:0:0:70:KicK.wav
475,192,62364,128,0,62703:0:0:0:70:BeLL.wav
36,192,62364,1,0,0:0:0:0:
109,192,62364,1,0,0:0:0:70:CrashL.wav
256,192,62364,1,0,0:0:0:70:KicK.wav
329,192,62534,1,0,0:0:0:0:
256,192,62703,1,0,0:0:0:0:
36,192,62873,1,0,0:0:0:0:
182,192,62873,1,0,0:0:0:70:CrashS.wav
475,192,62873,128,0,63212:0:0:0:70:KicK.wav
256,192,63042,1,0,0:0:0:0:
182,192,63212,1,0,0:0:0:0:
475,192,63381,128,0,63720:0:0:0:70:CrashS.wav
109,192,63381,1,0,0:0:0:70:KicK.wav
329,192,63381,1,0,0:0:0:0:
109,192,63551,1,0,0:0:0:0:
182,192,63636,1,0,0:0:0:0:
256,192,63720,1,0,0:0:0:0:
36,192,63890,1,0,0:0:0:70:KicK.wav
256,192,63890,128,0,64229:0:0:0:0:
475,192,63890,1,0,0:0:0:70:CrashS.wav
182,192,64059,1,0,0:0:0:0:
329,192,64229,1,0,0:0:0:0:
329,192,64398,1,0,0:0:0:70:KicK.wav
182,192,64398,1,0,0:0:0:0:
402,192,64483,1,0,0:0:0:70:KicK.wav
182,192,64568,1,0,0:0:0:70:KicK.wav
475,192,64568,1,0,0:0:0:0:
256,192,64653,1,0,0:0:0:70:KicK.wav
329,192,64737,1,0,0:0:0:70:CrashL.wav
36,192,64737,1,0,0:0:0:70:KicK.wav
109,192,64737,128,0,65076:0:0:0:70:BeLL.wav
475,192,64737,1,0,0:0:0:0:
182,192,64907,1,0,0:0:0:0:
329,192,65076,1,0,0:0:0:0:
109,192,65246,128,0,65585:0:0:0:70:KicK.wav
256,192,65246,1,0,0:0:0:70:CrashS.wav
475,192,65246,1,0,0:0:0:0:
402,192,65415,1,0,0:0:0:0:
329,192,65585,1,0,0:0:0:0:
475,192,65754,1,0,0:0:0:0:
256,192,65754,1,0,0:0:0:70:KicK.wav
109,192,65754,128,0,66093:0:0:0:70:CrashS.wav
256,192,65924,1,0,0:0:0:0:
329,192,66008,1,0,0:0:0:0:
402,192,66093,1,0,0:0:0:0:
256,192,66263,1,0,0:0:0:70:CrashS.wav
402,192,66263,128,0,66602:0:0:0:0:
36,192,66263,1,0,0:0:0:70:KicK.wav
109,192,66432,1,0,0:0:0:0:
182,192,66602,1,0,0:0:0:0:
475,192,66771,1,0,0:0:0:0:
329,192,66771,1,0,0:0:0:70:KicK.wav
182,192,66771,1,0,0:0:0:0:
109,192,66856,1,0,0:0:0:70:KicK.wav
36,192,66941,1,0,0:0:0:70:KicK.wav
329,192,66941,1,0,0:0:0:0:
256,192,67025,1,0,0:0:0:70:KicK.wav
182,192,67110,1,0,0:0:0:0:
36,192,67110,1,0,0:0:0:0:
402,192,67110,1,0,0:0:0:0:
475,192,67110,1,0,0:0:0:0:
