osu file format v14

[General]
AudioFilename: audio.mp3
AudioLeadIn: 0
PreviewTime: 92195
Countdown: 0
SampleSet: Soft
StackLeniency: 0.7
Mode: 3
LetterboxInBreaks: 0
SpecialStyle: 0
WidescreenStoryboard: 0

[Editor]
Bookmarks: 670,6093,11517,12865,16941,18297,22534,23212,23720,24737,25076,33212,34568,35246,35924,46771,52873,53212,54907,56263,56941,67110,69144,69483,71517,71856,73890,74229,76263,76602,78805,79314,87449,90500,91517,92195,92873,103381,103720,109144,113890,114568,122703,125415,130839,138297,140161,144398
DistanceSpacing: 0.9
BeatDivisor: 4
GridSize: 16
TimelineZoom: 0.5

[Metadata]
Title:Lyrith -Meikyu Lilith-
TitleUnicode:Lyrith -迷宮リリス-
Artist:Yumemido
ArtistUnicode:ユメミド
Creator:Kawawa
Version:Beginner
Source:BMS
Tags:BOFU2017 -LEGENDA EST A MYTH- THE BMS OF FIGHTERS ULTIMATE 2017 めいきゅう 孤高クローバー エース 遥壱朗 テンソル FRENZ IRON MAIDEN
BeatmapID:1436700
BeatmapSetID:679414

[Difficulty]
HPDrainRate:7
CircleSize:7
OverallDifficulty:7
ApproachRate:5
SliderMultiplier:1.4
SliderTickRate:1

[Events]
//Background and Video events
Video,-177,"Ramuchi Converted.mp4"
0,0,"BG.png",0,0
//Break Periods
//Storyboard Layer 0 (Background)
//Storyboard Layer 1 (Fail)
//Storyboard Layer 2 (Pass)
//Storyboard Layer 3 (Foreground)
//Storyboard Sound Samples

[TimingPoints]
670,338.983050847458,4,2,1,20,1,0
16941,-100,4,2,1,20,0,1
18297,-100,4,2,1,20,0,0
22534,-100,4,2,1,20,0,1
23212,-100,4,2,1,20,0,0
24737,-100,4,2,1,20,0,1
25076,-100,4,2,1,20,0,0
34568,-100,4,2,1,20,0,1
35246,-100,4,2,1,20,0,0
52873,-100,4,2,1,20,0,1
53212,-100,4,2,1,20,0,0
56263,-100,4,2,1,20,0,1
56941,-100,4,2,1,20,0,0
69144,-100,4,2,1,20,0,1
69483,-100,4,2,1,20,0,0
71517,-100,4,2,1,20,0,1
71856,-100,4,2,1,20,0,0
73890,-100,4,2,1,20,0,1
74229,-100,4,2,1,20,0,0
76263,-100,4,2,1,20,0,1
76602,-100,4,2,1,20,0,0
78805,-100,4,2,1,20,0,1
79314,-100,4,2,1,20,0,0
90500,-100,4,2,1,20,0,1
91517,-100,4,2,1,20,0,0
92873,-100,4,2,1,20,0,1
103381,-100,4,2,1,20,0,0
103720,-100,4,2,1,20,0,1
109144,-100,4,2,1,20,0,0
113890,-100,4,2,1,20,0,1
114568,-100,4,2,1,20,0,0
122703,-100,4,2,1,20,0,1
125415,-100,4,2,1,20,0,0
130839,-100,4,2,1,20,0,1
138297,-100,4,2,1,20,0,0
144059,-100,4,2,1,20,0,1
144398,-100,4,2,1,20,0,0

[HitObjects]
475,192,670,5,0,0:0:0:0:
36,192,1008,1,0,0:0:0:0:
182,192,1347,1,0,0:0:0:0:
329,192,1686,1,0,0:0:0:0:
475,192,2025,1,0,0:0:0:0:
256,192,2703,1,0,0:0:0:0:
36,192,3381,1,0,0:0:0:0:
109,192,3720,1,0,0:0:0:0:
182,192,4059,1,0,0:0:0:0:
256,192,4398,1,0,0:0:0:0:
329,192,4737,128,0,5415:0:0:0:0:
36,192,5415,1,0,0:0:0:0:
36,192,6093,128,0,7449:0:0:0:0:
329,192,6093,1,0,0:0:0:70:Cymbal.wav
256,192,7449,128,0,10161:0:0:0:0:
475,192,8805,128,0,10161:0:0:0:0:
36,192,10161,128,0,11517:0:0:0:0:
182,192,10839,128,0,11517:0:0:0:0:
329,192,11517,1,0,0:0:0:70:BeLL.wav
475,192,12873,1,0,0:0:0:70:KicK.wav
36,192,12873,1,0,0:0:0:70:CrashL.wav
475,192,14229,1,0,0:0:0:70:KicK.wav
36,192,14229,1,0,0:0:0:70:CrashL.wav
109,192,15585,1,0,0:0:0:70:CrashL.wav
402,192,15585,1,0,0:0:0:70:KicK.wav
402,192,16263,1,0,0:0:0:70:KicK.wav
109,192,16263,1,0,0:0:0:70:CrashL.wav
256,192,16941,128,0,18297:0:0:0:0:
36,192,18297,1,0,0:0:0:70:CrashL.wav
475,192,18297,1,0,0:0:0:70:KicK.wav
475,192,18636,1,0,0:0:0:70:Snare.wav
36,192,18975,1,0,0:0:0:70:KicK.wav
182,192,19314,1,0,0:0:0:70:Snare.wav
329,192,19653,1,0,0:0:0:70:KicK.wav
256,192,19992,1,0,0:0:0:70:Snare.wav
182,192,20331,1,0,0:0:0:70:KicK.wav
329,192,20670,1,0,0:0:0:70:Snare.wav
475,192,21008,1,0,0:0:0:70:KicK.wav
475,192,21347,1,0,0:0:0:70:Snare.wav
36,192,21686,1,0,0:0:0:70:KicK.wav
182,192,22025,1,0,0:0:0:70:Snare.wav
36,192,22364,1,0,0:0:0:70:KicK.wav
475,192,22534,128,0,23212:0:0:0:70:CrashL.wav
329,192,22534,128,0,23212:0:0:0:70:KicK.wav
36,192,23212,1,0,0:0:0:70:CrashL.wav
182,192,23212,1,0,0:0:0:70:KicK.wav
256,192,23720,128,0,24653:0:0:0:0:
109,192,25076,1,0,0:0:0:70:KicK.wav
402,192,25076,1,0,0:0:0:70:CrashL.wav
109,192,26263,1,0,0:0:0:70:KicK.wav
329,192,26432,1,0,0:0:0:70:KicK.wav
109,192,26941,1,0,0:0:0:70:KicK.wav
329,192,27110,1,0,0:0:0:70:KicK.wav
109,192,27619,1,0,0:0:0:70:KicK.wav
329,192,27788,1,0,0:0:0:70:KicK.wav
182,192,28975,1,0,0:0:0:70:KicK.wav
402,192,29144,1,0,0:0:0:70:KicK.wav
182,192,29653,1,0,0:0:0:70:KicK.wav
402,192,29822,1,0,0:0:0:70:KicK.wav
182,192,30331,1,0,0:0:0:70:KicK.wav
402,192,30500,1,0,0:0:0:70:KicK.wav
256,192,31686,1,0,0:0:0:70:KicK.wav
475,192,31856,1,0,0:0:0:70:KicK.wav
256,192,32364,1,0,0:0:0:70:KicK.wav
475,192,32534,1,0,0:0:0:70:KicK.wav
256,192,33042,1,0,0:0:0:70:KicK.wav
475,192,33212,1,0,0:0:0:70:KicK.wav
36,192,33212,1,0,0:0:0:70:CrashL.wav
36,192,33890,1,0,0:0:0:70:CrashL.wav
402,192,33890,1,0,0:0:0:70:KicK.wav
36,192,34568,1,0,0:0:0:70:CrashS.wav
329,192,34568,1,0,0:0:0:70:KicK.wav
182,192,34907,1,0,0:0:0:70:CrashS.wav
329,192,35246,1,0,0:0:0:70:KicK.wav
36,192,35246,1,0,0:0:0:70:CrashS.wav
475,192,35924,1,0,0:0:0:70:KicK.wav
182,192,35924,1,0,0:0:0:70:CrashL.wav
182,192,36263,1,0,0:0:0:70:Snare.wav
329,192,36602,1,0,0:0:0:70:KicK.wav
329,192,36941,1,0,0:0:0:70:Snare.wav
109,192,37280,1,0,0:0:0:70:KicK.wav
256,192,37619,1,0,0:0:0:70:Snare.wav
402,192,37958,1,0,0:0:0:70:KicK.wav
329,192,38297,1,0,0:0:0:70:Snare.wav
256,192,38636,1,0,0:0:0:70:KicK.wav
256,192,38975,1,0,0:0:0:70:Snare.wav
475,192,39314,1,0,0:0:0:70:KicK.wav
475,192,39653,1,0,0:0:0:70:Snare.wav
36,192,39992,1,0,0:0:0:70:KicK.wav
182,192,40331,1,0,0:0:0:70:Snare.wav
329,192,40670,1,0,0:0:0:70:KicK.wav
256,192,41008,1,0,0:0:0:70:Snare.wav
182,192,41347,1,0,0:0:0:70:KicK.wav
182,192,41686,1,0,0:0:0:70:Snare.wav
402,192,42025,1,0,0:0:0:70:KicK.wav
402,192,42364,1,0,0:0:0:70:Snare.wav
182,192,42703,1,0,0:0:0:70:KicK.wav
329,192,43042,1,0,0:0:0:70:Snare.wav
475,192,43381,1,0,0:0:0:70:KicK.wav
402,192,43720,1,0,0:0:0:70:Snare.wav
329,192,44059,1,0,0:0:0:70:KicK.wav
329,192,44398,1,0,0:0:0:70:Snare.wav
182,192,44737,1,0,0:0:0:70:KicK.wav
182,192,45076,1,0,0:0:0:70:Snare.wav
36,192,45415,1,0,0:0:0:70:KicK.wav
182,192,45754,1,0,0:0:0:70:Snare.wav
329,192,46093,1,0,0:0:0:70:KicK.wav
475,192,46432,1,0,0:0:0:70:Snare.wav
36,192,46771,1,0,0:0:0:70:KicK.wav
256,192,46771,1,0,0:0:0:70:Cymbal.wav
475,192,47110,1,0,0:0:0:70:Snare.wav
109,192,47449,1,0,0:0:0:70:KicK.wav
402,192,47788,1,0,0:0:0:70:Snare.wav
182,192,48127,1,0,0:0:0:70:KicK.wav
329,192,48466,1,0,0:0:0:70:Snare.wav
182,192,48805,1,0,0:0:0:70:KicK.wav
402,192,49144,1,0,0:0:0:70:Snare.wav
109,192,49483,1,0,0:0:0:70:KicK.wav
329,192,49822,1,0,0:0:0:70:Snare.wav
36,192,50161,1,0,0:0:0:70:KicK.wav
256,192,50500,1,0,0:0:0:70:Snare.wav
36,192,50839,1,0,0:0:0:70:KicK.wav
182,192,51178,1,0,0:0:0:70:Snare.wav
329,192,51517,1,0,0:0:0:70:KicK.wav
475,192,51856,1,0,0:0:0:70:Snare.wav
182,192,52195,1,0,0:0:0:70:KicK.wav
36,192,52195,1,0,0:0:0:70:CrashL.wav
475,192,52873,1,0,0:0:0:70:KicK.wav
475,192,53212,1,0,0:0:0:70:KicK.wav
329,192,53212,1,0,0:0:0:70:Emphasized.wav
109,192,53551,128,0,54229:0:0:0:0:
256,192,54229,1,0,0:0:0:70:CrashS.wav
329,192,54907,1,0,0:0:0:70:KicK.wav
182,192,54907,1,0,0:0:0:70:CrashL.wav
329,192,55585,1,0,0:0:0:70:KicK.wav
182,192,55585,1,0,0:0:0:70:CrashL.wav
475,192,56263,1,0,0:0:0:70:KicK.wav
36,192,56263,1,0,0:0:0:70:CrashS.wav
256,192,56602,1,0,0:0:0:70:CrashS.wav
475,192,56941,1,0,0:0:0:70:KicK.wav
36,192,56941,1,0,0:0:0:70:CrashS.wav
402,192,57619,1,0,0:0:0:70:BeLL.wav
109,192,57619,128,0,57958:0:0:0:70:CrashL.wav
402,192,58127,128,0,58466:0:0:0:70:CrashS.wav
109,192,58636,128,0,58975:0:0:0:70:CrashS.wav
402,192,59144,128,0,59483:0:0:0:70:CrashS.wav
329,192,59992,1,0,0:0:0:70:BeLL.wav
182,192,59992,128,0,60331:0:0:0:70:CrashL.wav
475,192,60500,128,0,60839:0:0:0:70:CrashS.wav
182,192,61008,128,0,61347:0:0:0:70:CrashS.wav
475,192,61517,128,0,61856:0:0:0:70:CrashS.wav
182,192,62364,1,0,0:0:0:70:BeLL.wav
329,192,62364,128,0,62703:0:0:0:70:CrashL.wav
36,192,62873,128,0,63212:0:0:0:70:CrashS.wav
329,192,63381,128,0,63720:0:0:0:70:CrashS.wav
36,192,63890,128,0,64229:0:0:0:70:CrashS.wav
109,192,64737,1,0,0:0:0:70:BeLL.wav
402,192,64737,128,0,65076:0:0:0:70:CrashL.wav
109,192,65246,128,0,65585:0:0:0:70:CrashS.wav
402,192,65754,128,0,66093:0:0:0:70:CrashS.wav
109,192,66263,128,0,66602:0:0:0:70:CrashS.wav
402,192,67110,1,0,0:0:0:70:KicK.wav
256,192,67110,1,0,0:0:0:70:CrashL.wav
182,192,67449,1,0,0:0:0:70:Snare.wav
109,192,67788,1,0,0:0:0:70:KicK.wav
36,192,68127,1,0,0:0:0:70:Snare.wav
182,192,68466,1,0,0:0:0:70:KicK.wav
329,192,68805,1,0,0:0:0:70:Snare.wav
475,192,69144,128,0,69483:0:0:0:70:KicK.wav
109,192,69483,1,0,0:0:0:70:Snare.wav
256,192,69822,1,0,0:0:0:70:KicK.wav
402,192,70161,1,0,0:0:0:70:Snare.wav
256,192,70500,1,0,0:0:0:70:KicK.wav
109,192,70839,1,0,0:0:0:70:Snare.wav
182,192,71178,5,0,0:0:0:70:KicK.wav
256,192,71517,128,0,71856:0:0:0:70:Snare.wav
475,192,71856,1,0,0:0:0:70:KicK.wav
329,192,72195,1,0,0:0:0:70:Snare.wav
36,192,72534,1,0,0:0:0:70:KicK.wav
182,192,72873,1,0,0:0:0:70:Snare.wav
402,192,73212,1,0,0:0:0:70:KicK.wav
256,192,73551,1,0,0:0:0:70:Snare.wav
402,192,73890,128,0,74229:0:0:0:70:KicK.wav
36,192,74229,1,0,0:0:0:70:Snare.wav
182,192,74568,1,0,0:0:0:70:KicK.wav
36,192,74907,1,0,0:0:0:70:Snare.wav
329,192,75246,1,0,0:0:0:70:KicK.wav
182,192,75585,1,0,0:0:0:70:Snare.wav
329,192,75924,1,0,0:0:0:70:KicK.wav
475,192,76263,128,0,76602:0:0:0:70:Snare.wav
109,192,76602,1,0,0:0:0:70:KicK.wav
109,192,77788,1,0,0:0:0:70:KicK.wav
256,192,77958,1,0,0:0:0:70:KicK.wav
109,192,78636,1,0,0:0:0:70:KicK.wav
256,192,78805,1,0,0:0:0:70:KicK.wav
402,192,78805,1,0,0:0:0:70:CrashS.wav
256,192,79314,128,0,80670:0:0:0:70:KicK.wav
402,192,79314,128,0,80670:0:0:0:70:CrashL.wav
36,192,80670,1,0,0:0:0:0:
182,192,81347,1,0,0:0:0:0:
329,192,82025,128,0,83381:0:0:0:0:
475,192,83381,1,0,0:0:0:0:
475,192,84059,1,0,0:0:0:0:
329,192,84398,1,0,0:0:0:0:
182,192,84737,128,0,86093:0:0:0:0:
329,192,85754,128,0,86093:0:0:0:0:
475,192,86093,1,0,0:0:0:0:
256,192,87110,1,0,0:0:0:70:KicK.wav
256,192,87449,1,0,0:0:0:70:KicK.wav
256,192,88466,1,0,0:0:0:70:KicK.wav
256,192,88805,1,0,0:0:0:70:KicK.wav
475,192,90161,1,0,0:0:0:70:BeLL.wav
256,192,90500,1,0,0:0:0:70:CrashS.wav
36,192,90500,1,0,0:0:0:70:KicK.wav
109,192,90839,1,0,0:0:0:70:KicK.wav
329,192,90839,1,0,0:0:0:70:CrashS.wav
402,192,91178,1,0,0:0:0:70:CrashS.wav
182,192,91178,1,0,0:0:0:70:KicK.wav
256,192,91517,1,0,0:0:0:70:KicK.wav
475,192,91517,1,0,0:0:0:70:CrashS.wav
36,192,92195,128,0,92873:0:0:0:70:KicK.wav
256,192,92873,1,0,0:0:0:70:CrashL.wav
475,192,92873,1,0,0:0:0:70:KicK.wav
109,192,93381,1,0,0:0:0:0:
329,192,93551,128,0,93890:0:0:0:70:KicK.wav
109,192,94059,1,0,0:0:0:0:
329,192,94229,128,0,94568:0:0:0:70:KicK.wav
36,192,94568,1,0,0:0:0:70:KicK.wav
182,192,94737,1,0,0:0:0:70:KicK.wav
329,192,94907,1,0,0:0:0:70:KicK.wav
256,192,95585,1,0,0:0:0:0:
36,192,95585,1,0,0:0:0:70:KicK.wav
402,192,96093,1,0,0:0:0:0:
109,192,96263,128,0,96602:0:0:0:70:KicK.wav
402,192,96771,1,0,0:0:0:0:
182,192,96941,128,0,97280:0:0:0:70:KicK.wav
475,192,97280,1,0,0:0:0:70:KicK.wav
329,192,97449,1,0,0:0:0:70:KicK.wav
182,192,97619,1,0,0:0:0:70:KicK.wav
256,192,98297,1,0,0:0:0:0:
475,192,98297,1,0,0:0:0:70:KicK.wav
182,192,98805,1,0,0:0:0:0:
329,192,98975,128,0,99314:0:0:0:70:KicK.wav
36,192,99483,1,0,0:0:0:0:
182,192,99653,128,0,99992:0:0:0:70:KicK.wav
475,192,99992,1,0,0:0:0:70:KicK.wav
329,192,100161,1,0,0:0:0:70:KicK.wav
475,192,100331,1,0,0:0:0:70:KicK.wav
256,192,100670,1,0,0:0:0:70:KicK.wav
36,192,101008,128,0,101347:0:0:0:70:KicK.wav
182,192,101347,128,0,101686:0:0:0:70:KicK.wav
329,192,101686,128,0,102025:0:0:0:70:KicK.wav
475,192,102025,128,0,102364:0:0:0:70:KicK.wav
36,192,102364,1,0,0:0:0:70:KicK.wav
256,192,102364,1,0,0:0:0:70:Cymbal.wav
256,192,103042,128,0,103720:0:0:0:70:KicK.wav
36,192,103720,1,0,0:0:0:70:KicK.wav
475,192,103720,1,0,0:0:0:70:CrashL.wav
329,192,104229,1,0,0:0:0:0:
109,192,104398,128,0,104737:0:0:0:70:KicK.wav
329,192,104907,1,0,0:0:0:0:
109,192,105076,128,0,105415:0:0:0:70:KicK.wav
475,192,105415,1,0,0:0:0:70:KicK.wav
256,192,105585,1,0,0:0:0:70:KicK.wav
36,192,105754,128,0,106432:0:0:0:70:KicK.wav
256,192,106432,1,0,0:0:0:70:KicK.wav
475,192,106432,1,0,0:0:0:70:CrashL.wav
329,192,106941,1,0,0:0:0:0:
182,192,107110,128,0,107449:0:0:0:70:KicK.wav
329,192,107619,1,0,0:0:0:0:
475,192,107788,128,0,108127:0:0:0:70:KicK.wav
109,192,108127,1,0,0:0:0:70:KicK.wav
256,192,108297,1,0,0:0:0:70:KicK.wav
402,192,108466,128,0,109144:0:0:0:70:KicK.wav
182,192,109144,1,0,0:0:0:70:CrashL.wav
36,192,109144,1,0,0:0:0:70:KicK.wav
475,192,109483,128,0,109822:0:0:0:70:Snare.wav
329,192,109822,128,0,110161:0:0:0:70:KicK.wav
182,192,110161,128,0,110500:0:0:0:70:Snare.wav
36,192,110500,128,0,111178:0:0:0:70:KicK.wav
475,192,111178,128,0,111856:0:0:0:70:KicK.wav
36,192,111856,1,0,0:0:0:70:Cymbal.wav
182,192,111856,1,0,0:0:0:70:KicK.wav
256,192,112195,1,0,0:0:0:70:Snare.wav
329,192,112534,1,0,0:0:0:70:KicK.wav
402,192,112873,1,0,0:0:0:70:Snare.wav
475,192,113212,128,0,114568:0:0:0:70:KicK.wav
109,192,113212,1,0,0:0:0:70:Cymbal.wav
329,192,113890,128,0,114568:0:0:0:70:KicK.wav
182,192,114568,5,0,0:0:0:70:CrashL.wav
36,192,114568,1,0,0:0:0:70:BeLL.wav
182,192,115246,1,0,0:0:0:70:BeLL.wav
36,192,115246,1,0,0:0:0:0:
475,192,115924,1,0,0:0:0:70:BeLL.wav
329,192,115924,1,0,0:0:0:0:
475,192,116602,1,0,0:0:0:70:BeLL.wav
329,192,116602,1,0,0:0:0:0:
36,192,116941,128,0,117280:0:0:0:0:
402,192,117280,1,0,0:0:0:70:BeLL.wav
182,192,117280,1,0,0:0:0:0:
402,192,117958,1,0,0:0:0:70:BeLL.wav
182,192,117958,1,0,0:0:0:0:
256,192,118636,1,0,0:0:0:70:BeLL.wav
475,192,118636,1,0,0:0:0:0:
256,192,119314,1,0,0:0:0:70:BeLL.wav
475,192,119314,1,0,0:0:0:0:
329,192,119653,128,0,119992:0:0:0:70:BeLL.wav
36,192,119992,1,0,0:0:0:0:
182,192,119992,1,0,0:0:0:70:BeLL.wav
182,192,120670,1,0,0:0:0:70:BeLL.wav
36,192,120670,1,0,0:0:0:0:
109,192,121347,1,0,0:0:0:70:BeLL.wav
402,192,121347,1,0,0:0:0:0:
109,192,122025,1,0,0:0:0:70:BeLL.wav
402,192,122025,1,0,0:0:0:0:
475,192,122703,128,0,123042:0:0:0:70:KicK.wav
36,192,122703,128,0,124059:0:0:0:0:
329,192,123042,128,0,123381:0:0:0:70:KicK.wav
182,192,123381,128,0,123720:0:0:0:70:KicK.wav
329,192,123720,128,0,124059:0:0:0:70:KicK.wav
475,192,124059,128,0,124737:0:0:0:70:KicK.wav
182,192,124059,128,0,125415:0:0:0:0:
329,192,124737,128,0,125415:0:0:0:70:KicK.wav
475,192,125415,1,0,0:0:0:70:Cymbal.wav
36,192,125415,1,0,0:0:0:70:KicK.wav
475,192,126093,1,0,0:0:0:70:CrashL.wav
256,192,126093,1,0,0:0:0:70:KicK.wav
109,192,126771,1,0,0:0:0:70:CrashS.wav
109,192,127110,1,0,0:0:0:70:CrashS.wav
109,192,127449,1,0,0:0:0:70:CrashS.wav
109,192,127788,1,0,0:0:0:70:CrashS.wav
256,192,128127,1,0,0:0:0:70:CrashL.wav
475,192,128127,1,0,0:0:0:70:KicK.wav
182,192,128636,1,0,0:0:0:70:KicK.wav
329,192,128805,1,0,0:0:0:70:KicK.wav
182,192,129314,1,0,0:0:0:70:KicK.wav
329,192,129483,1,0,0:0:0:70:KicK.wav
36,192,129822,1,0,0:0:0:70:KicK.wav
182,192,129992,1,0,0:0:0:70:KicK.wav
329,192,130161,1,0,0:0:0:70:KicK.wav
109,192,130839,5,0,0:0:0:70:KicK.wav
402,192,130839,1,0,0:0:0:70:CrashL.wav
256,192,131178,1,0,0:0:0:70:Snare.wav
109,192,131517,1,0,0:0:0:70:KicK.wav
256,192,131856,1,0,0:0:0:70:Snare.wav
402,192,132195,1,0,0:0:0:70:CrashL.wav
109,192,132195,1,0,0:0:0:70:KicK.wav
329,192,132534,1,0,0:0:0:70:Snare.wav
256,192,132873,1,0,0:0:0:70:KicK.wav
329,192,133212,1,0,0:0:0:70:Snare.wav
402,192,133551,1,0,0:0:0:70:CrashL.wav
109,192,133551,1,0,0:0:0:70:KicK.wav
256,192,133890,1,0,0:0:0:70:Snare.wav
109,192,134229,1,0,0:0:0:70:KicK.wav
256,192,134568,1,0,0:0:0:70:Snare.wav
109,192,134907,1,0,0:0:0:70:KicK.wav
475,192,134907,1,0,0:0:0:70:CrashL.wav
329,192,135246,1,0,0:0:0:70:Snare.wav
475,192,135585,1,0,0:0:0:70:KicK.wav
329,192,135924,1,0,0:0:0:70:Snare.wav
36,192,136263,1,0,0:0:0:70:KicK.wav
182,192,136263,1,0,0:0:0:70:CrashL.wav
256,192,136602,1,0,0:0:0:70:Snare.wav
329,192,136941,1,0,0:0:0:70:KicK.wav
402,192,137280,1,0,0:0:0:70:Snare.wav
475,192,137619,1,0,0:0:0:70:KicK.wav
36,192,137619,1,0,0:0:0:70:CrashS.wav
329,192,137958,1,0,0:0:0:70:KicK.wav
182,192,137958,1,0,0:0:0:70:CrashS.wav
36,192,138297,1,0,0:0:0:70:KicK.wav
475,192,138297,1,0,0:0:0:70:CrashL.wav
402,192,140161,128,0,141432:0:0:0:0:
109,192,141432,128,0,144059:0:0:0:0:
402,192,144059,128,0,144398:0:0:0:0:
109,192,144398,1,0,0:0:0:0:
