osu file format v14

[General]
AudioFilename: audio.mp3
AudioLeadIn: 0
PreviewTime: 297508
Countdown: 0
SampleSet: Soft
StackLeniency: 0.3
Mode: 0
LetterboxInBreaks: 0
EpilepsyWarning: 1
WidescreenStoryboard: 0

[Editor]
DistanceSpacing: 0.5
BeatDivisor: 4
GridSize: 4
TimelineZoom: 0.6999999

[Metadata]
Title:Summertime Record PIANO VER.
TitleUnicode:Summertime Record PIANO VER.
Artist:Yumeko
ArtistUnicode:Yumeko
Creator:Verissan
Version:Farewell
Source:Kagerou Project
Tags:kagerou project summertime record mekakucity actors kagepro jin utaite
BeatmapID:1239861
BeatmapSetID:585313

[Difficulty]
HPDrainRate:6
CircleSize:4
OverallDifficulty:7.5
ApproachRate:8
SliderMultiplier:1.8
SliderTickRate:2

[Events]
//Background and Video events
0,0,"summertime.png",0,0
//Break Periods
2,75545,89190
2,327591,332897
2,349831,356294
//Storyboard Layer 0 (Background)
//Storyboard Layer 1 (Fail)
//Storyboard Layer 2 (Pass)
//Storyboard Layer 3 (Foreground)
//Storyboard Sound Samples

[TimingPoints]
1214.59364624424,463.320463320463,4,2,0,40,1,0
16156,-100,4,2,0,5,0,0
16504,-100,4,2,0,40,0,0
17314,-100,4,2,0,5,0,0
17662,-100,4,2,0,40,0,0
17778,-100,4,2,0,5,0,0
18125,-100,4,2,0,40,0,0
18704,-100,4,2,0,5,0,0
19052,-100,4,2,0,40,0,0
19863,-100,4,2,0,5,0,0
20210,-100,4,2,0,40,0,0
23569,-100,4,2,0,5,0,0
23917,-100,4,2,0,40,0,0
24728,-100,4,2,0,5,0,0
25075,-100,4,2,0,40,0,0
25191,-100,4,2,0,5,0,0
25538,-100,4,2,0,40,0,0
25654,-100,4,2,0,5,0,0
26002,-100,4,2,0,40,0,0
30982,-100,4,2,0,5,0,0
31330,-100,4,2,0,40,0,0
31677,-100,4,2,0,5,0,0
32025,-100,4,2,0,40,0,0
32141,-100,4,2,0,5,0,0
32488,-100,4,2,0,40,0,0
32604,-100,4,2,0,5,0,0
32952,-100,4,2,0,40,0,0
33647,-100,4,2,0,20,0,0
33878,-100,4,2,0,40,0,0
34689,-100,4,2,0,5,0,0
35036,-100,4,2,0,40,0,0
37353,-100,4,2,0,20,0,0
37585,-100,4,2,0,40,0,0
39670,-100,4,2,0,20,0,0
39901,-100,4,2,0,40,0,0
45809,-100,4,2,0,5,0,0
46156,-100,4,2,0,40,0,0
49515,-100,4,2,0,5,0,0
49863,-100,4,2,0,40,0,0
50210,-100,4,2,0,5,0,0
50558,-100,4,2,0,40,0,0
66079,-100,4,2,0,40,0,0
66311,-100,4,2,0,40,0,0
71639,-142.857142857143,4,2,0,40,0,0
73492,-100,4,2,0,40,0,0
93994,-100,4,2,0,5,0,0
94342,-100,4,2,0,40,0,0
103029,-100,4,2,0,5,0,0
103840,-100,4,2,0,40,0,0
108820,-100,4,2,0,5,0,0
109168,-100,4,2,0,40,0,0
124342,-100,4,2,0,5,0,0
124689,-100,4,2,0,40,0,0
124805,-100,4,2,0,5,0,0
125152,-100,4,2,0,40,0,0
125268,-100,4,2,0,5,0,0
125616,-100,4,2,0,40,0,0
135461,-100,4,2,0,5,0,0
135809,-100,4,2,0,40,0,0
136504,-100,4,2,0,20,0,0
136735,-100,4,2,0,40,0,0
147855,-100,4,2,0,50,0,0
149477,-76.9230769230769,4,2,0,60,0,1
149592,-76.9230769230769,4,2,0,5,0,1
149940,-76.9230769230769,4,2,0,60,0,1
150056,-76.9230769230769,4,2,0,5,0,1
150403,-76.9230769230769,4,2,0,60,0,1
153299,-76.9230769230769,4,2,0,5,0,1
153647,-76.9230769230769,4,2,0,60,0,1
153762,-76.9230769230769,4,2,0,5,0,1
154110,-76.9230769230769,4,2,0,60,0,1
157006,-76.9230769230769,4,2,0,5,0,1
157353,-76.9230769230769,4,2,0,60,0,1
157469,-76.9230769230769,4,2,0,5,0,1
157816,-76.9230769230769,4,2,0,60,0,1
161523,-76.9230769230769,4,2,0,30,0,1
161755,-76.9230769230769,4,2,0,60,0,1
164419,-76.9230769230769,4,2,0,5,0,1
164766,-76.9230769230769,4,2,0,60,0,1
164882,-76.9230769230769,4,2,0,5,0,1
165230,-76.9230769230769,4,2,0,60,0,1
168125,-76.9230769230769,4,2,0,5,0,1
168473,-76.9230769230769,4,2,0,60,0,1
168589,-76.9230769230769,4,2,0,5,0,1
168936,-76.9230769230769,4,2,0,60,0,1
171832,-76.9230769230769,4,2,0,5,0,1
172179,-76.9230769230769,4,2,0,60,0,1
172295,-76.9230769230769,4,2,0,5,0,1
172643,-76.9230769230769,4,2,0,60,0,1
177276,-142.857142857143,4,2,0,60,0,1
179129,-100,4,2,0,40,0,0
184110,-100,4,2,0,5,0,0
184457,-100,4,2,0,40,0,0
184573,-100,4,2,0,5,0,0
184921,-100,4,2,0,40,0,0
185036,-100,4,2,0,5,0,0
185384,-100,4,2,0,40,0,0
191523,-100,4,2,0,5,0,0
191870,-100,4,2,0,40,0,0
193955,-100,4,2,0,80,0,0
197662,-100,4,2,0,40,0,0
198936,-100,4,2,0,5,0,0
199284,-100,4,2,0,40,0,0
199399,-100,4,2,0,5,0,0
199747,-100,4,2,0,40,0,0
199863,-100,4,2,0,5,0,0
200210,-100,4,2,0,40,0,0
208897,-100,4,2,0,5,0,0
209245,-100,4,2,0,40,0,0
209361,-100,4,2,0,5,0,0
209708,-100,4,2,0,40,0,0
210519,-100,4,2,0,5,0,0
210867,-100,4,2,0,40,0,0
210982,-100,4,2,0,5,0,0
211330,-100,4,2,0,40,0,0
214342,-100,4,2,0,20,0,0
214573,-100,4,2,0,40,0,0
216311,-100,4,2,0,5,0,0
216658,-100,4,2,0,40,0,0
216774,-100,4,2,0,5,0,0
217121,-100,4,2,0,40,0,0
217932,-100,4,2,0,5,0,0
218280,-100,4,2,0,40,0,0
218396,-100,4,2,0,5,0,0
218743,-100,4,2,0,40,0,0
223724,-100,4,2,0,5,0,0
224071,-100,4,2,0,40,0,0
224187,-100,4,2,0,5,0,0
224535,-100,4,2,0,40,0,0
225345,-100,4,2,0,5,0,0
225693,-100,4,2,0,40,0,0
225809,-100,4,2,0,5,0,0
226156,-100,4,2,0,40,0,0
232758,-100,4,2,0,5,0,0
233106,-100,4,2,0,40,0,0
234033,-100,4,2,0,20,0,0
238434,-100,4,2,0,40,0,0
249554,-142.857142857143,4,2,0,40,0,0
252334,-100,4,2,0,80,0,0
253260,-100,4,2,0,40,0,0
267855,-142.857142857143,4,2,0,40,0,0
284187,-142.857142857143,4,2,0,5,0,0
284535,-125,4,2,0,45,0,0
286619,-111.111111111111,4,2,0,50,0,0
290326,-100,4,2,0,55,0,0
292064,-100,4,2,0,5,0,0
292411,-100,4,2,0,55,0,0
297739,-76.9230769230769,4,2,0,75,0,1
297855,-76.9230769230769,4,2,0,5,0,1
298203,-76.9230769230769,4,2,0,75,0,1
298318,-76.9230769230769,4,2,0,5,0,1
298666,-76.9230769230769,4,2,0,75,0,1
301562,-76.9230769230769,4,2,0,5,0,1
301909,-76.9230769230769,4,2,0,75,0,1
302025,-76.9230769230769,4,2,0,5,0,1
302372,-76.9230769230769,4,2,0,75,0,1
302488,-76.9230769230769,4,2,0,5,0,1
302836,-76.9230769230769,4,2,0,75,0,1
305268,-76.9230769230769,4,2,0,5,0,1
305616,-76.9230769230769,4,2,0,75,0,1
305731,-76.9230769230769,4,2,0,5,0,1
306079,-76.9230769230769,4,2,0,75,0,1
313145,-76.9230769230769,4,2,0,5,0,1
313492,-76.9230769230769,4,2,0,75,0,1
313724,-76.9230769230769,4,2,0,5,0,1
313955,-76.9230769230769,4,2,0,75,0,1
316388,-76.9230769230769,4,2,0,5,0,1
316735,-76.9230769230769,4,2,0,75,0,1
320094,-76.9230769230769,4,2,0,5,0,1
320442,-76.9230769230769,4,2,0,75,0,1
320558,-76.9230769230769,4,2,0,5,0,1
320905,-76.9230769230769,4,2,0,75,0,1
326465,-142.857142857143,4,2,0,60,0,1
327392,-142.857142857143,4,2,0,30,0,0
340944,-142.857142857143,4,2,0,5,0,0
341291,-142.857142857143,4,2,0,30,0,0
341407,-142.857142857143,4,2,0,5,0,0
341755,-142.857142857143,4,2,0,30,0,0
341870,-142.857142857143,4,2,0,5,0,0
342218,-142.857142857143,4,2,0,30,0,0
343260,-142.857142857143,4,2,0,5,0,0
343608,-142.857142857143,4,2,0,30,0,0
343724,-142.857142857143,4,2,0,5,0,0
344071,-142.857142857143,4,2,0,30,0,0
344187,-142.857142857143,4,2,0,5,0,0
344535,-142.857142857143,4,2,0,30,0,0
344650,-142.857142857143,4,2,0,5,0,0
344998,-142.857142857143,4,2,0,30,0,0
345114,-142.857142857143,4,2,0,5,0,0
345461,-142.857142857143,4,2,0,30,0,0
345577,-142.857142857143,4,2,0,5,0,0
345925,-142.857142857143,4,2,0,20,0,0
347894,-142.857142857143,4,2,0,5,0,0
348241,-142.857142857143,4,2,0,20,0,0
348357,-142.857142857143,4,2,0,5,0,0
348704,-142.857142857143,4,2,0,20,0,0
348820,-142.857142857143,4,2,0,5,0,0
349168,-142.857142857143,4,2,0,20,0,0
349284,-142.857142857143,4,2,0,5,0,0
349631,-142.857142857143,4,2,0,20,0,0
359013,-142.857142857143,4,2,0,5,0,0
359361,-142.857142857143,4,2,0,20,0,0
359477,-142.857142857143,4,2,0,5,0,0
359824,-142.857142857143,4,2,0,20,0,0
359940,-142.857142857143,4,2,0,5,0,0
360287,-142.857142857143,4,2,0,20,0,0
364457,-200,4,2,0,15,0,0

[Colours]
Combo1 : 119,255,255
Combo2 : 233,233,233
Combo3 : 74,156,255
Combo4 : 255,156,108
Combo5 : 255,255,155
Combo6 : 210,0,0
Combo7 : 255,185,255
Combo8 : 0,136,0

[HitObjects]
72,92,1214,6,0,L|155:49,1,90
158,196,1909,2,0,L|274:174,2,90,0|0|0,0:0|0:0|0:0,0:0:0:0:
250,306,2836,2,0,L|351:257,1,90,0|0,0:0|0:0,0:0:0:0:
354,49,4921,6,0,L|455:98,1,90
344,199,5616,2,0,L|436:217,2,90
247,305,6542,2,0,L|348:354,1,90
354,49,7701,101,2,0:0:0:0:
259,335,8627,6,0,L|171:293,1,90
174,152,9322,1,0,0:0:0:0:
173,61,9554,1,0,0:0:0:0:
249,106,9785,1,0,0:0:0:0:
177,296,10249,2,0,L|265:339,1,90
354,49,11407,101,2,0:0:0:0:
66,88,12334,6,0,L|95:179,1,90,0|0,0:0|0:0,0:0:0:0:
236,193,13029,1,0,0:0:0:0:
325,206,13261,1,0,0:0:0:0:
290,123,13492,1,0,0:0:0:0:
93,173,13955,2,0,L|58:66,1,90,0|0,0:0|0:0,0:0:0:0:
331,134,14650,1,0,0:0:0:0:
148,333,15114,1,2,0:0:0:0:
236,193,15809,101,0,0:0:0:0:
325,206,16040,2,0,P|361:178|378:131,1,90,0|0,0:0|0:0,0:0:0:0:
290,123,16504,1,0,0:0:0:0:
348,55,16735,1,0,0:0:0:0:
236,193,17199,6,0,P|209:156|205:106,1,90,0|0,0:0|0:0,0:0:0:0:
116,93,17662,2,0,P|96:134|53:160,1,90,0|0,0:0|0:0,0:0:0:0:
89,244,18125,1,0,0:0:0:0:
117,327,18357,1,0,0:0:0:0:
176,265,18589,2,0,P|216:285|263:279,1,90
325,214,19052,1,0,0:0:0:0:
235,190,19284,1,0,0:0:0:0:
259,280,19515,1,0,0:0:0:0:
344,304,19747,102,0,P|385:287|412:249,1,90
399,163,20210,2,0,L|383:70,1,90,0|0,0:0|0:0,0:0:0:0:
316,130,20674,2,0,L|300:37,1,90,0|0,0:0|0:0,0:0:0:0:
103,57,21369,1,2,0:0:0:0:
405,162,22758,6,0,P|367:186|348:231,2,90
434,247,23453,2,0,P|471:222|491:178,1,90,0|0,0:0|0:0,0:0:0:0:
405,162,23917,1,0,0:0:0:0:
373,77,24148,1,0,0:0:0:0:
317,146,24380,101,0,0:0:0:0:
285,61,24612,2,0,L|230:131,1,90,0|0,0:0|0:0,0:0:0:0:
317,146,25075,2,0,L|305:245,1,90,0|0,0:0|0:0,0:0:0:0:
395,250,25538,2,0,L|340:320,1,90
306,235,26002,1,0,0:0:0:0:
217,221,26233,5,0,0:0:0:0:
363,167,26465,1,0,0:0:0:0:
250,305,26697,1,0,0:0:0:0:
275,152,26928,1,0,0:0:0:0:
64,207,27160,102,0,P|91:242|136:259,1,90
217,221,27623,1,0,0:0:0:0:
147,166,27855,2,0,B|159:88|257:134|272:51,1,180
199,0,28550,1,0,0:0:0:0:
217,221,29013,5,0,0:0:0:0:
217,221,29940,1,2,0:0:0:0:
408,79,30635,1,0,0:0:0:0:
427,169,30867,102,0,L|331:138,1,90
275,203,31330,1,0,0:0:0:0:
209,264,31562,2,0,L|113:233,1,90
188,174,32025,2,0,L|120:99,1,90,0|0,0:0|0:0,0:0:0:0:
216,92,32488,2,0,L|194:-6,1,90,0|0,0:0|0:0,0:0:0:0:
282,33,32952,2,0,P|303:72|301:120,2,90,0|0|0,0:0|0:0|0:0,0:0:0:0:
216,92,33647,1,0,0:0:0:0:
148,151,33878,2,0,P|126:111|128:63,2,90,0|0|0,0:0|0:0|0:0,0:0:0:0:
232,182,34573,6,0,L|324:212,1,90
290,295,35036,2,0,L|384:274,1,90,0|0,0:0|0:0,0:0:0:0:
396,364,35500,2,0,L|467:299,1,90,0|0,0:0|0:0,0:0:0:0:
275,216,36195,1,0,0:0:0:0:
211,44,36658,2,0,P|190:83|192:131,2,90
277,103,37353,1,0,0:0:0:0:
345,162,37584,2,0,P|367:122|365:74,2,90,0|0|0,0:0|0:0|0:0,0:0:0:0:
260,195,38280,102,0,L|162:225,1,90
191,127,38743,2,0,L|91:103,1,90,0|0,0:0|0:0,0:0:0:0:
122,18,39206,2,0,L|24:48,1,90
103,106,39670,1,0,0:0:0:0:
86,194,39901,2,0,L|-12:224,1,90,0|0,0:0|0:0,0:0:0:0:
208,41,40828,5,0,0:0:0:0:
273,98,41060,1,0,0:0:0:0:
121,67,41291,1,0,0:0:0:0:
295,16,41523,1,0,0:0:0:0:
189,129,41755,1,0,0:0:0:0:
208,41,41986,101,0,0:0:0:0:
258,186,42218,1,0,0:0:0:0:
107,157,42450,1,0,0:0:0:0:
273,98,42681,2,0,B|308:167|201:188|238:263,1,180
276,344,43376,1,0,0:0:0:0:
273,98,43840,1,2,0:0:0:0:
273,98,45461,1,0,0:0:0:0:
205,38,45693,6,0,P|184:77|186:125,1,90
252,183,46156,2,0,P|296:181|336:155,1,90,0|0,0:0|0:0,0:0:0:0:
398,95,46619,101,0,0:0:0:0:
508,204,46851,1,0,0:0:0:0:
460,31,47083,1,0,0:0:0:0:
421,182,47314,2,0,L|356:252,1,90,0|0,0:0|0:0,0:0:0:0:
334,158,47778,2,0,L|242:186,1,90,0|0,0:0|0:0,0:0:0:0:
273,98,48241,1,0,0:0:0:0:
172,325,49168,1,0,0:0:0:0:
109,261,49399,6,0,P|146:237|194:237,1,90
172,325,49863,1,0,0:0:0:0:
257,296,50094,2,0,P|280:258|280:210,1,90
191,236,50558,1,0,0:0:0:0:
129,171,50789,1,0,0:0:0:0:
303,129,51021,1,0,0:0:0:0:
257,296,51253,101,0,0:0:0:0:
160,83,51484,1,0,0:0:0:0:
386,111,51716,1,0,0:0:0:0:
280,213,51948,1,0,0:0:0:0:
243,65,52179,1,2,0:0:0:0:
128,303,52643,1,0,0:0:0:0:
42,331,52874,1,0,0:0:0:0:
67,244,53106,6,0,B|117:263|128:304|128:304|131:263|178:224,1,180
360,49,54033,2,0,B|395:118|288:139|325:214,1,180
348,300,54728,2,0,L|283:370,1,90,0|0,0:0|0:0,0:0:0:0:
260,279,55192,2,0,L|168:307,1,90,0|0,0:0|0:0,0:0:0:0:
199,218,55655,1,0,0:0:0:0:
448,32,56581,102,0,P|446:76|420:116,1,90
253,176,57276,2,0,P|273:215|314:240,1,90,0|0,0:0|0:0,0:0:0:0:
423,114,57971,2,0,P|390:144|343:154,2,90,0|0|0,0:0|0:0|0:0,0:0:0:0:
173,305,59361,6,0,L|226:265,2,45
173,305,60056,1,0,0:0:0:0:
248,255,60287,1,0,0:0:0:0:
167,215,60519,102,0,B|93:192|152:100|72:75,1,180
287,97,61446,2,0,B|209:103|248:205|165:214,1,180
160,125,62141,1,0,0:0:0:0:
320,206,62372,5,0,0:0:0:0:
173,305,62604,1,0,0:0:0:0:
166,214,62836,1,0,0:0:0:0:
248,255,63067,1,0,0:0:0:0:
360,49,63994,102,0,P|381:87|421:112,1,90
264,203,64689,1,0,0:0:0:0:
350,178,64921,2,0,P|328:139|288:114,1,90
264,203,65384,2,0,P|285:241|325:266,2,90
350,178,66079,5,0,0:0:0:0:
437,157,66311,2,0,P|415:118|375:93,2,90
290,115,67006,1,2,0:0:0:0:
290,115,67469,1,0,0:0:0:0:
202,136,67701,1,0,0:0:0:0:
176,221,67932,102,0,L|272:195,1,90
241,285,68396,2,0,L|337:310,1,90
293,193,68859,2,0,B|267:146|286:108|286:108|257:137|195:135,1,180
88,240,69554,1,0,0:0:0:0:
241,285,69786,5,0,0:0:0:0:
204,130,70017,1,0,0:0:0:0:
155,308,70249,1,0,0:0:0:0:
325,265,70481,1,0,0:0:0:0:
115,149,70712,1,0,0:0:0:0:
301,348,70944,1,0,0:0:0:0:
373,87,71175,1,0,0:0:0:0:
204,130,71407,1,0,0:0:0:0:
373,87,71639,102,0,B|293:102|343:207|270:229,1,188.999994232178
119,136,72565,2,0,B|198:120|191:237|267:229,1,188.999994232178
285,333,73492,1,0,0:0:0:0:
444,52,74882,70,0,B|472:98|443:135|443:135|396:149|391:206,1,180,0|2,0:0|0:0,0:0:0:0:
390,179,89940,53,0,0:0:0:0:
325,116,90172,2,0,B|258:156|339:229|269:275,1,180
209,208,90867,1,0,0:0:0:0:
145,144,91098,2,0,B|187:111|227:121|227:121|196:96|183:37,1,180
268,11,91793,2,0,B|276:64|322:73|322:73|368:61|410:94,1,180
348,162,92488,1,0,0:0:0:0:
261,137,92720,2,0,P|283:98|323:73,1,90
440,185,93415,1,0,0:0:0:0:
407,92,93647,1,0,0:0:0:0:
313,295,93878,102,0,P|268:295|226:273,1,90
168,342,94342,1,0,0:0:0:0:
143,255,94573,2,0,B|77:214|157:141|88:95,1,180
171,60,95268,1,0,0:0:0:0:
244,111,95500,1,0,0:0:0:0:
162,149,95731,5,0,0:0:0:0:
253,26,95963,1,0,0:0:0:0:
310,167,96195,1,0,0:0:0:0:
171,60,96426,1,0,0:0:0:0:
302,156,97353,1,0,0:0:0:0:
376,206,97585,102,0,B|438:160|354:93|419:42,1,180
490,97,98280,1,0,0:0:0:0:
418,43,98511,2,0,B|451:113|344:130|376:207,1,180
375,296,99206,1,0,0:0:0:0:
302,156,99438,5,0,0:0:0:0:
304,336,99670,1,0,0:0:0:0:
450,252,99901,1,0,0:0:0:0:
383,113,100133,1,0,0:0:0:0:
301,247,100365,1,0,0:0:0:0:
22,363,100828,1,0,0:0:0:0:
4,274,101060,1,0,0:0:0:0:
90,305,101291,102,0,B|123:374|204:302|243:376,1,180
344,258,101986,2,0,B|382:289|384:332|384:332|404:293|456:270,1,180
403,185,102681,1,0,0:0:0:0:
344,258,102913,2,0,P|316:222|308:174,1,90
69,38,103840,2,0,L|2:-2,2,45
227,124,104535,1,0,0:0:0:0:
207,36,104766,1,0,0:0:0:0:
292,64,104998,6,0,L|318:173,1,90
250,216,105461,2,0,L|276:325,1,90
337,241,105925,2,0,B|367:316|448:263|475:343,1,180
394,373,106619,1,0,0:0:0:0:
426,209,106851,101,0,0:0:0:0:
268,265,107083,1,0,0:0:0:0:
394,373,107314,1,0,0:0:0:0:
327,188,107546,1,0,0:0:0:0:
206,341,107778,1,2,0:0:0:0:
33,30,108241,1,0,0:0:0:0:
119,55,108473,1,0,0:0:0:0:
57,119,108704,6,0,L|157:146,1,90
119,55,109168,1,0,0:0:0:0:
333,14,109399,2,0,B|347:60|326:97|326:97|364:76|420:85,1,180
289,179,110094,1,0,0:0:0:0:
471,155,110326,1,0,0:0:0:0:
327,97,110558,101,0,0:0:0:0:
346,249,110789,1,0,0:0:0:0:
241,105,111021,1,0,0:0:0:0:
416,84,111253,1,0,0:0:0:0:
254,260,111484,1,2,0:0:0:0:
254,260,111948,1,0,0:0:0:0:
219,342,112179,1,0,0:0:0:0:
164,270,112411,6,0,B|126:302|129:349|129:349|106:307|60:298,1,180
97,216,113106,1,0,0:0:0:0:
27,158,113338,2,0,B|65:126|61:78|61:78|85:121|131:130,1,180
142,40,114033,2,0,B|199:87|243:-11|308:39,1,180
381,93,114728,1,0,0:0:0:0:
462,55,114959,2,0,L|458:165,1,90
378,187,115423,1,0,0:0:0:0:
309,39,115654,1,0,0:0:0:0:
462,55,115886,1,0,0:0:0:0:
299,132,116118,101,0,0:0:0:0:
0,266,116813,2,0,L|80:319,1,90
512,123,117739,2,0,L|432:70,1,90
0,266,118897,5,2,0:0:0:0:
512,123,119824,102,0,P|479:90|439:79,1,90
436,166,120287,1,0,0:0:0:0:
430,253,120519,2,0,B|373:300|329:202|264:252,1,180
170,120,121214,2,0,B|193:168|239:163|239:163|283:143|335:155,1,180
364,71,121909,2,0,P|399:98|419:141,2,90
112,208,123067,1,2,0:0:0:0:
42,41,123531,5,0,0:0:0:0:
130,53,123762,1,0,0:0:0:0:
76,125,123994,1,0,0:0:0:0:
165,132,124226,2,0,L|229:52,1,90
253,145,124689,2,0,L|348:107,1,90
320,200,125152,2,0,L|421:215,1,90
353,284,125616,2,0,L|433:347,2,90
139,118,126774,1,2,0:0:0:0:
310,65,127237,101,0,0:0:0:0:
289,151,127469,1,0,0:0:0:0:
223,91,127701,1,0,0:0:0:0:
422,271,127932,1,2,0:0:0:0:
422,271,128396,2,0,L|323:303,1,90
356,210,128859,5,0,0:0:0:0:
223,91,129322,1,0,0:0:0:0:
395,39,129786,1,0,0:0:0:0:
356,210,130249,2,0,L|257:242,1,90
293,150,130712,2,0,L|191:128,1,90
269,180,131639,102,0,L|167:158,1,90
247,208,132565,6,0,L|145:186,1,90
223,237,133492,102,0,L|121:215,1,90
134,218,134187,1,2,0:0:0:0:
254,84,134650,6,0,P|289:111|309:154,2,90
216,165,135345,2,0,L|135:223,1,90
108,301,135809,2,0,P|73:274|53:231,2,90
142,217,136504,1,0,0:0:0:0:
183,137,136735,2,0,P|218:164|238:207,2,90
440,53,137894,1,2,0:0:0:0:
412,230,138357,101,0,0:0:0:0:
355,87,138589,1,0,0:0:0:0:
330,264,138820,1,0,0:0:0:0:
425,142,139052,1,0,0:0:0:0:
96,288,139515,1,0,0:0:0:0:
260,215,139747,1,0,0:0:0:0:
119,101,139979,1,0,0:0:0:0:
178,251,140210,5,0,0:0:0:0:
355,87,140442,1,0,0:0:0:0:
132,14,140674,1,0,0:0:0:0:
347,175,140905,1,0,0:0:0:0:
56,264,141600,1,2,0:0:0:0:
56,264,142064,102,0,P|21:291|1:334,1,90
90,348,142527,1,0,0:0:0:0:
149,280,142758,2,0,B|164:352|259:301|280:381,1,180
358,337,143453,1,0,0:0:0:0:
434,288,143685,6,0,B|367:255|439:174|367:135,1,180
290,84,144380,1,0,0:0:0:0:
283,173,144612,1,0,0:0:0:0:
373,50,144843,1,0,0:0:0:0:
435,189,145075,1,0,0:0:0:0:
290,84,145307,1,0,0:0:0:0:
67,309,145770,101,0,0:0:0:0:
239,260,146002,1,0,0:0:0:0:
89,221,146233,1,0,0:0:0:0:
216,348,146465,1,0,0:0:0:0:
263,174,146697,1,0,0:0:0:0:
153,286,146928,1,0,0:0:0:0:
116,135,147160,1,0,0:0:0:0:
239,260,147392,1,0,0:0:0:0:
416,12,147855,5,0,0:0:0:0:
386,97,148087,1,0,0:0:0:0:
474,81,148318,1,0,0:0:0:0:
463,311,148550,1,2,0:0:0:0:
39,47,149245,1,0,0:0:0:0:
120,1,149477,102,0,P|132:59|102:115,1,116.999994644165
21,146,149940,2,0,P|58:191|120:203,1,116.999994644165
316,47,150403,2,0,B|206:3|219:142|105:107,1,233.999989288331
402,5,151098,2,0,L|373:140,1,116.999994644165
283,123,151562,2,0,L|307:242,1,116.999994644165
212,241,152025,2,0,L|183:376,1,116.999994644165
399,185,152952,1,0,0:0:0:0:
317,140,153183,6,0,P|305:198|335:254,1,116.999994644165
419,275,153647,2,0,P|469:244|490:184,1,116.999994644165
509,100,154110,2,0,B|458:63|458:1|458:1|419:51|355:51,1,233.999989288331
262,36,154805,2,0,L|320:146,1,116.999994644165
223,127,155268,2,0,L|282:232,1,116.999994644165
187,217,155731,2,0,L|245:327,1,116.999994644165
373,187,156426,1,0,0:0:0:0:
425,264,156658,1,0,0:0:0:0:
331,267,156890,102,0,P|289:224|284:161,1,116.999994644165
373,187,157353,2,0,P|415:230|420:293,1,116.999994644165
331,267,157816,2,0,B|229:197|340:139|238:68,1,233.999989288331
199,153,158511,2,0,L|141:257,1,116.999994644165
234,239,158975,2,0,L|292:343,1,116.999994644165
326,254,159438,2,0,L|445:255,1,116.999994644165
384,77,160133,5,0,0:0:0:0:
344,161,160365,2,0,P|302:118|297:55,1,116.999994644165
125,142,161060,2,0,P|167:185|172:248,1,116.999994644165
81,227,161523,1,0,0:0:0:0:
125,142,161755,2,0,L|233:91,1,116.999994644165
302,152,162218,2,0,B|361:118,2,58.4999973220826
376,208,162681,101,0,0:0:0:0:
453,167,162913,1,0,0:0:0:0:
367,294,163145,1,0,0:0:0:0:
302,152,163376,1,2,0:0:0:0:
0,211,163840,1,0,0:0:0:0:
57,138,164071,1,0,0:0:0:0:
270,189,164303,6,0,P|266:128|224:82,1,116.999994644165
57,138,164766,2,0,P|55:198|93:249,1,116.999994644165
270,190,165230,2,0,B|150:225|175:102|57:138,1,233.999989288331
236,103,165925,1,0,0:0:0:0:
362,206,166156,101,0,0:0:0:0:
327,120,166388,1,0,0:0:0:0:
208,265,166619,1,0,0:0:0:0:
362,206,166851,1,0,0:0:0:0:
236,103,167083,1,2,0:0:0:0:
340,370,167546,1,0,0:0:0:0:
394,293,167778,1,0,0:0:0:0:
300,289,168009,6,0,P|321:232|375:199,1,116.999994644165
458,221,168473,2,0,P|453:164|416:120,1,116.999994644165
322,125,168936,2,0,B|264:149|236:196|236:196|214:147|150:112,1,233.999989288331
240,86,169631,1,0,2:0:0:0:
144,32,169863,101,0,2:0:0:0:
236,196,170094,1,0,2:0:0:0:
336,35,170326,1,0,2:0:0:0:
140,143,170558,1,0,2:0:0:0:
332,250,170789,1,2,2:0:0:0:
20,359,171253,1,0,0:0:0:0:
111,342,171484,1,0,0:0:0:0:
202,318,171716,6,0,P|169:267|109:246,1,116.999994644165
25,242,172179,2,0,P|46:185|102:154,1,116.999994644165
184,175,172643,2,0,B|266:83|308:201|393:109,1,233.999989288331
318,53,173338,1,0,0:0:0:0:
305,239,173569,101,0,0:0:0:0:
477,166,173801,1,0,0:0:0:0:
313,146,174033,1,0,0:0:0:0:
388,201,174264,1,0,0:0:0:0:
393,109,174496,1,2,0:0:0:0:
115,52,175191,6,0,L|37:146,1,116.999994644165
107,120,176118,2,0,L|29:214,1,116.999994644165
99,190,177044,1,0,0:0:0:0:
24,279,177276,102,0,B|91:324|130:215|197:251,1,188.999994232178
252,84,178203,2,0,B|286:157|172:178|197:250,1,188.999994232178
234,294,179013,2,0,L|273:329,1,31.4999990386963,0|2,0:0|0:0,0:0:0:0:
512,122,182836,37,0,0:0:0:0:
377,0,183299,2,0,B|405:36|405:36|398:103,1,90
311,65,183762,1,0,0:0:0:0:
222,52,183994,2,0,B|217:96|217:96|259:150,1,90
311,64,184457,102,0,B|339:98|339:98|332:167,1,90
245,132,184921,2,0,B|240:176|240:176|282:230,1,90
335,143,185384,1,0,0:0:0:0:
106,302,186079,21,0,0:0:0:0:
139,124,186311,1,0,0:0:0:0:
191,272,186542,1,0,0:0:0:0:
296,148,186774,1,0,0:0:0:0:
124,211,187006,1,0,0:0:0:0:
258,330,187237,1,2,0:0:0:0:
417,74,190249,101,0,0:0:0:0:
406,253,190712,2,0,B|434:217|434:217|427:150,1,90
345,140,191175,1,0,0:0:0:0:
260,170,191407,2,0,B|255:214|255:214|297:268,1,90
53,71,191870,6,0,B|130:78|130:78|151:63|151:63|236:68,1,180
317,73,192565,1,0,0:0:0:0:
213,220,192797,1,0,0:0:0:0:
356,150,193029,1,0,0:0:0:0:
180,140,193260,1,0,0:0:0:0:
252,305,193492,1,0,0:0:0:0:
227,67,193724,1,0,0:0:0:0:
442,155,193955,1,2,0:0:0:0:
30,158,197662,101,0,0:0:0:0:
150,24,198125,2,0,B|122:60|122:60|129:127,1,90
146,192,198588,1,0,0:0:0:0:
164,280,198820,2,0,B|169:324|169:324|127:378,1,90
68,305,199284,102,0,B|40:339|40:339|47:408,1,90
164,280,199747,2,0,B|158:236|158:236|105:192,1,90
33,215,200210,1,0,0:0:0:0:
318,60,200905,1,0,0:0:0:0:
393,109,201137,1,0,0:0:0:0:
399,19,201369,5,0,0:0:0:0:
312,144,201600,1,0,0:0:0:0:
468,157,201832,1,0,0:0:0:0:
252,10,202064,1,2,0:0:0:0:
108,285,202527,1,0,0:0:0:0:
172,222,202758,1,0,0:0:0:0:
1,172,202990,1,0,0:0:0:0:
41,347,203222,101,0,0:0:0:0:
85,198,203453,1,0,0:0:0:0:
193,305,203685,1,0,0:0:0:0:
65,114,203917,1,2,0:0:0:0:
445,117,204380,1,0,0:0:0:0:
383,52,204612,1,0,0:0:0:0:
472,35,204843,1,0,0:0:0:0:
423,358,205075,21,2,0:0:0:0:
348,306,205307,1,0,0:0:0:0:
274,255,205538,1,0,0:0:0:0:
185,383,205770,1,2,0:0:0:0:
193,292,206002,1,0,0:0:0:0:
200,202,206233,1,0,0:0:0:0:
45,189,206465,1,2,0:0:0:0:
128,150,206697,1,0,0:0:0:0:
209,111,206928,101,0,0:0:0:0:
303,369,207160,1,0,0:0:0:0:
29,112,207623,1,0,0:0:0:0:
387,10,208087,1,2,0:0:0:0:
166,245,208550,21,0,0:0:0:0:
133,160,208782,2,0,P|98:187|78:230,1,90
109,311,209245,2,0,P|149:329|197:328,1,90
227,244,209708,2,0,B|305:250|266:352|349:361,1,180
376,275,210403,2,0,P|412:300|434:342,1,90
347,360,210867,2,0,P|310:334|288:292,1,90
314,208,211330,1,0,0:0:0:0:
62,66,212257,38,0,P|32:98|19:144,1,90
180,225,212952,2,0,P|209:192|222:146,1,90
398,184,213647,2,0,P|364:155|316:147,2,90
327,237,214342,1,0,0:0:0:0:
255,291,214573,2,0,P|289:320|336:328,2,90,0|0|0,0:0|0:0|0:0,0:0:0:0:
449,4,215963,1,0,0:0:0:0:
364,36,216195,86,0,B|382:77|382:77|445:102,1,90
507,128,216658,2,0,B|488:169|488:169|435:190,1,90
423,94,217121,2,0,B|349:118|349:118|325:108|325:108|244:132,1,180
165,154,217816,2,0,B|180:196|180:196|241:226,1,90
310,203,218280,2,0,B|313:248|313:248|269:300,1,90
220,216,218743,1,0,0:0:0:0:
138,294,219670,22,0,B|158:333|158:333|204:348,1,90
246,43,220365,2,0,B|202:42|202:42|165:74,1,90
407,269,221060,2,0,B|429:232|429:232|420:183,2,90
63,109,222450,2,0,L|-2:92,2,45
326,166,223145,1,0,0:0:0:0:
238,147,223376,1,0,0:0:0:0:
203,61,223608,102,0,P|168:88|148:131,1,90
238,145,224071,2,0,P|219:185|182:214,1,90
148,128,224535,2,0,B|70:134|109:236|26:245,1,180
27,334,225230,2,0,P|69:345|116:335,1,90
157,258,225693,2,0,P|199:246|234:215,1,90
236,126,226156,1,0,0:0:0:0:
457,342,227083,1,0,0:0:0:0:
466,252,227314,5,0,0:0:0:0:
265,150,227778,1,0,0:0:0:0:
248,61,228009,2,0,B|202:73|182:113|182:113|180:68|138:31,1,180
94,109,228704,2,0,P|103:152|134:188,1,90
334,43,229399,1,0,0:0:0:0:
275,184,229631,1,0,0:0:0:0:
418,75,229863,1,0,0:0:0:0:
267,95,230094,1,2,0:0:0:0:
267,95,230558,1,0,0:0:0:0:
196,39,230789,54,0,L|166:154,1,90
191,305,231484,1,0,0:0:0:0:
335,197,231948,2,0,B|407:143|407:143|338:86,1,180
249,102,232643,2,0,L|288:-6,1,90
160,121,233106,2,0,L|199:13,2,90
335,197,234033,2,0,L|437:173,1,90
358,113,234496,2,0,L|460:89,1,90
87,37,238434,70,0,B|47:58|47:58|26:123,2,90
118,120,239129,2,0,B|94:194|94:194|104:218|104:218|79:299,1,180
166,258,239824,1,0,0:0:0:0:
236,313,240056,2,0,B|236:235|236:235|252:215|252:215|255:131,1,180
308,65,240751,2,0,B|341:95|341:95|345:163,1,90
150,304,241677,1,2,0:0:0:0:
150,304,242141,102,0,B|124:340|124:340|57:353,2,90
77,250,242836,2,0,B|122:187|122:187|120:161|120:161|168:91,1,180
322,303,243762,2,0,B|311:225|311:225|325:204|325:204|315:120,1,180
239,81,244457,2,0,B|264:44|264:44|331:31,1,90
26,272,245847,37,0,0:0:0:0:
101,222,246079,1,0,0:0:0:0:
103,311,246311,1,0,0:0:0:0:
252,296,246542,2,0,B|180:313|183:205|103:222,1,180
150,62,247469,2,0,B|88:102|169:173|102:221,1,180
102,312,248164,2,0,P|144:300|179:269,1,90
397,44,248859,1,0,0:0:0:0:
469,97,249091,1,0,0:0:0:0:
388,136,249322,1,0,0:0:0:0:
397,44,249554,70,0,B|344:-18|278:78|222:25,1,188.999994232178
464,192,250481,1,2,0:0:0:0:
192,249,251175,1,0,0:0:0:0:
201,341,251407,2,0,B|148:403|82:307|26:360,1,188.999994232178
268,193,252334,1,2,0:0:0:0:
400,37,253260,22,0,P|444:48|477:80,1,90
401,129,253724,1,0,0:0:0:0:
320,90,253955,2,0,B|272:17|205:107|162:36,1,180
70,38,254650,1,0,0:0:0:0:
85,126,254882,2,0,B|167:153|98:241|177:264,1,180
237,197,255577,2,0,P|263:233|268:279,1,90
465,91,256504,1,2,0:0:0:0:
465,91,256967,86,0,P|492:129|502:171,2,90
383,129,257662,2,0,B|465:156|396:244|475:267,1,180
392,303,258357,2,0,P|428:331|472:341,1,90
294,304,259052,2,0,P|258:332|214:342,2,90
69,73,260210,1,2,0:0:0:0:
69,73,260674,86,0,B|87:114|87:114|150:139,1,90
159,45,261137,1,0,0:0:0:0:
211,118,261369,2,0,B|285:142|285:142|309:132|309:132|390:156,1,180
479,212,262064,1,0,0:0:0:0:
388,266,262295,2,0,B|314:242|314:242|290:252|290:252|209:228,1,180
194,143,262990,1,0,0:0:0:0:
130,205,263222,1,0,0:0:0:0:
302,254,263453,1,0,0:0:0:0:
175,382,263685,1,0,0:0:0:0:
279,170,263917,1,0,0:0:0:0:
279,170,264380,21,0,0:0:0:0:
194,143,264612,1,0,0:0:0:0:
262,84,264843,1,0,0:0:0:0:
216,230,265075,1,0,0:0:0:0:
360,193,265307,1,0,0:0:0:0:
194,143,265538,1,0,0:0:0:0:
331,26,265770,1,0,0:0:0:0:
360,193,266002,1,0,0:0:0:0:
182,60,266233,1,2,0:0:0:0:
512,36,267855,5,0,0:0:0:0:
430,0,268087,2,0,P|428:65|466:113,1,125.999996154785
304,36,269013,2,0,P|342:88|337:149,1,125.999996154785
293,223,269708,2,0,P|254:170|259:109,1,125.999996154785
258,111,270635,1,2,0:0:0:0:
76,326,271562,1,0,0:0:0:0:
141,266,271793,102,0,B|112:241|85:239|85:239|103:218|104:178,1,125.999996154785
260,97,272720,2,0,P|303:145|305:206,1,125.999996154785
371,262,273415,2,0,B|392:230|391:203|391:203|414:219|454:216,1,125.999996154785
452,216,274342,1,2,0:0:0:0:
55,51,275268,1,0,0:0:0:0:
140,27,275500,6,0,P|132:91|88:133,1,125.999996154785
257,191,276426,2,0,B|254:152|237:131|237:131|265:130|294:103,1,125.999996154785
263,21,277121,2,0,P|327:24|372:66,1,125.999996154785
371,64,278048,1,2,0:0:0:0:
58,325,278975,1,0,0:0:0:0:
29,241,279206,102,0,P|93:244|138:286,1,125.999996154785
183,359,279901,2,0,P|221:306|216:245,1,125.999996154785
137,284,280596,1,0,0:0:0:0:
217,247,280828,2,0,L|261:223,2,31.4999990386963
217,247,281986,1,2,0:0:0:0:
323,4,282681,1,0,0:0:0:0:
278,80,282913,6,0,L|325:130,1,62.9999980773926
314,213,283376,2,0,P|374:189|403:135,1,125.999996154785
321,125,284071,2,0,L|269:71,1,62.9999980773926
150,133,284535,6,0,B|131:99|138:63|138:63|108:82|70:77,1,144
69,76,285461,1,2,0:0:0:0:
307,326,286388,1,0,0:0:0:0:
320,230,286619,54,0,B|364:159|288:150|331:73,1,161.999995056153
493,181,287546,2,0,B|474:147|490:103|490:103|450:127|412:120,1,161.999995056153
325,320,288241,2,0,B|286:322|252:290|252:290|257:337|235:368,1,161.999995056153
235,368,289168,1,2,0:0:0:0:
66,58,290094,1,0,0:0:0:0:
69,223,290326,70,0,P|46:185|83:39,1,180
312,215,291253,2,0,P|288:179|140:150,1,180
401,252,291948,2,0,P|408:207|392:162,1,90
370,79,292411,2,0,B|324:84|297:123|297:123|302:77|266:34,1,180
35,269,293801,70,0,L|81:365,1,90
403,369,294728,2,0,L|465:276,1,90
309,6,295654,2,0,L|203:-1,1,90
170,76,296118,1,0,0:0:0:0:
304,159,296349,1,0,0:0:0:0:
309,6,296581,1,0,0:0:0:0:
214,159,296813,1,2,0:0:0:0:
365,254,297508,1,0,0:0:0:0:
446,208,297739,6,0,P|458:266|428:322,1,116.999994644165
344,345,298203,2,0,P|293:314|272:254,1,116.999994644165
344,345,298666,2,0,B|388:300|378:239|378:239|423:284|488:272,1,233.999989288331
488,71,299361,2,0,L|452:190,1,116.999994644165
397,108,299824,2,0,L|306:193,1,116.999994644165
301,94,300287,2,0,L|179:122,1,116.999994644165,0|2,0:0|0:0,0:0:0:0:
120,347,301214,1,0,0:0:0:0:
167,266,301446,102,0,B|208:308|208:308|213:371,1,116.999994644165
276,276,301909,2,0,B|333:291|333:291|369:343,1,116.999994644165
374,229,302372,2,0,B|431:213|431:213|488:241,1,116.999994644165
422,310,302836,1,0,0:0:0:0:
382,70,303067,2,0,B|341:113|341:113|336:176,1,116.999994644165
427,146,303531,2,0,B|468:104|468:104|468:40,1,116.999994644165
382,70,303994,1,2,0:0:0:0:
57,55,304921,1,0,0:0:0:0:
150,53,305152,6,0,P|133:109|80:145,1,116.999994644165
0,133,305616,2,0,P|12:190|62:229,1,116.999994644165
241,17,306079,2,0,P|236:93|143:218,1,233.999989288331
336,56,306774,2,0,L|422:152,1,116.999994644165
320,150,307237,2,0,L|347:282,1,116.999994644165
260,224,307701,2,0,L|219:346,1,116.999994644165,0|2,0:0|0:0,0:0:0:0:
44,48,308627,102,0,P|53:105|100:148,1,116.999994644165
110,331,309322,2,0,P|92:275|116:215,1,116.999994644165
280,140,310017,2,0,L|142:171,1,116.999994644165
214,82,310481,2,0,B|285:67,2,58.4999973220826
370,136,310944,1,0,0:0:0:0:
214,82,311175,5,0,0:0:0:0:
244,242,311407,1,0,0:0:0:0:
309,63,311639,1,2,0:0:0:0:
422,338,312334,1,0,0:0:0:0:
482,247,312565,102,0,P|467:304|416:342,1,116.999994644165
387,252,313029,2,0,P|401:194|453:157,1,116.999994644165
294,262,313492,2,0,P|341:335|434:333,1,175.499991966248
462,312,313955,1,0,0:0:0:0:
134,69,314187,2,0,L|50:164,1,116.999994644165
24,248,314650,2,0,B|85:268|131:219|131:219|116:285|161:332,1,233.999989288331,0|2,0:0|0:0,0:0:0:0:
426,83,316040,1,0,0:0:0:0:
332,79,316272,6,0,P|347:136|399:173,1,116.999994644165
357,257,316735,2,0,B|418:277|464:228|464:228|449:294|494:341,1,233.999989288331
391,170,317662,1,0,0:0:0:0:
265,264,317894,1,0,0:0:0:0:
301,179,318125,101,0,0:0:0:0:
406,335,318357,1,0,0:0:0:0:
482,163,318589,1,0,0:0:0:0:
319,339,318820,1,2,0:0:0:0:
92,45,319515,1,0,0:0:0:0:
33,118,319747,1,0,0:0:0:0:
124,138,319979,6,0,P|110:195|139:252,1,116.999994644165
226,241,320442,2,0,P|242:297|296:332,1,116.999994644165
491,124,320905,2,0,L|371:209,1,116.999994644165
317,242,321369,1,0,0:0:0:0:
366,164,321600,2,0,P|308:150|251:179,1,116.999994644165
230,263,322064,2,0,P|260:313|320:334,1,116.999994644165
366,164,322527,1,2,0:0:0:0:
395,24,323453,21,0,0:0:0:0:
459,344,323685,1,2,0:0:0:0:
191,140,324380,101,0,0:0:0:0:
459,344,324612,1,2,0:0:0:0:
131,363,325307,21,0,0:0:0:0:
459,344,325539,1,2,0:0:0:0:
44,134,326233,1,0,0:0:0:0:
179,56,326465,2,0,B|238:109|142:173|193:230,1,188.999994232178
244,281,327276,2,0,L|282:315,1,31.4999990386963,0|2,0:0|0:0,0:0:0:0:
472,134,333647,5,0,0:0:0:0:
337,56,333879,2,0,B|278:109|374:173|323:230,1,188.999994232178
256,192,334805,12,2,338511,0:0:0:0:
98,73,340365,37,0,0:0:0:0:
216,31,340828,2,0,L|236:109,1,62.9999980773926
305,106,341291,2,0,L|285:184,1,62.9999980773926
364,179,341755,2,0,L|384:257,1,62.9999980773926
444,279,342218,69,0,0:0:0:0:
378,317,342450,1,0,0:0:0:0:
450,204,342681,1,0,0:0:0:0:
324,193,342913,1,0,0:0:0:0:
317,117,343145,2,0,L|242:96,1,62.9999980773926
243,174,343608,2,0,L|168:195,1,62.9999980773926
174,266,344071,38,0,L|99:245,1,62.9999980773926
115,173,344535,2,0,L|36:194,1,62.9999980773926
118,98,344998,2,0,L|193:119,1,62.9999980773926
119,24,345461,2,0,L|40:45,1,62.9999980773926
117,98,345925,69,0,0:0:0:0:
169,44,346156,1,0,0:0:0:0:
140,171,346388,1,0,0:0:0:0:
45,79,346619,1,0,0:0:0:0:
194,116,346851,1,2,0:0:0:0:
194,116,347314,1,0,0:0:0:0:
194,116,347778,38,0,L|224:185,1,62.9999980773926
288,144,348241,2,0,L|337:196,1,62.9999980773926
293,255,348704,2,0,L|323:324,1,62.9999980773926
394,314,349168,2,0,L|443:366,1,62.9999980773926
204,115,349631,1,2,0:0:0:0:
121,81,357044,70,0,P|186:78|239:127,1,125.999996154785
158,163,357971,1,0,0:0:0:0:
396,55,358897,2,0,L|416:136,1,62.9999980773926
337,135,359361,2,0,L|317:216,1,62.9999980773926
393,219,359824,2,0,L|413:300,1,62.9999980773926
341,315,360287,1,0,0:0:0:0:
60,279,360751,38,0,P|71:214|131:174,1,125.999996154785
205,160,361677,2,0,P|193:224|133:264,1,125.999996154785
117,178,362604,2,0,P|128:113|188:73,1,125.999996154785
413,272,363994,1,0,0:0:0:0:
330,307,364457,70,0,P|345:212|422:182,1,180
239,141,366311,1,0,0:0:0:0:
322,106,366774,2,0,P|307:201|230:231,1,180
239,141,368164,1,0,0:0:0:0:
469,38,369091,1,0,0:0:0:0:
434,287,370017,38,0,L|356:229,1,90,0|2,0:0|0:0,0:0:0:0:
