osu file format v14

[General]
AudioFilename: audio.mp3
AudioLeadIn: 0
PreviewTime: 72446
Countdown: 0
SampleSet: Normal
StackLeniency: 0.9
Mode: 1
LetterboxInBreaks: 0
WidescreenStoryboard: 1

[Editor]
Bookmarks: 1850,15763,25868,35973,46078,61078,75131,85236,95341,100394,105447,114289,118078,125657,135763,145868,151552,161657,171762,181867,186920,195762,195920,196078,196315,196473,196709,196867,197025,197183,197341,197420,197499,197657,197815,197973,198130,198288,198367,198525,198604,198683,198841,198920,199078,199157,199236,199394,199473,199552,199788,199867,200025,200183,200341,200499,200815,201130,201288,201446,201604,201762,201920,202157,202315,202394,202552,202867,203025,203104,203341,203578,203657,203815,203894,203973,204052,204288,214709,219762,224815,234920,245025,255130,261216
DistanceSpacing: 2.4
BeatDivisor: 4
GridSize: 32
TimelineZoom: 2.4

[Metadata]
Title:Soitogeta Android e
TitleUnicode:添い遂げたアンドロイドへ
Artist:Yumeko
ArtistUnicode:ゆめこ
Creator:Hivie
Version:Phalaenopsis
Source:
Tags:pop japanese faputa mofu@ もふ@ vocaloid 獻給長相廝守的人形機器人 EXIT TUNES PRESENTS 神曲を歌ってみた 8 / V.A. Kamikyoku o utattemita Kamiuta 神歌 Hatsune Miku 初音ミク Cover Tinkle-POP
BeatmapID:2649317
BeatmapSetID:1275050

[Difficulty]
HPDrainRate:6
CircleSize:2
OverallDifficulty:6
ApproachRate:9
SliderMultiplier:1.4
SliderTickRate:1

[Events]
//Background and Video events
0,0,"bg.jpg",0,110
Video,0,"video.mp4"
//Break Periods
2,195446,204004
2,255330,260616
//Storyboard Layer 0 (Background)
//Storyboard Layer 1 (Fail)
//Storyboard Layer 2 (Pass)
//Storyboard Layer 3 (Foreground)
//Storyboard Layer 4 (Overlay)
//Storyboard Sound Samples

[TimingPoints]
1850,869.565217391304,4,1,0,60,1,0
1850,-62.5,4,1,0,60,0,0
15763,315.789473684211,4,1,0,90,1,0
15763,-111.111111111111,4,1,0,90,0,0
26184,-125,4,1,0,80,0,0
35973,-125,4,1,0,90,0,0
36289,-117.647058823529,4,1,0,90,0,0
46394,-125,4,1,0,90,0,0
60131,-100,4,1,0,90,0,0
61078,315.789473684211,4,1,0,90,1,0
61393,-125,4,1,0,90,0,0
63446,-123.456790123457,4,1,0,90,0,0
63525,-121.951219512195,4,1,0,90,0,0
63604,315.789473684211,4,1,0,90,1,8
63604,-120.481927710843,4,1,0,90,0,8
63682,-119.047619047619,4,1,0,90,0,8
63762,315.789473684211,4,1,0,90,1,0
63762,-117.647058823529,4,1,0,90,0,0
65340,-111.111111111111,4,1,0,90,0,0
66604,-105.263157894737,4,1,0,90,0,0
69604,-142.857142857143,4,1,0,60,0,0
69762,-144.230838572519,4,1,0,60,0,0
69919,-145.630997266506,4,1,0,60,0,0
70077,-147.058823529412,4,1,0,60,0,0
71025,-156.25,4,1,0,60,0,0
71183,-157.894819944642,4,1,0,60,0,0
71340,-159.574383205115,4,1,0,60,0,0
71656,-163.043566871504,4,1,0,60,0,0
71972,-166.666666666667,4,1,0,60,0,0
73867,-142.857142857143,4,1,0,70,0,0
74498,-125,4,1,0,80,0,0
75130,-100,4,1,0,100,0,1
94077,-100,4,1,0,60,0,0
94235,-105.263157894737,4,1,0,60,0,0
94393,-111.111111111111,4,1,0,60,0,0
94551,-113.207589889657,4,1,0,60,0,0
94709,-115.384571005934,4,1,0,60,0,0
94867,-117.647058823529,4,1,0,60,0,0
95025,-120.000048000019,4,1,0,60,0,0
95183,-122.448929612682,4,1,0,60,0,0
95340,-125,4,1,0,60,0,0
100709,-117.647058823529,4,1,0,90,0,0
114367,-64.5161290322581,4,1,0,90,0,0
115551,-117.647058823529,4,1,0,90,0,0
115867,-115.107913669065,4,1,0,90,0,0
116025,-113.879003558719,4,1,0,90,0,0
116104,-113.274400438598,4,1,0,90,0,0
116183,-112.676056338028,4,1,0,90,0,0
116340,-111.498257839721,4,1,0,90,0,0
116498,-110.344827586207,4,1,0,90,0,0
116656,-109.215017064846,4,1,0,90,0,0
116814,-108.108108108108,4,1,0,90,0,0
116893,-107.562967361093,4,1,0,90,0,0
116972,-107.023411371237,4,1,0,90,0,0
117051,-106.489241391942,4,1,0,90,0,0
117130,-105.960264900662,4,1,0,90,0,0
117288,-104.918032786885,4,1,0,90,0,0
117446,-103.896103896104,4,1,0,90,0,0
117525,-103.392515209039,4,1,0,90,0,0
117604,-102.893890675241,4,1,0,90,0,0
117762,-101.910828025478,4,1,0,90,0,0
117840,-101.426256012041,4,1,0,90,0,0
117919,-100.946372239748,4,1,0,90,0,0
117998,-100.471008085907,4,1,0,90,0,0
118077,-100,4,1,0,90,0,0
118393,-111.111111111111,4,1,0,90,0,0
125972,-125,4,1,0,90,0,0
139709,-100,4,1,0,90,0,0
140656,315.789473684211,4,1,0,90,1,0
145392,-106.382978723404,4,1,0,90,0,0
145550,-109.89010989011,4,1,0,90,0,0
145629,-111.731843575419,4,1,0,90,0,0
145708,315.789473684211,4,1,0,90,1,8
145708,-113.636363636364,4,1,0,90,0,0
145787,-115.606936416185,4,1,0,90,0,0
145866,315.789473684211,4,1,0,90,1,0
145866,-117.64705882353,4,1,0,90,0,0
147444,-111.111111111111,4,1,0,90,0,0
148708,-105.263157894737,4,1,0,90,0,0
150918,-100,4,1,0,90,0,0
151552,315.789473684211,4,1,0,100,1,0
151867,-111.111111111111,4,1,0,100,0,0
171762,-111.111111111111,4,1,0,70,0,0
172394,-153.846153846154,4,1,0,70,0,0
181867,-144.927536231884,4,1,0,80,0,0
186920,-144.927536231884,4,1,0,60,0,0
187552,-166.666666666667,4,1,0,60,0,0
188183,-173.076856508901,4,1,0,60,0,0
188815,-179.999856000115,4,1,0,60,0,0
189446,-187.500117187573,4,1,0,60,0,0
190078,-195.652216446134,4,1,0,60,0,0
190709,-204.545408057862,4,1,0,60,0,0
191973,-225.000225000225,4,1,0,40,0,0
192604,-236.842229916963,4,1,0,40,0,0
193236,-250,4,1,0,40,0,0
204604,-166.666666666667,4,1,0,70,0,0
218973,-163.934426229508,4,1,0,70,0,0
219130,-161.290322580645,4,1,0,70,0,0
219288,-158.730158730159,4,1,0,70,0,0
219446,-156.25,4,1,0,70,0,0
219604,-153.846153846154,4,1,0,70,0,0
219762,-125,4,1,0,70,0,0
222288,-125,4,1,0,80,0,0
222604,-121.221672010522,4,1,0,70,0,0
222920,-117.665054655418,4,1,0,70,0,0
223236,-114.31118935077,4,1,0,70,0,0
223552,-111.1432191522,4,1,0,70,0,0
223867,-108.14610538838,4,1,0,70,0,0
224183,-107.52688172043,4,1,0,70,0,0
224341,-105.263157894737,4,1,0,70,0,0
224420,-103.941676246624,4,1,0,70,0,0
224499,-102.611988158577,4,1,0,70,0,0
224578,-101.959768714461,4,1,0,70,0,0
224657,-101.315788140582,4,1,0,70,0,0
224736,-100.679891305989,4,1,0,70,0,0
224815,-100,4,1,0,100,0,1
255130,869.565217391304,4,1,0,100,1,0
255130,-36.3636363636364,4,1,0,100,0,0
255782,-62.5,4,1,0,60,0,0

[Colours]
Combo1 : 0,255,255
Combo2 : 255,255,255
Combo3 : 255,255,0
Combo4 : 255,102,204
Combo5 : 255,153,0
Combo6 : 255,0,51

[HitObjects]
256,192,1850,5,0,0:0:0:0:
256,192,2719,1,8,0:0:0:0:
256,192,3589,1,0,0:0:0:0:
256,192,4458,1,8,0:0:0:0:
256,192,5328,1,0,0:0:0:0:
256,192,6197,1,8,0:0:0:0:
256,192,6632,1,0,0:0:0:0:
256,192,7067,1,0,0:0:0:0:
256,192,7936,1,0,0:0:0:0:
256,192,8806,1,0,0:0:0:0:
256,192,9675,1,8,0:0:0:0:
256,192,10545,1,0,0:0:0:0:
256,192,11414,1,8,0:0:0:0:
256,192,12284,1,0,0:0:0:0:
256,192,13153,1,0,0:0:0:0:
256,192,14023,1,8,0:0:0:0:
256,192,14241,8,0,15545,0:0:0:0:
256,96,15763,5,4,0:0:0:0:
256,192,16078,1,8,0:0:0:0:
256,192,16394,1,8,0:0:0:0:
256,192,16552,1,0,0:0:0:0:
256,192,16710,1,8,0:0:0:0:
256,192,16789,1,8,0:0:0:0:
256,192,16868,1,0,0:0:0:0:
256,192,17026,1,0,0:0:0:0:
256,192,17184,1,8,0:0:0:0:
256,192,17263,1,0,0:0:0:0:
256,192,17341,1,0,0:0:0:0:
256,192,17499,1,8,0:0:0:0:
256,192,17657,1,0,0:0:0:0:
256,192,17815,1,0,0:0:0:0:
256,192,17894,1,0,0:0:0:0:
256,192,17973,1,8,0:0:0:0:
256,192,18131,1,8,0:0:0:0:
256,192,18289,1,0,0:0:0:0:
256,192,18605,1,8,0:0:0:0:
256,192,18920,1,8,0:0:0:0:
256,192,19078,1,0,0:0:0:0:
256,192,19236,1,8,0:0:0:0:
256,192,19315,1,8,0:0:0:0:
256,192,19394,1,0,0:0:0:0:
256,192,19552,1,0,0:0:0:0:
256,192,19710,1,8,0:0:0:0:
256,192,19789,1,0,0:0:0:0:
256,192,19867,1,0,0:0:0:0:
256,192,20025,1,8,0:0:0:0:
256,192,20184,1,8,0:0:0:0:
256,192,20341,1,8,0:0:0:0:
256,192,20420,1,0,0:0:0:0:
256,192,20499,1,0,0:0:0:0:
256,192,20657,1,8,0:0:0:0:
256,96,20815,1,4,0:0:0:0:
256,192,21131,1,8,0:0:0:0:
256,192,21446,1,8,0:0:0:0:
256,192,21604,1,0,0:0:0:0:
256,192,21762,1,8,0:0:0:0:
256,192,21841,1,8,0:0:0:0:
256,192,21920,1,0,0:0:0:0:
256,192,22078,1,0,0:0:0:0:
256,192,22236,1,8,0:0:0:0:
256,192,22315,1,0,0:0:0:0:
256,192,22393,1,0,0:0:0:0:
256,192,22551,1,8,0:0:0:0:
256,192,22710,1,0,0:0:0:0:
256,192,22867,1,8,0:0:0:0:
256,192,22946,1,0,0:0:0:0:
256,192,23025,1,8,0:0:0:0:
256,192,23183,1,8,0:0:0:0:
256,192,23341,1,0,0:0:0:0:
256,192,23657,1,8,0:0:0:0:
256,192,23972,1,8,0:0:0:0:
256,192,24130,1,0,0:0:0:0:
256,192,24288,1,8,0:0:0:0:
256,192,24367,1,0,0:0:0:0:
256,192,24446,1,8,0:0:0:0:
256,192,24604,1,0,0:0:0:0:
256,192,24762,1,8,0:0:0:0:
256,192,24841,1,8,0:0:0:0:
256,192,24919,1,0,0:0:0:0:
256,192,25077,1,8,0:0:0:0:
256,192,25236,1,0,0:0:0:0:
256,192,25394,1,0,0:0:0:0:
256,192,25551,1,8,0:0:0:0:
256,192,25631,1,8,0:0:0:0:
256,192,25709,1,0,0:0:0:0:
256,192,25789,1,0,0:0:0:0:
261,100,25868,1,12,0:0:0:0:
256,192,26184,1,8,0:0:0:0:
256,192,26500,1,0,0:0:0:0:
256,192,26658,1,0,0:0:0:0:
256,192,26816,1,8,0:0:0:0:
256,192,26973,1,8,0:0:0:0:
256,192,27131,1,0,0:0:0:0:
256,192,27447,1,0,0:0:0:0:
256,192,27605,1,0,0:0:0:0:
256,192,27763,1,8,0:0:0:0:
256,192,28079,1,0,0:0:0:0:
256,192,28395,1,8,0:0:0:0:
256,192,28710,1,0,0:0:0:0:
256,192,28868,1,0,0:0:0:0:
256,192,29026,1,8,0:0:0:0:
256,192,29341,1,8,0:0:0:0:
256,192,29499,1,0,0:0:0:0:
256,192,29658,1,8,0:0:0:0:
256,192,29973,1,8,0:0:0:0:
256,192,30289,1,0,0:0:0:0:
256,192,30447,1,0,0:0:0:0:
256,192,30604,1,8,0:0:0:0:
256,192,30763,1,0,0:0:0:0:
256,96,30920,1,12,0:0:0:0:
256,192,31236,1,8,0:0:0:0:
256,192,31394,1,8,0:0:0:0:
256,192,31552,1,0,0:0:0:0:
256,192,31710,1,0,0:0:0:0:
256,192,31868,1,8,0:0:0:0:
256,192,32025,1,0,0:0:0:0:
256,192,32183,1,8,0:0:0:0:
256,192,32499,1,8,0:0:0:0:
256,192,32657,1,0,0:0:0:0:
256,192,32815,1,8,0:0:0:0:
256,192,33131,1,8,0:0:0:0:
256,192,33447,1,0,0:0:0:0:
256,192,33762,1,0,0:0:0:0:
256,192,33920,1,0,0:0:0:0:
256,192,34078,1,0,0:0:0:0:
256,192,34393,1,8,0:0:0:0:
256,192,34552,1,0,0:0:0:0:
256,192,34710,1,8,0:0:0:0:
256,192,35025,1,0,0:0:0:0:
256,192,35183,1,0,0:0:0:0:
256,192,35341,1,8,0:0:0:0:
256,192,35499,1,0,0:0:0:0:
256,192,35656,1,8,0:0:0:0:
256,192,35815,1,8,0:0:0:0:
256,192,35894,1,8,0:0:0:0:
256,96,35972,1,4,0:0:0:0:
256,192,36289,1,8,0:0:0:0:
256,192,36446,1,0,0:0:0:0:
256,192,36525,1,0,0:0:0:0:
256,192,36605,1,8,0:0:0:0:
256,192,36763,1,0,0:0:0:0:
256,192,36921,1,8,0:0:0:0:
256,192,37079,1,0,0:0:0:0:
256,192,37394,1,0,0:0:0:0:
256,192,37552,1,8,0:0:0:0:
256,192,37710,1,0,0:0:0:0:
256,192,37789,1,8,0:0:0:0:
256,192,37868,1,0,0:0:0:0:
256,192,38026,1,0,0:0:0:0:
256,192,38184,1,8,0:0:0:0:
256,192,38263,1,8,0:0:0:0:
256,192,38341,1,8,0:0:0:0:
256,192,38500,1,0,0:0:0:0:
256,192,38816,1,8,0:0:0:0:
256,192,38973,1,0,0:0:0:0:
256,192,39052,1,0,0:0:0:0:
256,192,39131,1,8,0:0:0:0:
256,192,39289,1,0,0:0:0:0:
256,192,39447,1,0,0:0:0:0:
256,192,39605,1,8,0:0:0:0:
256,192,39684,1,8,0:0:0:0:
256,192,39762,1,0,0:0:0:0:
256,192,39920,1,8,0:0:0:0:
256,192,40079,1,0,0:0:0:0:
256,192,40236,1,0,0:0:0:0:
256,192,40394,1,8,0:0:0:0:
256,192,40552,1,8,0:0:0:0:
256,192,40710,1,8,0:0:0:0:
256,192,40789,1,0,0:0:0:0:
256,192,40868,1,8,0:0:0:0:
256,192,40946,1,8,0:0:0:0:
256,96,41025,1,4,0:0:0:0:
256,192,41341,1,8,0:0:0:0:
256,192,41498,1,0,0:0:0:0:
256,192,41577,1,0,0:0:0:0:
256,192,41657,1,8,0:0:0:0:
256,192,41815,1,0,0:0:0:0:
256,192,41973,1,8,0:0:0:0:
256,192,42131,1,0,0:0:0:0:
256,192,42289,1,8,0:0:0:0:
256,192,42604,1,8,0:0:0:0:
256,192,42762,1,0,0:0:0:0:
256,192,42841,1,8,0:0:0:0:
256,192,42920,1,0,0:0:0:0:
256,192,43078,1,8,0:0:0:0:
256,192,43236,1,0,0:0:0:0:
256,192,43315,1,0,0:0:0:0:
256,192,43393,1,0,0:0:0:0:
256,192,43552,1,8,0:0:0:0:
256,192,43868,1,8,0:0:0:0:
256,192,44025,1,0,0:0:0:0:
256,192,44104,1,0,0:0:0:0:
256,192,44183,1,8,0:0:0:0:
256,192,44341,1,0,0:0:0:0:
256,192,44499,1,8,0:0:0:0:
256,192,44657,1,8,0:0:0:0:
256,192,44736,1,8,0:0:0:0:
256,192,44814,1,0,0:0:0:0:
256,192,45131,1,8,0:0:0:0:
256,192,45288,1,0,0:0:0:0:
256,192,45446,1,8,0:0:0:0:
256,192,45604,1,0,0:0:0:0:
256,192,45762,1,8,0:0:0:0:
256,192,45841,1,8,0:0:0:0:
256,192,45920,1,0,0:0:0:0:
256,192,45999,1,0,0:0:0:0:
256,96,46078,1,12,0:0:0:0:
256,192,46394,1,8,0:0:0:0:
256,192,46552,1,0,0:0:0:0:
256,192,46868,1,8,0:0:0:0:
256,192,47026,1,0,0:0:0:0:
256,192,47184,1,0,0:0:0:0:
256,192,47341,1,0,0:0:0:0:
256,192,47657,1,8,0:0:0:0:
256,192,47815,1,0,0:0:0:0:
256,192,47973,1,8,0:0:0:0:
256,192,48131,1,0,0:0:0:0:
256,192,48210,1,0,0:0:0:0:
256,192,48289,1,8,0:0:0:0:
256,192,48447,1,8,0:0:0:0:
256,192,48526,1,8,0:0:0:0:
256,96,48605,1,4,0:0:0:0:
256,192,48920,1,0,0:0:0:0:
256,192,49078,1,8,0:0:0:0:
256,192,49236,1,8,0:0:0:0:
256,192,49394,1,0,0:0:0:0:
256,192,49552,1,0,0:0:0:0:
256,192,49710,1,0,0:0:0:0:
256,192,49868,1,8,0:0:0:0:
256,192,50026,1,0,0:0:0:0:
256,192,50184,1,8,0:0:0:0:
256,192,50341,1,0,0:0:0:0:
256,192,50499,1,8,0:0:0:0:
256,192,50657,1,8,0:0:0:0:
256,192,50815,1,8,0:0:0:0:
256,192,50894,1,0,0:0:0:0:
256,192,50973,1,8,0:0:0:0:
256,192,51052,1,8,0:0:0:0:
256,96,51131,1,4,0:0:0:0:
256,192,51447,1,0,0:0:0:0:
256,192,51605,1,8,0:0:0:0:
256,192,51920,1,8,0:0:0:0:
256,192,52078,1,0,0:0:0:0:
256,192,52236,1,0,0:0:0:0:
256,192,52394,1,8,0:0:0:0:
256,192,52552,1,0,0:0:0:0:
256,192,52710,1,8,0:0:0:0:
256,192,52868,1,8,0:0:0:0:
256,192,53026,1,0,0:0:0:0:
256,192,53184,1,0,0:0:0:0:
256,192,53263,1,0,0:0:0:0:
256,192,53342,1,8,0:0:0:0:
256,192,53500,1,8,0:0:0:0:
256,192,53579,1,8,0:0:0:0:
256,96,53658,1,4,0:0:0:0:
256,192,53973,1,0,0:0:0:0:
256,192,54131,1,8,0:0:0:0:
256,192,54447,1,8,0:0:0:0:
256,192,54605,1,8,0:0:0:0:
256,192,54763,1,0,0:0:0:0:
256,192,54920,1,8,0:0:0:0:
256,192,55552,1,8,0:0:0:0:
256,192,55868,1,8,0:0:0:0:
256,192,55947,1,8,0:0:0:0:
256,192,56026,1,0,0:0:0:0:
256,192,56105,1,0,0:0:0:0:
256,96,56184,1,12,0:0:0:0:
256,192,56341,1,0,0:0:0:0:
256,192,56657,1,8,0:0:0:0:
256,192,56815,1,8,0:0:0:0:
256,192,56973,1,0,0:0:0:0:
256,192,57131,1,8,0:0:0:0:
256,192,57289,1,0,0:0:0:0:
256,192,57447,1,0,0:0:0:0:
256,192,57763,1,8,0:0:0:0:
256,192,57920,1,8,0:0:0:0:
256,96,58078,1,4,0:0:0:0:
256,192,58236,1,8,0:0:0:0:
256,192,58315,1,8,0:0:0:0:
256,192,58394,1,0,0:0:0:0:
256,192,58552,1,0,0:0:0:0:
256,192,58631,1,0,0:0:0:0:
256,96,58710,1,12,0:0:0:0:
256,192,59026,1,8,0:0:0:0:
256,192,59341,1,0,0:0:0:0:
256,192,59499,1,0,0:0:0:0:
256,192,59657,1,8,0:0:0:0:
256,192,59815,1,0,0:0:0:0:
256,96,60131,1,12,0:0:0:0:
256,96,60447,1,4,0:0:0:0:
256,96,60763,1,4,0:0:0:0:
256,96,61078,1,12,0:0:0:0:
256,192,61393,1,0,0:0:0:0:
256,192,61551,1,0,0:0:0:0:
256,96,61709,1,12,0:0:0:0:
256,192,62025,1,8,0:0:0:0:
256,192,62183,1,0,0:0:0:0:
256,192,62341,1,0,0:0:0:0:
256,96,62499,1,12,0:0:0:0:
256,192,62814,1,8,0:0:0:0:
256,192,62972,1,0,0:0:0:0:
256,192,63288,1,8,0:0:0:0:
256,192,63446,1,8,0:0:0:0:
256,192,63525,1,8,0:0:0:0:
256,192,63604,1,0,0:0:0:0:
256,192,63683,1,0,0:0:0:0:
256,96,63762,1,12,0:0:0:0:
256,192,64077,1,8,0:0:0:0:
256,192,64235,1,0,0:0:0:0:
256,192,64393,1,0,0:0:0:0:
256,192,64551,1,8,0:0:0:0:
256,192,64630,1,8,0:0:0:0:
256,192,64709,1,0,0:0:0:0:
256,192,64867,1,0,0:0:0:0:
256,192,64946,1,0,0:0:0:0:
256,192,65025,1,8,0:0:0:0:
256,192,65340,1,8,0:0:0:0:
256,192,65498,1,0,0:0:0:0:
256,192,65656,1,8,0:0:0:0:
256,192,65814,1,0,0:0:0:0:
256,192,65972,1,0,0:0:0:0:
256,192,66130,1,8,0:0:0:0:
256,192,66209,1,8,0:0:0:0:
256,192,66288,1,0,0:0:0:0:
256,192,66604,1,0,0:0:0:0:
256,192,66762,1,0,0:0:0:0:
256,192,66919,1,8,0:0:0:0:
256,192,67077,1,8,0:0:0:0:
256,192,67235,1,0,0:0:0:0:
256,192,67393,1,8,0:0:0:0:
256,192,67472,1,8,0:0:0:0:
256,192,67551,1,8,0:0:0:0:
256,192,67709,1,0,0:0:0:0:
256,192,67867,1,8,0:0:0:0:
256,192,68025,1,0,0:0:0:0:
256,192,68104,1,0,0:0:0:0:
256,192,68183,1,8,0:0:0:0:
256,192,68340,1,0,0:0:0:0:
256,192,68498,1,8,0:0:0:0:
256,192,68577,1,0,0:0:0:0:
256,192,68656,1,8,0:0:0:0:
256,192,68735,1,8,0:0:0:0:
256,192,68814,1,0,0:0:0:0:
256,192,69604,1,8,0:0:0:0:
256,192,69762,1,8,0:0:0:0:
256,192,69919,1,0,0:0:0:0:
256,192,70077,1,0,0:0:0:0:
256,192,71025,1,0,0:0:0:0:
256,192,71183,1,0,0:0:0:0:
256,192,71340,1,8,0:0:0:0:
256,192,71656,1,8,0:0:0:0:
256,192,71972,1,0,0:0:0:0:
256,192,73235,1,0,0:0:0:0:
256,192,73867,1,0,0:0:0:0:
256,192,74498,1,0,0:0:0:0:
256,192,75130,1,8,0:0:0:0:
256,192,75288,1,0,0:0:0:0:
256,192,75446,1,8,0:0:0:0:
256,192,75604,1,0,0:0:0:0:
256,192,75762,1,8,0:0:0:0:
256,192,75920,1,0,0:0:0:0:
256,192,76078,1,8,0:0:0:0:
256,192,76236,1,0,0:0:0:0:
256,192,76393,1,8,0:0:0:0:
256,192,76472,1,8,0:0:0:0:
256,192,76551,1,0,0:0:0:0:
256,192,76709,1,8,0:0:0:0:
256,192,76867,1,0,0:0:0:0:
256,192,76946,1,0,0:0:0:0:
256,192,77025,1,0,0:0:0:0:
256,192,77183,1,8,0:0:0:0:
256,192,77340,1,8,0:0:0:0:
256,192,77498,1,0,0:0:0:0:
256,192,77656,1,8,0:0:0:0:
256,192,77972,1,8,0:0:0:0:
256,192,78130,1,0,0:0:0:0:
256,192,78288,1,8,0:0:0:0:
256,192,78446,1,0,0:0:0:0:
256,192,78604,1,8,0:0:0:0:
256,192,78762,1,0,0:0:0:0:
256,192,78919,1,8,0:0:0:0:
256,192,78998,1,8,0:0:0:0:
256,192,79077,1,0,0:0:0:0:
256,192,79235,1,8,0:0:0:0:
256,192,79393,1,0,0:0:0:0:
256,192,79472,1,0,0:0:0:0:
256,192,79551,1,8,0:0:0:0:
256,192,79709,1,0,0:0:0:0:
256,192,79866,1,8,0:0:0:0:
256,192,80024,1,0,0:0:0:0:
256,192,80182,1,8,0:0:0:0:
256,192,80498,1,8,0:0:0:0:
256,192,80656,1,0,0:0:0:0:
256,192,80814,1,8,0:0:0:0:
256,192,80972,1,0,0:0:0:0:
256,192,81130,1,8,0:0:0:0:
256,192,81288,1,8,0:0:0:0:
256,192,81445,1,0,0:0:0:0:
256,192,81524,1,0,0:0:0:0:
256,192,81603,1,0,0:0:0:0:
256,192,81761,1,8,0:0:0:0:
256,192,81919,1,0,0:0:0:0:
256,192,82077,1,8,0:0:0:0:
256,192,82156,1,8,0:0:0:0:
256,192,82235,1,0,0:0:0:0:
256,192,82392,1,8,0:0:0:0:
256,192,82550,1,0,0:0:0:0:
256,192,82708,1,8,0:0:0:0:
256,192,83025,1,8,0:0:0:0:
256,192,83183,1,0,0:0:0:0:
256,192,83340,1,8,0:0:0:0:
256,192,83498,1,0,0:0:0:0:
256,192,83656,1,8,0:0:0:0:
256,192,83814,1,0,0:0:0:0:
256,192,83972,1,8,0:0:0:0:
256,192,84051,1,0,0:0:0:0:
256,192,84130,1,0,0:0:0:0:
256,192,84288,1,8,0:0:0:0:
256,192,84446,1,0,0:0:0:0:
256,96,84604,1,12,0:0:0:0:
256,192,84762,1,0,0:0:0:0:
256,192,84841,1,0,0:0:0:0:
256,192,84919,1,8,0:0:0:0:
256,192,84998,1,8,0:0:0:0:
256,192,85077,1,0,0:0:0:0:
256,192,85156,1,0,0:0:0:0:
256,96,85235,1,12,0:0:0:0:
256,192,85551,1,8,0:0:0:0:
256,192,85709,1,0,0:0:0:0:
256,192,85788,1,0,0:0:0:0:
256,192,85867,1,8,0:0:0:0:
256,192,86025,1,0,0:0:0:0:
256,192,86183,1,8,0:0:0:0:
256,192,86340,1,0,0:0:0:0:
256,192,86498,1,8,0:0:0:0:
256,192,86577,1,8,0:0:0:0:
256,192,86656,1,0,0:0:0:0:
256,192,86735,1,0,0:0:0:0:
256,192,86814,1,8,0:0:0:0:
256,192,86972,1,0,0:0:0:0:
256,192,87130,1,8,0:0:0:0:
256,192,87209,1,8,0:0:0:0:
256,192,87288,1,8,0:0:0:0:
256,192,87446,1,0,0:0:0:0:
256,192,87604,1,0,0:0:0:0:
256,192,87683,1,0,0:0:0:0:
256,192,87762,1,8,0:0:0:0:
256,192,88077,1,0,0:0:0:0:
256,192,88235,1,8,0:0:0:0:
256,192,88314,1,0,0:0:0:0:
256,192,88393,1,0,0:0:0:0:
256,192,88551,1,8,0:0:0:0:
256,192,88709,1,0,0:0:0:0:
256,192,88866,1,8,0:0:0:0:
256,192,89024,1,0,0:0:0:0:
256,192,89103,1,0,0:0:0:0:
256,192,89182,1,0,0:0:0:0:
256,192,89340,1,8,0:0:0:0:
256,192,89498,1,0,0:0:0:0:
256,192,89577,1,0,0:0:0:0:
256,192,89656,1,8,0:0:0:0:
256,192,89735,1,0,0:0:0:0:
256,192,89814,1,8,0:0:0:0:
256,192,89972,1,8,0:0:0:0:
256,192,90130,1,0,0:0:0:0:
256,192,90209,1,0,0:0:0:0:
256,192,90288,1,8,0:0:0:0:
256,192,90604,1,8,0:0:0:0:
256,192,90762,1,0,0:0:0:0:
256,192,90840,1,8,0:0:0:0:
256,192,90920,1,0,0:0:0:0:
256,192,91078,1,0,0:0:0:0:
256,192,91236,1,8,0:0:0:0:
256,192,91393,1,0,0:0:0:0:
256,192,91551,1,0,0:0:0:0:
256,192,91630,1,0,0:0:0:0:
256,192,91709,1,8,0:0:0:0:
256,192,91867,1,8,0:0:0:0:
256,192,92025,1,0,0:0:0:0:
256,192,92183,1,8,0:0:0:0:
256,192,92262,1,0,0:0:0:0:
256,192,92340,1,8,0:0:0:0:
256,192,92419,1,8,0:0:0:0:
256,192,92499,1,0,0:0:0:0:
256,192,92657,1,0,0:0:0:0:
256,192,92736,1,0,0:0:0:0:
256,192,92815,1,8,0:0:0:0:
256,192,92972,1,0,0:0:0:0:
256,192,93130,1,8,0:0:0:0:
256,192,93288,1,0,0:0:0:0:
256,192,93446,1,8,0:0:0:0:
256,192,93604,1,0,0:0:0:0:
256,192,93762,1,8,0:0:0:0:
256,192,93840,1,8,0:0:0:0:
256,192,93919,1,8,0:0:0:0:
256,192,93998,1,8,0:0:0:0:
256,192,94077,1,0,0:0:0:0:
256,192,94235,1,8,0:0:0:0:
256,192,94393,1,0,0:0:0:0:
256,192,94551,1,8,0:0:0:0:
256,192,94709,1,0,0:0:0:0:
256,192,94867,1,8,0:0:0:0:
256,192,95025,1,0,0:0:0:0:
256,192,95183,1,8,0:0:0:0:
256,192,95340,1,0,0:0:0:0:
256,192,95656,1,0,0:0:0:0:
256,192,95814,1,0,0:0:0:0:
256,192,96130,1,0,0:0:0:0:
256,192,96446,1,0,0:0:0:0:
256,192,96604,1,8,0:0:0:0:
256,192,96919,1,8,0:0:0:0:
256,192,97077,1,0,0:0:0:0:
256,192,97393,1,8,0:0:0:0:
256,192,97551,1,0,0:0:0:0:
256,192,97709,1,8,0:0:0:0:
256,192,97867,1,0,0:0:0:0:
256,192,98183,1,0,0:0:0:0:
256,192,98341,1,0,0:0:0:0:
256,192,98657,1,0,0:0:0:0:
256,192,98973,1,8,0:0:0:0:
256,192,99131,1,0,0:0:0:0:
256,192,99446,1,0,0:0:0:0:
256,192,99604,1,8,0:0:0:0:
256,192,99920,1,0,0:0:0:0:
256,192,100078,1,0,0:0:0:0:
256,192,100236,1,8,0:0:0:0:
256,96,100393,1,4,0:0:0:0:
256,192,100709,1,8,0:0:0:0:
256,192,101024,1,8,0:0:0:0:
256,192,101182,1,0,0:0:0:0:
256,192,101340,1,8,0:0:0:0:
256,192,101498,1,0,0:0:0:0:
256,192,101577,1,0,0:0:0:0:
256,192,101656,1,8,0:0:0:0:
256,192,101814,1,0,0:0:0:0:
256,192,101971,1,8,0:0:0:0:
256,192,102051,1,8,0:0:0:0:
256,192,102130,1,0,0:0:0:0:
256,192,102288,1,8,0:0:0:0:
256,192,102445,1,8,0:0:0:0:
256,192,102524,1,0,0:0:0:0:
256,192,102603,1,0,0:0:0:0:
256,192,102761,1,8,0:0:0:0:
256,192,102919,1,0,0:0:0:0:
256,192,103235,1,8,0:0:0:0:
256,192,103550,1,8,0:0:0:0:
256,192,103708,1,0,0:0:0:0:
256,192,103866,1,8,0:0:0:0:
256,192,104024,1,8,0:0:0:0:
256,192,104104,1,8,0:0:0:0:
256,192,104182,1,0,0:0:0:0:
256,192,104340,1,8,0:0:0:0:
256,192,104497,1,0,0:0:0:0:
256,192,104577,1,0,0:0:0:0:
256,192,104655,1,8,0:0:0:0:
256,192,104814,1,0,0:0:0:0:
256,192,104972,1,0,0:0:0:0:
256,192,105129,1,8,0:0:0:0:
256,192,105209,1,8,0:0:0:0:
256,192,105287,1,0,0:0:0:0:
256,192,105367,1,0,0:0:0:0:
256,96,105446,1,12,0:0:0:0:
256,192,105762,1,8,0:0:0:0:
256,192,105919,1,0,0:0:0:0:
256,192,106078,1,8,0:0:0:0:
256,192,106156,1,8,0:0:0:0:
256,192,106236,1,0,0:0:0:0:
256,192,106394,1,8,0:0:0:0:
256,192,106552,1,0,0:0:0:0:
256,192,106710,1,8,0:0:0:0:
256,192,107025,1,8,0:0:0:0:
256,192,107183,1,0,0:0:0:0:
256,192,107262,1,8,0:0:0:0:
256,192,107341,1,0,0:0:0:0:
256,192,107499,1,0,0:0:0:0:
256,192,107657,1,8,0:0:0:0:
256,192,107736,1,8,0:0:0:0:
256,192,107814,1,0,0:0:0:0:
256,192,107973,1,8,0:0:0:0:
256,192,108288,1,0,0:0:0:0:
256,192,108446,1,0,0:0:0:0:
256,192,108525,1,0,0:0:0:0:
256,192,108604,1,8,0:0:0:0:
256,192,108762,1,0,0:0:0:0:
256,192,108920,1,8,0:0:0:0:
256,192,109078,1,8,0:0:0:0:
256,192,109156,1,0,0:0:0:0:
256,192,109235,1,0,0:0:0:0:
256,192,109393,1,0,0:0:0:0:
256,192,109552,1,8,0:0:0:0:
256,192,109867,1,0,0:0:0:0:
256,192,110025,1,8,0:0:0:0:
256,192,110183,1,0,0:0:0:0:
256,192,110262,1,8,0:0:0:0:
256,192,110341,1,0,0:0:0:0:
256,192,110419,1,0,0:0:0:0:
256,96,110498,1,12,0:0:0:0:
256,192,110814,1,8,0:0:0:0:
256,192,110971,1,0,0:0:0:0:
256,192,111050,1,0,0:0:0:0:
256,192,111130,1,8,0:0:0:0:
256,192,111288,1,0,0:0:0:0:
256,192,111446,1,8,0:0:0:0:
256,192,111525,1,8,0:0:0:0:
256,192,111604,1,0,0:0:0:0:
256,192,111762,1,8,0:0:0:0:
256,192,112077,1,8,0:0:0:0:
256,192,112235,1,0,0:0:0:0:
256,192,112314,1,8,0:0:0:0:
256,192,112393,1,0,0:0:0:0:
256,192,112551,1,0,0:0:0:0:
256,192,112709,1,8,0:0:0:0:
256,192,112788,1,0,0:0:0:0:
256,192,112866,1,0,0:0:0:0:
256,192,113025,1,8,0:0:0:0:
256,192,113341,1,8,0:0:0:0:
256,192,113498,1,0,0:0:0:0:
256,192,113577,1,0,0:0:0:0:
256,192,113656,1,8,0:0:0:0:
256,192,113814,1,0,0:0:0:0:
256,192,113972,1,8,0:0:0:0:
256,192,114130,1,8,0:0:0:0:
256,192,114287,1,0,0:0:0:0:
256,192,114367,12,0,115235,0:0:0:0:
256,192,115551,5,0,0:0:0:0:
256,96,115867,1,12,0:0:0:0:
256,192,116025,1,0,0:0:0:0:
256,192,116104,1,0,0:0:0:0:
256,192,116183,1,8,0:0:0:0:
256,192,116340,1,0,0:0:0:0:
256,192,116498,1,8,0:0:0:0:
256,192,116656,1,0,0:0:0:0:
256,192,116814,1,8,0:0:0:0:
256,192,116893,1,8,0:0:0:0:
256,192,116972,1,0,0:0:0:0:
256,192,117051,1,0,0:0:0:0:
256,192,117130,1,8,0:0:0:0:
256,192,117288,1,0,0:0:0:0:
256,192,117446,1,8,0:0:0:0:
256,192,117525,1,0,0:0:0:0:
256,192,117604,1,0,0:0:0:0:
256,192,117762,1,8,0:0:0:0:
256,192,117840,1,0,0:0:0:0:
256,192,117919,1,8,0:0:0:0:
256,192,117998,1,8,0:0:0:0:
256,96,118077,1,4,0:0:0:0:
256,192,118393,1,8,0:0:0:0:
256,192,118550,1,0,0:0:0:0:
256,192,118629,1,0,0:0:0:0:
256,192,118708,1,8,0:0:0:0:
256,192,118866,1,8,0:0:0:0:
256,192,119024,1,0,0:0:0:0:
256,192,119182,1,8,0:0:0:0:
256,192,119262,1,0,0:0:0:0:
256,192,119339,1,8,0:0:0:0:
256,192,119498,1,0,0:0:0:0:
256,192,119656,1,8,0:0:0:0:
256,192,119735,1,8,0:0:0:0:
256,192,119813,1,0,0:0:0:0:
256,192,119971,1,8,0:0:0:0:
256,192,120129,1,0,0:0:0:0:
256,192,120288,1,0,0:0:0:0:
256,192,120366,1,0,0:0:0:0:
256,192,120445,1,8,0:0:0:0:
256,192,120525,1,8,0:0:0:0:
256,96,120604,1,4,0:0:0:0:
256,192,120919,1,8,0:0:0:0:
256,192,121077,1,0,0:0:0:0:
256,192,121156,1,0,0:0:0:0:
256,192,121235,1,8,0:0:0:0:
256,192,121392,1,0,0:0:0:0:
256,192,121551,1,8,0:0:0:0:
256,192,121708,1,0,0:0:0:0:
256,192,121788,1,0,0:0:0:0:
256,192,121866,1,8,0:0:0:0:
256,192,122025,1,0,0:0:0:0:
256,192,122183,1,8,0:0:0:0:
256,192,122340,1,0,0:0:0:0:
256,192,122419,1,8,0:0:0:0:
256,192,122498,1,0,0:0:0:0:
256,192,122656,1,0,0:0:0:0:
256,192,122813,1,8,0:0:0:0:
256,192,122892,1,0,0:0:0:0:
256,192,122972,1,0,0:0:0:0:
256,192,123129,1,8,0:0:0:0:
256,192,123445,1,8,0:0:0:0:
256,192,123604,1,0,0:0:0:0:
256,192,123762,1,8,0:0:0:0:
256,192,123840,1,8,0:0:0:0:
256,192,123918,1,8,0:0:0:0:
256,192,124076,1,0,0:0:0:0:
256,192,124234,1,8,0:0:0:0:
256,192,124393,1,0,0:0:0:0:
256,192,124708,1,8,0:0:0:0:
256,192,124867,1,0,0:0:0:0:
256,192,125025,1,8,0:0:0:0:
256,192,125183,1,0,0:0:0:0:
256,192,125339,1,8,0:0:0:0:
256,192,125418,1,8,0:0:0:0:
256,192,125498,1,0,0:0:0:0:
256,192,125577,1,0,0:0:0:0:
256,96,125656,1,12,0:0:0:0:
256,192,125972,1,8,0:0:0:0:
256,192,126130,1,0,0:0:0:0:
256,192,126446,1,8,0:0:0:0:
256,192,126604,1,0,0:0:0:0:
256,192,126762,1,0,0:0:0:0:
256,192,126919,1,8,0:0:0:0:
256,192,127235,1,8,0:0:0:0:
256,192,127393,1,0,0:0:0:0:
256,192,127551,1,8,0:0:0:0:
256,192,127709,1,0,0:0:0:0:
256,192,127788,1,0,0:0:0:0:
256,192,127867,1,8,0:0:0:0:
256,192,128025,1,8,0:0:0:0:
256,192,128104,1,8,0:0:0:0:
256,96,128183,1,4,0:0:0:0:
256,192,128498,1,0,0:0:0:0:
256,192,128656,1,8,0:0:0:0:
256,192,128814,1,8,0:0:0:0:
256,192,128972,1,0,0:0:0:0:
256,192,129130,1,0,0:0:0:0:
256,192,129288,1,0,0:0:0:0:
256,192,129446,1,8,0:0:0:0:
256,192,129604,1,0,0:0:0:0:
256,192,129762,1,8,0:0:0:0:
256,192,129919,1,0,0:0:0:0:
256,192,130077,1,8,0:0:0:0:
256,192,130235,1,8,0:0:0:0:
256,192,130393,1,8,0:0:0:0:
256,192,130472,1,0,0:0:0:0:
256,192,130551,1,8,0:0:0:0:
256,192,130630,1,8,0:0:0:0:
256,96,130709,1,4,0:0:0:0:
256,192,131025,1,0,0:0:0:0:
256,192,131183,1,8,0:0:0:0:
256,192,131340,1,0,0:0:0:0:
256,192,131498,1,8,0:0:0:0:
256,192,131656,1,0,0:0:0:0:
256,192,131814,1,0,0:0:0:0:
256,192,131972,1,8,0:0:0:0:
256,192,132130,1,0,0:0:0:0:
256,192,132288,1,8,0:0:0:0:
256,192,132446,1,0,0:0:0:0:
256,192,132604,1,8,0:0:0:0:
256,192,132762,1,0,0:0:0:0:
256,192,132841,1,0,0:0:0:0:
256,192,132920,1,8,0:0:0:0:
256,192,133078,1,8,0:0:0:0:
256,192,133157,1,8,0:0:0:0:
256,192,133236,1,4,0:0:0:0:
256,192,133551,1,0,0:0:0:0:
256,192,133709,1,8,0:0:0:0:
256,192,134025,1,0,0:0:0:0:
256,192,134183,1,8,0:0:0:0:
256,192,134341,1,8,0:0:0:0:
256,192,134498,1,0,0:0:0:0:
256,192,135130,1,8,0:0:0:0:
256,192,135446,1,0,0:0:0:0:
256,192,135525,1,8,0:0:0:0:
256,192,135604,1,0,0:0:0:0:
256,192,135683,1,0,0:0:0:0:
256,96,135762,1,12,0:0:0:0:
256,192,135919,1,0,0:0:0:0:
256,192,136235,1,8,0:0:0:0:
256,192,136393,1,8,0:0:0:0:
256,192,136551,1,0,0:0:0:0:
256,192,136709,1,8,0:0:0:0:
256,192,136867,1,0,0:0:0:0:
256,192,137025,1,0,0:0:0:0:
256,192,137341,1,8,0:0:0:0:
256,192,137498,1,8,0:0:0:0:
256,96,137656,1,4,0:0:0:0:
256,192,137814,1,8,0:0:0:0:
256,192,137893,1,8,0:0:0:0:
256,192,137972,1,0,0:0:0:0:
256,192,138130,1,0,0:0:0:0:
256,192,138209,1,0,0:0:0:0:
256,96,138288,1,12,0:0:0:0:
256,192,138604,1,8,0:0:0:0:
256,192,138919,1,0,0:0:0:0:
256,192,139235,1,0,0:0:0:0:
256,192,139393,1,8,0:0:0:0:
256,96,139709,1,12,0:0:0:0:
256,96,140025,1,4,0:0:0:0:
256,96,140341,1,4,0:0:0:0:
256,96,140656,1,12,0:0:0:0:
256,192,140971,1,0,0:0:0:0:
256,192,141129,1,0,0:0:0:0:
256,96,141287,1,12,0:0:0:0:
256,192,141603,1,0,0:0:0:0:
256,96,141919,1,12,0:0:0:0:
256,192,142234,1,8,0:0:0:0:
256,192,142392,1,0,0:0:0:0:
256,96,142550,1,12,0:0:0:0:
256,192,142866,1,0,0:0:0:0:
256,96,143182,1,12,0:0:0:0:
256,192,143497,1,0,0:0:0:0:
256,192,143655,1,0,0:0:0:0:
256,96,143813,1,12,0:0:0:0:
256,192,144129,1,0,0:0:0:0:
256,96,144445,1,12,0:0:0:0:
256,192,144760,1,0,0:0:0:0:
256,192,144918,1,0,0:0:0:0:
256,96,145077,1,12,0:0:0:0:
256,192,145392,1,0,0:0:0:0:
256,192,145550,1,8,0:0:0:0:
256,192,145629,1,8,0:0:0:0:
256,192,145708,1,0,0:0:0:0:
256,192,145787,1,0,0:0:0:0:
256,96,145866,1,12,0:0:0:0:
256,192,146181,1,8,0:0:0:0:
256,192,146339,1,0,0:0:0:0:
256,192,146497,1,0,0:0:0:0:
256,192,146655,1,8,0:0:0:0:
256,192,146734,1,8,0:0:0:0:
256,192,146813,1,0,0:0:0:0:
256,192,146971,1,0,0:0:0:0:
256,192,147050,1,0,0:0:0:0:
256,192,147129,1,8,0:0:0:0:
256,192,147444,1,8,0:0:0:0:
256,192,147602,1,0,0:0:0:0:
256,192,147760,1,8,0:0:0:0:
256,192,147839,1,0,0:0:0:0:
256,192,147918,1,0,0:0:0:0:
256,192,148076,1,8,0:0:0:0:
256,192,148234,1,0,0:0:0:0:
256,192,148313,1,0,0:0:0:0:
256,192,148392,1,8,0:0:0:0:
256,192,148708,1,0,0:0:0:0:
256,192,148866,1,0,0:0:0:0:
256,192,149023,1,8,0:0:0:0:
256,192,149181,1,8,0:0:0:0:
256,192,149339,1,0,0:0:0:0:
256,192,149497,1,8,0:0:0:0:
256,192,149576,1,8,0:0:0:0:
256,192,149655,1,8,0:0:0:0:
256,192,149813,1,0,0:0:0:0:
256,192,149971,1,8,0:0:0:0:
256,192,150129,1,0,0:0:0:0:
256,192,150208,1,0,0:0:0:0:
256,192,150287,1,8,0:0:0:0:
256,192,150444,1,0,0:0:0:0:
256,192,150602,1,8,0:0:0:0:
256,192,150918,1,8,0:0:0:0:
256,192,150997,1,8,0:0:0:0:
256,192,151076,1,8,0:0:0:0:
256,192,151155,1,8,0:0:0:0:
256,192,151234,1,8,0:0:0:0:
256,192,151313,1,8,0:0:0:0:
256,192,151392,1,8,0:0:0:0:
256,192,151471,1,8,0:0:0:0:
256,96,151550,1,4,0:0:0:0:
256,192,151867,1,0,0:0:0:0:
256,192,152025,1,8,0:0:0:0:
256,192,152183,1,0,0:0:0:0:
256,192,152262,1,0,0:0:0:0:
256,192,152341,1,0,0:0:0:0:
256,192,152499,1,8,0:0:0:0:
256,192,152578,1,8,0:0:0:0:
256,192,152657,1,0,0:0:0:0:
256,192,152815,1,0,0:0:0:0:
256,192,152973,1,8,0:0:0:0:
256,192,153130,1,0,0:0:0:0:
256,192,153209,1,0,0:0:0:0:
256,192,153288,1,0,0:0:0:0:
256,192,153446,1,8,0:0:0:0:
256,192,153525,1,0,0:0:0:0:
256,192,153604,1,0,0:0:0:0:
256,192,153762,1,8,0:0:0:0:
256,192,153920,1,0,0:0:0:0:
256,192,153999,1,0,0:0:0:0:
256,192,154078,1,8,0:0:0:0:
256,192,154394,1,0,0:0:0:0:
256,192,154552,1,8,0:0:0:0:
256,192,154710,1,0,0:0:0:0:
256,192,154868,1,8,0:0:0:0:
256,192,154946,1,8,0:0:0:0:
256,192,155026,1,8,0:0:0:0:
256,96,155184,1,4,0:0:0:0:
256,192,155500,1,8,0:0:0:0:
256,192,155657,1,0,0:0:0:0:
256,192,155815,1,0,0:0:0:0:
256,192,155973,1,8,0:0:0:0:
256,192,156131,1,0,0:0:0:0:
256,192,156289,1,8,0:0:0:0:
256,192,156447,1,0,0:0:0:0:
256,192,156526,1,0,0:0:0:0:
256,96,156605,1,12,0:0:0:0:
256,192,156920,1,0,0:0:0:0:
256,192,157078,1,8,0:0:0:0:
256,192,157157,1,0,0:0:0:0:
256,192,157236,1,8,0:0:0:0:
256,192,157394,1,0,0:0:0:0:
256,192,157552,1,8,0:0:0:0:
256,192,157709,1,8,0:0:0:0:
256,192,157867,1,0,0:0:0:0:
256,192,158025,1,0,0:0:0:0:
256,192,158104,1,0,0:0:0:0:
256,192,158183,1,8,0:0:0:0:
256,192,158341,1,0,0:0:0:0:
256,192,158499,1,8,0:0:0:0:
256,192,158578,1,8,0:0:0:0:
256,192,158657,1,0,0:0:0:0:
256,192,158815,1,8,0:0:0:0:
256,192,158973,1,0,0:0:0:0:
256,96,159130,1,12,0:0:0:0:
256,192,159446,1,0,0:0:0:0:
256,192,159604,1,8,0:0:0:0:
256,192,159762,1,0,0:0:0:0:
263,192,159841,1,0,0:0:0:0:
256,192,159920,1,0,0:0:0:0:
256,192,160078,1,8,0:0:0:0:
256,192,160236,1,0,0:0:0:0:
256,192,160394,1,8,0:0:0:0:
256,192,160473,1,8,0:0:0:0:
256,192,160552,1,0,0:0:0:0:
256,192,160709,1,8,0:0:0:0:
256,192,160788,1,8,0:0:0:0:
256,192,160867,1,0,0:0:0:0:
256,192,161025,1,8,0:0:0:0:
256,192,161104,1,8,0:0:0:0:
256,192,161183,1,0,0:0:0:0:
256,192,161341,1,8,0:0:0:0:
256,192,161420,1,8,0:0:0:0:
256,192,161499,1,0,0:0:0:0:
256,192,161578,1,0,0:0:0:0:
256,96,161657,1,12,0:0:0:0:
256,192,161973,1,8,0:0:0:0:
256,192,162130,1,8,0:0:0:0:
256,192,162209,1,0,0:0:0:0:
256,192,162288,1,8,0:0:0:0:
256,192,162446,1,8,0:0:0:0:
256,192,162603,1,8,0:0:0:0:
256,192,162682,1,0,0:0:0:0:
256,192,162761,1,8,0:0:0:0:
256,192,162920,1,8,0:0:0:0:
256,192,163078,1,8,0:0:0:0:
256,192,163156,1,0,0:0:0:0:
256,192,163235,1,8,0:0:0:0:
256,192,163394,1,8,0:0:0:0:
256,192,163552,1,0,0:0:0:0:
256,192,163630,1,0,0:0:0:0:
256,192,163709,1,0,0:0:0:0:
256,192,163867,1,8,0:0:0:0:
256,192,164025,1,0,0:0:0:0:
256,192,164104,1,0,0:0:0:0:
256,192,164183,1,8,0:0:0:0:
256,192,164499,1,0,0:0:0:0:
256,192,164657,1,8,0:0:0:0:
256,192,164736,1,8,0:0:0:0:
256,192,164815,1,0,0:0:0:0:
256,192,164973,1,8,0:0:0:0:
256,192,165130,1,0,0:0:0:0:
256,96,165288,1,12,0:0:0:0:
256,192,165604,1,0,0:0:0:0:
256,192,165762,1,0,0:0:0:0:
256,192,165920,1,8,0:0:0:0:
256,192,166078,1,8,0:0:0:0:
256,192,166236,1,0,0:0:0:0:
256,192,166315,1,0,0:0:0:0:
256,192,166394,1,0,0:0:0:0:
256,192,166552,1,8,0:0:0:0:
256,192,166709,1,0,0:0:0:0:
256,192,166867,1,0,0:0:0:0:
256,192,167183,1,8,0:0:0:0:
256,192,167499,1,8,0:0:0:0:
256,192,167657,1,8,0:0:0:0:
256,192,167815,1,0,0:0:0:0:
256,192,167973,1,8,0:0:0:0:
256,192,168052,1,0,0:0:0:0:
256,192,168130,1,0,0:0:0:0:
256,192,168446,1,0,0:0:0:0:
256,192,168762,1,0,0:0:0:0:
256,192,168841,1,0,0:0:0:0:
256,192,168920,1,0,0:0:0:0:
256,192,169078,1,8,0:0:0:0:
256,192,169157,1,8,0:0:0:0:
256,192,169236,1,8,0:0:0:0:
256,192,169394,1,8,0:0:0:0:
256,192,169473,1,0,0:0:0:0:
256,192,169552,1,8,0:0:0:0:
256,192,169709,1,0,0:0:0:0:
256,192,170025,1,8,0:0:0:0:
256,192,170183,1,0,0:0:0:0:
256,192,170341,1,0,0:0:0:0:
256,192,170420,1,0,0:0:0:0:
256,192,170499,1,8,0:0:0:0:
256,192,170815,1,8,0:0:0:0:
256,192,170894,1,8,0:0:0:0:
256,192,170973,1,0,0:0:0:0:
256,192,171052,1,0,0:0:0:0:
256,192,171130,1,8,0:0:0:0:
256,192,171288,1,0,0:0:0:0:
256,192,171446,1,8,0:0:0:0:
256,192,171525,1,8,0:0:0:0:
256,192,171604,1,8,0:0:0:0:
256,192,171683,1,8,0:0:0:0:
256,96,171762,1,4,0:0:0:0:
256,192,172394,1,0,0:0:0:0:
256,192,173025,1,8,0:0:0:0:
256,192,173657,1,8,0:0:0:0:
256,192,174288,1,0,0:0:0:0:
256,192,174920,1,8,0:0:0:0:
256,192,175236,1,0,0:0:0:0:
256,192,175552,1,0,0:0:0:0:
256,192,176183,1,8,0:0:0:0:
256,192,176815,1,0,0:0:0:0:
256,192,177447,1,0,0:0:0:0:
256,192,178078,1,8,0:0:0:0:
256,192,178710,1,8,0:0:0:0:
256,192,179341,1,0,0:0:0:0:
256,192,179973,1,8,0:0:0:0:
256,192,180605,1,0,0:0:0:0:
256,192,181236,1,8,0:0:0:0:
256,192,181867,1,0,0:0:0:0:
256,192,182183,1,0,0:0:0:0:
256,192,182499,1,8,0:0:0:0:
256,192,182815,1,8,0:0:0:0:
256,192,182973,1,8,0:0:0:0:
256,192,183130,1,0,0:0:0:0:
256,192,183288,1,8,0:0:0:0:
256,192,183446,1,0,0:0:0:0:
256,192,183762,1,8,0:0:0:0:
256,192,183920,1,0,0:0:0:0:
256,192,184236,1,8,0:0:0:0:
256,192,184394,1,0,0:0:0:0:
256,192,184709,1,0,0:0:0:0:
256,192,185025,1,8,0:0:0:0:
256,192,185341,1,8,0:0:0:0:
256,192,185499,1,8,0:0:0:0:
256,192,185656,1,0,0:0:0:0:
256,192,185814,1,8,0:0:0:0:
256,192,185972,1,0,0:0:0:0:
256,192,186130,1,8,0:0:0:0:
256,192,186288,1,8,0:0:0:0:
256,192,186446,1,8,0:0:0:0:
256,192,186762,1,8,0:0:0:0:
256,96,186920,1,4,0:0:0:0:
256,192,187552,1,8,0:0:0:0:
256,192,188183,1,8,0:0:0:0:
256,192,188815,1,0,0:0:0:0:
256,192,189446,1,0,0:0:0:0:
256,192,190078,1,0,0:0:0:0:
256,192,190709,1,8,0:0:0:0:
256,192,191973,1,8,0:0:0:0:
256,192,192604,1,0,0:0:0:0:
256,192,193236,1,8,0:0:0:0:
256,192,204604,5,8,0:0:0:0:
256,192,204762,1,0,0:0:0:0:
256,192,205236,1,8,0:0:0:0:
256,192,205394,1,0,0:0:0:0:
256,192,205867,1,8,0:0:0:0:
256,192,206025,1,0,0:0:0:0:
256,192,206341,1,8,0:0:0:0:
256,192,206499,1,8,0:0:0:0:
256,192,206657,1,0,0:0:0:0:
256,192,206815,1,8,0:0:0:0:
256,192,206973,1,0,0:0:0:0:
256,192,207130,1,8,0:0:0:0:
256,192,207288,1,0,0:0:0:0:
256,192,207762,1,8,0:0:0:0:
256,192,207920,1,0,0:0:0:0:
256,192,208393,1,8,0:0:0:0:
256,192,208551,1,0,0:0:0:0:
256,192,208867,1,0,0:0:0:0:
256,192,209025,1,0,0:0:0:0:
256,192,209183,1,8,0:0:0:0:
256,192,209341,1,0,0:0:0:0:
256,192,209499,1,8,0:0:0:0:
256,192,209657,1,8,0:0:0:0:
256,192,209815,1,0,0:0:0:0:
256,192,210289,1,8,0:0:0:0:
256,192,210447,1,0,0:0:0:0:
256,192,210920,1,8,0:0:0:0:
256,192,211078,1,0,0:0:0:0:
256,192,211394,1,0,0:0:0:0:
256,192,211552,1,8,0:0:0:0:
256,192,211710,1,8,0:0:0:0:
256,192,211868,1,0,0:0:0:0:
256,192,212026,1,0,0:0:0:0:
256,192,212183,1,8,0:0:0:0:
256,192,212341,1,0,0:0:0:0:
256,192,212815,1,8,0:0:0:0:
256,192,212973,1,0,0:0:0:0:
256,192,213446,1,8,0:0:0:0:
256,192,213604,1,0,0:0:0:0:
256,192,214078,1,8,0:0:0:0:
256,192,214236,1,0,0:0:0:0:
256,192,214709,1,0,0:0:0:0:
256,192,214867,1,8,0:0:0:0:
256,192,215341,1,0,0:0:0:0:
256,192,215499,1,8,0:0:0:0:
256,192,215973,1,0,0:0:0:0:
256,192,216131,1,8,0:0:0:0:
256,192,216446,1,0,0:0:0:0:
256,192,216604,1,8,0:0:0:0:
256,192,216762,1,0,0:0:0:0:
256,192,216920,1,8,0:0:0:0:
256,192,217078,1,0,0:0:0:0:
256,192,217236,1,0,0:0:0:0:
256,192,217394,1,8,0:0:0:0:
256,192,217868,1,0,0:0:0:0:
256,192,218026,1,8,0:0:0:0:
256,192,218500,1,0,0:0:0:0:
256,192,218657,1,8,0:0:0:0:
256,192,218973,1,0,0:0:0:0:
256,192,219130,1,8,0:0:0:0:
256,192,219288,1,8,0:0:0:0:
256,192,219446,1,0,0:0:0:0:
256,192,219604,1,8,0:0:0:0:
256,96,219762,1,4,0:0:0:0:
256,192,220078,1,8,0:0:0:0:
256,192,220394,1,0,0:0:0:0:
256,192,220709,1,8,0:0:0:0:
256,192,221025,1,0,0:0:0:0:
256,192,221340,1,8,0:0:0:0:
256,192,221499,1,0,0:0:0:0:
256,192,221657,1,0,0:0:0:0:
256,192,221815,1,0,0:0:0:0:
256,192,221972,1,8,0:0:0:0:
256,192,222130,1,8,0:0:0:0:
256,192,222288,1,0,0:0:0:0:
256,192,222604,1,8,0:0:0:0:
256,192,222920,1,0,0:0:0:0:
256,192,223236,1,8,0:0:0:0:
256,192,223552,1,0,0:0:0:0:
256,192,223867,1,0,0:0:0:0:
256,96,224183,1,12,0:0:0:0:
256,192,224341,1,0,0:0:0:0:
256,192,224420,1,0,0:0:0:0:
256,192,224499,1,8,0:0:0:0:
256,192,224578,1,8,0:0:0:0:
256,192,224657,1,0,0:0:0:0:
256,192,224736,1,0,0:0:0:0:
256,96,224815,1,12,0:0:0:0:
256,192,225131,1,8,0:0:0:0:
256,192,225289,1,0,0:0:0:0:
256,192,225368,1,0,0:0:0:0:
256,192,225447,1,8,0:0:0:0:
256,192,225605,1,0,0:0:0:0:
256,192,225763,1,8,0:0:0:0:
256,192,225920,1,0,0:0:0:0:
256,192,226078,1,8,0:0:0:0:
256,192,226157,1,0,0:0:0:0:
256,192,226236,1,0,0:0:0:0:
256,192,226394,1,8,0:0:0:0:
256,192,226552,1,0,0:0:0:0:
256,192,226630,1,0,0:0:0:0:
256,192,226710,1,8,0:0:0:0:
256,192,226788,1,0,0:0:0:0:
256,192,226868,1,8,0:0:0:0:
256,192,227026,1,8,0:0:0:0:
256,192,227184,1,0,0:0:0:0:
256,192,227263,1,0,0:0:0:0:
256,192,227342,1,8,0:0:0:0:
256,192,227657,1,0,0:0:0:0:
256,192,227815,1,8,0:0:0:0:
256,192,227894,1,0,0:0:0:0:
256,192,227973,1,0,0:0:0:0:
256,192,228131,1,8,0:0:0:0:
256,192,228289,1,0,0:0:0:0:
256,192,228446,1,8,0:0:0:0:
256,192,228604,1,0,0:0:0:0:
256,192,228683,1,8,0:0:0:0:
256,192,228762,1,0,0:0:0:0:
256,192,228841,1,0,0:0:0:0:
256,192,228920,1,8,0:0:0:0:
256,192,229078,1,0,0:0:0:0:
256,192,229157,1,0,0:0:0:0:
256,192,229236,1,8,0:0:0:0:
256,192,229394,1,8,0:0:0:0:
256,192,229552,1,8,0:0:0:0:
256,192,229710,1,0,0:0:0:0:
256,192,229789,1,0,0:0:0:0:
256,192,229868,1,8,0:0:0:0:
256,192,230184,1,8,0:0:0:0:
256,192,230342,1,0,0:0:0:0:
256,192,230420,1,8,0:0:0:0:
256,192,230499,1,0,0:0:0:0:
256,192,230658,1,0,0:0:0:0:
256,192,230816,1,8,0:0:0:0:
256,192,230973,1,0,0:0:0:0:
256,192,231131,1,8,0:0:0:0:
256,192,231210,1,0,0:0:0:0:
256,192,231289,1,0,0:0:0:0:
256,192,231447,1,8,0:0:0:0:
256,192,231605,1,0,0:0:0:0:
256,192,231683,1,0,0:0:0:0:
256,192,231763,1,8,0:0:0:0:
256,192,231841,1,8,0:0:0:0:
256,192,231921,1,0,0:0:0:0:
256,192,232079,1,8,0:0:0:0:
256,192,232237,1,0,0:0:0:0:
256,192,232316,1,0,0:0:0:0:
256,192,232395,1,8,0:0:0:0:
256,192,232552,1,0,0:0:0:0:
256,192,232710,1,8,0:0:0:0:
256,192,232868,1,0,0:0:0:0:
256,192,233026,1,8,0:0:0:0:
256,192,233184,1,0,0:0:0:0:
256,192,233341,1,8,0:0:0:0:
256,192,233420,1,8,0:0:0:0:
256,192,233499,1,0,0:0:0:0:
256,192,233578,1,0,0:0:0:0:
256,192,233657,1,8,0:0:0:0:
256,192,233815,1,0,0:0:0:0:
256,192,233973,1,8,0:0:0:0:
256,192,234130,1,0,0:0:0:0:
256,192,234288,1,8,0:0:0:0:
256,192,234367,1,8,0:0:0:0:
256,192,234446,1,0,0:0:0:0:
256,192,234604,1,8,0:0:0:0:
256,192,234682,1,8,0:0:0:0:
256,192,234761,1,8,0:0:0:0:
256,192,234840,1,8,0:0:0:0:
256,96,234920,1,4,0:0:0:0:
256,192,235236,1,8,0:0:0:0:
256,192,235394,1,0,0:0:0:0:
256,192,235473,1,0,0:0:0:0:
256,192,235552,1,8,0:0:0:0:
256,192,235710,1,0,0:0:0:0:
256,192,235868,1,8,0:0:0:0:
256,192,236025,1,0,0:0:0:0:
256,192,236183,1,8,0:0:0:0:
256,192,236262,1,0,0:0:0:0:
256,192,236341,1,0,0:0:0:0:
256,192,236499,1,8,0:0:0:0:
256,192,236657,1,8,0:0:0:0:
256,192,236736,1,0,0:0:0:0:
256,192,236815,1,8,0:0:0:0:
256,192,236894,1,8,0:0:0:0:
256,192,236973,1,0,0:0:0:0:
256,192,237131,1,8,0:0:0:0:
256,192,237289,1,0,0:0:0:0:
256,192,237368,1,8,0:0:0:0:
256,192,237447,1,0,0:0:0:0:
256,192,237604,1,0,0:0:0:0:
256,192,237762,1,8,0:0:0:0:
256,192,237920,1,0,0:0:0:0:
256,192,237999,1,0,0:0:0:0:
256,192,238078,1,8,0:0:0:0:
256,192,238236,1,0,0:0:0:0:
256,192,238394,1,8,0:0:0:0:
256,192,238551,1,0,0:0:0:0:
256,192,238709,1,8,0:0:0:0:
256,192,238788,1,8,0:0:0:0:
256,192,238867,1,0,0:0:0:0:
256,192,238946,1,0,0:0:0:0:
256,192,239025,1,8,0:0:0:0:
256,192,239183,1,0,0:0:0:0:
256,192,239262,1,0,0:0:0:0:
256,192,239341,1,8,0:0:0:0:
256,192,239499,1,8,0:0:0:0:
256,192,239657,1,8,0:0:0:0:
256,192,239815,1,0,0:0:0:0:
256,192,239894,1,0,0:0:0:0:
256,192,239973,1,8,0:0:0:0:
256,192,240289,1,8,0:0:0:0:
256,192,240447,1,0,0:0:0:0:
256,192,240526,1,0,0:0:0:0:
256,192,240605,1,8,0:0:0:0:
256,192,240763,1,0,0:0:0:0:
256,192,240921,1,8,0:0:0:0:
256,192,241078,1,8,0:0:0:0:
256,192,241157,1,8,0:0:0:0:
256,192,241236,1,0,0:0:0:0:
256,192,241394,1,8,0:0:0:0:
256,192,241552,1,8,0:0:0:0:
256,192,241710,1,0,0:0:0:0:
256,192,241868,1,8,0:0:0:0:
256,192,241946,1,8,0:0:0:0:
256,192,242026,1,0,0:0:0:0:
256,192,242105,1,8,0:0:0:0:
256,192,242184,1,0,0:0:0:0:
256,192,242342,1,0,0:0:0:0:
256,192,242421,1,0,0:0:0:0:
256,192,242500,1,8,0:0:0:0:
256,192,242657,1,0,0:0:0:0:
256,192,242815,1,8,0:0:0:0:
256,192,242973,1,0,0:0:0:0:
256,192,243131,1,8,0:0:0:0:
256,192,243289,1,0,0:0:0:0:
256,192,243446,1,8,0:0:0:0:
256,192,243604,1,0,0:0:0:0:
256,192,243683,1,0,0:0:0:0:
256,192,243762,1,8,0:0:0:0:
256,192,243920,1,0,0:0:0:0:
256,192,244078,1,8,0:0:0:0:
256,192,244235,1,0,0:0:0:0:
256,192,244393,1,8,0:0:0:0:
256,192,244551,1,0,0:0:0:0:
256,192,244709,1,8,0:0:0:0:
256,192,244787,1,8,0:0:0:0:
256,192,244866,1,0,0:0:0:0:
256,192,244945,1,0,0:0:0:0:
256,96,245024,1,12,0:0:0:0:
256,192,245341,1,0,0:0:0:0:
256,192,245499,1,8,0:0:0:0:
256,192,245578,1,0,0:0:0:0:
256,192,245657,1,0,0:0:0:0:
256,192,245815,1,8,0:0:0:0:
256,192,245973,1,0,0:0:0:0:
256,192,246130,1,0,0:0:0:0:
256,192,246209,1,0,0:0:0:0:
256,192,246288,1,8,0:0:0:0:
256,192,246367,1,8,0:0:0:0:
256,192,246446,1,0,0:0:0:0:
256,192,246604,1,8,0:0:0:0:
256,192,246762,1,0,0:0:0:0:
256,192,246920,1,8,0:0:0:0:
256,192,246999,1,8,0:0:0:0:
256,192,247078,1,0,0:0:0:0:
256,192,247236,1,8,0:0:0:0:
256,192,247394,1,0,0:0:0:0:
256,192,247473,1,0,0:0:0:0:
256,192,247552,1,8,0:0:0:0:
256,192,247867,1,0,0:0:0:0:
256,192,248025,1,8,0:0:0:0:
256,192,248104,1,0,0:0:0:0:
256,192,248183,1,0,0:0:0:0:
256,192,248341,1,8,0:0:0:0:
256,192,248499,1,0,0:0:0:0:
256,192,248657,1,8,0:0:0:0:
256,192,248736,1,8,0:0:0:0:
256,192,248815,1,0,0:0:0:0:
256,192,248894,1,0,0:0:0:0:
256,192,248973,1,8,0:0:0:0:
256,192,249130,1,8,0:0:0:0:
256,192,249288,1,0,0:0:0:0:
256,192,249446,1,8,0:0:0:0:
256,192,249525,1,0,0:0:0:0:
256,192,249604,1,8,0:0:0:0:
256,192,249762,1,0,0:0:0:0:
256,192,249920,1,0,0:0:0:0:
256,192,249999,1,0,0:0:0:0:
256,192,250078,1,8,0:0:0:0:
256,192,250394,1,0,0:0:0:0:
256,192,250552,1,8,0:0:0:0:
256,192,250631,1,0,0:0:0:0:
256,192,250710,1,8,0:0:0:0:
256,192,250868,1,0,0:0:0:0:
256,192,251026,1,0,0:0:0:0:
256,192,251183,1,8,0:0:0:0:
256,192,251262,1,0,0:0:0:0:
256,192,251341,1,8,0:0:0:0:
256,192,251420,1,8,0:0:0:0:
256,192,251499,1,0,0:0:0:0:
256,192,251657,1,0,0:0:0:0:
256,192,251815,1,0,0:0:0:0:
256,192,251973,1,8,0:0:0:0:
256,192,252052,1,0,0:0:0:0:
256,192,252131,1,0,0:0:0:0:
256,192,252289,1,8,0:0:0:0:
256,192,252446,1,0,0:0:0:0:
256,192,252525,1,0,0:0:0:0:
256,192,252604,1,8,0:0:0:0:
256,192,252920,1,0,0:0:0:0:
256,192,253078,1,0,0:0:0:0:
256,192,253157,1,0,0:0:0:0:
256,192,253236,1,8,0:0:0:0:
256,192,253394,1,8,0:0:0:0:
256,192,253552,1,0,0:0:0:0:
256,192,253709,1,8,0:0:0:0:
256,192,253788,1,8,0:0:0:0:
256,192,253867,1,0,0:0:0:0:
256,192,253946,1,0,0:0:0:0:
256,192,254025,1,8,0:0:0:0:
256,192,254183,1,0,0:0:0:0:
256,192,254341,1,0,0:0:0:0:
256,192,254499,1,8,0:0:0:0:
256,192,254578,1,8,0:0:0:0:
256,192,254657,1,8,0:0:0:0:
256,192,254815,1,0,0:0:0:0:
256,192,254894,1,8,0:0:0:0:
256,192,254973,1,0,0:0:0:0:
256,192,255052,1,0,0:0:0:0:
256,96,255130,1,12,0:0:0:0:
256,192,261216,5,0,0:0:0:0:
256,192,261651,1,0,0:0:0:0:
256,192,262086,1,8,0:0:0:0:
256,192,262956,1,8,0:0:0:0:
256,192,263390,1,8,0:0:0:0:
256,192,264260,1,8,0:0:0:0:
256,192,264477,1,8,0:0:0:0:
256,192,264695,1,0,0:0:0:0:
256,192,265130,1,8,0:0:0:0:
256,192,265564,1,0,0:0:0:0:
256,192,265999,1,0,0:0:0:0:
256,192,266216,1,0,0:0:0:0:
256,192,266434,1,8,0:0:0:0:
256,192,266869,1,0,0:0:0:0:
256,192,267303,1,8,0:0:0:0:
256,192,267738,1,8,0:0:0:0:
256,192,268608,1,8,0:0:0:0:
256,192,269043,1,0,0:0:0:0:
256,192,269477,1,0,0:0:0:0:
256,192,270347,1,0,0:0:0:0:
256,192,270782,1,0,0:0:0:0:
256,192,271216,1,0,0:0:0:0:
256,192,272086,1,8,0:0:0:0:
256,192,272521,1,8,0:0:0:0:
256,192,273173,1,8,0:0:0:0:
256,192,273390,1,0,0:0:0:0:
256,192,274043,1,0,0:0:0:0:
256,192,274260,1,0,0:0:0:0:
256,192,274477,8,8,275999,0:0:0:0:
