osu file format v14

[General]
AudioFilename: audio.mp3
AudioLeadIn: 0
PreviewTime: 206744
Countdown: 0
SampleSet: Soft
StackLeniency: 0.7
Mode: 0
LetterboxInBreaks: 0
WidescreenStoryboard: 1

[Editor]
Bookmarks: 1640,21174,43488,76976,110465,132790,152325,163488,185814,208139,230451,249993,269528,290471,310005,317764
DistanceSpacing: 0.2
BeatDivisor: 4
GridSize: 32
TimelineZoom: 2.000006

[Metadata]
Title:Ayano no Koufuku Riron
TitleUnicode:アヤノの幸福理論
Artist:Yumeko
ArtistUnicode:ゆめこ
Creator:ohm002
Version:Beautiful Memories
Source:カゲロウプロジェクト
Tags:vocaloid Mekakucity Actors records 自然の敵P Shizen no Teki P Teki-P TekiP daze kagerou project メカクシティアクターズ anime japanese jap jp nagaraia ia jin ayano ayano's theory of happiness shintaro utaite Hato はと pop JPop J-Pop
BeatmapID:2600983
BeatmapSetID:1251390

[Difficulty]
HPDrainRate:5
CircleSize:4.2
OverallDifficulty:7.5
ApproachRate:8.3
SliderMultiplier:2.5
SliderTickRate:1

[Events]
//Background and Video events
Video,0,"BB.mp4"
0,0,"idk.jpg",0,0
//Break Periods
2,269728,285568
//Storyboard Layer 0 (Background)
//Storyboard Layer 1 (Fail)
//Storyboard Layer 2 (Pass)
//Storyboard Layer 3 (Foreground)
//Storyboard Layer 4 (Overlay)
//Storyboard Sound Samples

[TimingPoints]
1640,697.674418604651,4,2,1,30,1,0
1640,-200,4,2,1,30,0,0
20302,-200,4,2,1,5,0,0
20477,-200,4,2,1,30,0,0
21161,697.674418604651,4,2,1,35,1,0
21163,-166.666666666667,4,2,1,35,0,0
21860,-166.666666666667,4,2,13,35,0,0
22035,-166.666666666667,4,2,1,35,0,0
22558,-166.666666666667,4,2,12,35,0,0
22733,-166.666666666667,4,2,1,35,0,0
22907,-166.666666666667,4,2,13,35,0,0
23082,-166.666666666667,4,2,1,35,0,0
23604,-166.666666666667,4,2,8,35,0,0
23779,-166.666666666667,4,2,1,35,0,0
24301,-166.666666666667,4,2,1,35,0,0
24651,-166.666666666667,4,2,8,35,0,0
24826,-166.666666666667,4,2,1,35,0,0
25349,-166.666666666667,4,2,9,35,0,0
25524,-166.666666666667,4,2,1,35,0,0
25697,-166.666666666667,4,2,11,35,0,0
25872,-166.666666666667,4,2,1,35,0,0
26395,-166.666666666667,4,2,11,35,0,0
26570,-166.666666666667,4,2,1,35,0,0
27092,-166.666666666667,4,2,1,35,0,0
27442,-166.666666666667,4,2,13,35,0,0
27617,-166.666666666667,4,2,1,35,0,0
28140,-166.666666666667,4,2,12,35,0,0
28315,-166.666666666667,4,2,1,35,0,0
28489,-166.666666666667,4,2,13,35,0,0
28664,-166.666666666667,4,2,1,35,0,0
29186,-166.666666666667,4,2,8,35,0,0
29361,-166.666666666667,4,2,1,35,0,0
30233,-166.666666666667,4,2,8,35,0,0
30408,-166.666666666667,4,2,1,35,0,0
30931,-166.666666666667,4,2,9,35,0,0
31106,-166.666666666667,4,2,1,35,0,0
31279,-166.666666666667,4,2,11,35,0,0
31454,-166.666666666667,4,2,1,35,0,0
31977,-166.666666666667,4,2,11,35,0,0
32152,-166.666666666667,4,2,1,35,0,0
33023,-166.666666666667,4,2,13,35,0,0
33198,-166.666666666667,4,2,1,35,0,0
33721,-166.666666666667,4,2,12,35,0,0
33896,-166.666666666667,4,2,1,35,0,0
34070,-166.666666666667,4,2,13,35,0,0
34245,-166.666666666667,4,2,1,35,0,0
34767,-166.666666666667,4,2,8,35,0,0
34942,-166.666666666667,4,2,1,35,0,0
35464,-166.666666666667,4,2,1,35,0,0
35814,-166.666666666667,4,2,8,35,0,0
35989,-166.666666666667,4,2,1,35,0,0
36512,-166.666666666667,4,2,9,35,0,0
36687,-166.666666666667,4,2,1,35,0,0
36860,-166.666666666667,4,2,11,35,0,0
37035,-166.666666666667,4,2,1,35,0,0
37558,-166.666666666667,4,2,11,35,0,0
37733,-166.666666666667,4,2,1,35,0,0
38604,-166.666666666667,4,2,13,35,0,0
38779,-166.666666666667,4,2,1,35,0,0
39302,-166.666666666667,4,2,12,35,0,0
39477,-166.666666666667,4,2,1,35,0,0
39651,-166.666666666667,4,2,13,35,0,0
39826,-166.666666666667,4,2,1,35,0,0
40348,-166.666666666667,4,2,8,35,0,0
40523,-166.666666666667,4,2,1,35,0,0
41395,-166.666666666667,4,2,8,35,0,0
41570,-166.666666666667,4,2,1,35,0,0
42093,-166.666666666667,4,2,9,35,0,0
42268,-166.666666666667,4,2,1,35,0,0
42441,-166.666666666667,4,2,11,35,0,0
42616,-166.666666666667,4,2,1,35,0,0
43139,-166.666666666667,4,2,11,35,0,0
43314,-166.666666666667,4,2,1,35,0,0
43485,-166.666666666667,4,2,1,30,0,0
65814,-166.666666666667,4,2,1,35,0,0
68604,-166.666666666667,4,2,1,40,0,0
76976,-166.666666666667,4,2,1,35,0,0
88139,-166.666666666667,4,2,1,40,0,0
93721,-166.666666666667,4,2,1,45,0,0
94766,-166.666666666667,4,2,1,45,0,0
95116,-166.666666666667,4,2,1,50,0,0
95814,-166.666666666667,4,2,1,55,0,0
96511,-166.666666666667,4,2,1,60,0,0
96859,-166.666666666667,4,2,1,60,0,0
97209,-166.666666666667,4,2,1,55,0,0
97907,-166.666666666667,4,2,1,50,0,0
98604,-166.666666666667,4,2,1,60,0,0
98864,-166.666666666667,4,2,1,5,0,0
98951,-166.666666666667,4,2,1,60,0,0
99213,-166.666666666667,4,2,1,5,0,0
99302,-166.666666666667,4,2,1,55,0,0
100697,-166.666666666667,4,2,1,50,0,0
106276,-166.666666666667,4,2,1,55,0,0
106279,-166.666666666667,4,2,1,55,0,0
107671,-166.666666666667,4,2,1,60,0,0
107674,-166.666666666667,4,2,1,60,0,0
110465,-166.666666666667,4,2,1,55,0,0
152323,-166.666666666667,4,2,1,60,0,0
153023,-166.666666666667,4,2,13,35,0,0
153198,-166.666666666667,4,2,1,35,0,0
153721,-166.666666666667,4,2,12,35,0,0
153896,-166.666666666667,4,2,1,35,0,0
154070,-166.666666666667,4,2,13,35,0,0
154245,-166.666666666667,4,2,1,35,0,0
154767,-166.666666666667,4,2,8,35,0,0
154942,-166.666666666667,4,2,1,35,0,0
155814,-166.666666666667,4,2,8,35,0,0
155989,-166.666666666667,4,2,1,35,0,0
156512,-166.666666666667,4,2,9,35,0,0
156687,-166.666666666667,4,2,1,35,0,0
156860,-166.666666666667,4,2,11,35,0,0
157035,-166.666666666667,4,2,1,35,0,0
157558,-166.666666666667,4,2,11,35,0,0
157733,-166.666666666667,4,2,1,35,0,0
158604,-166.666666666667,4,2,13,35,0,0
158779,-166.666666666667,4,2,1,35,0,0
159302,-166.666666666667,4,2,12,35,0,0
159477,-166.666666666667,4,2,1,35,0,0
159651,-166.666666666667,4,2,13,35,0,0
159826,-166.666666666667,4,2,1,35,0,0
160348,-166.666666666667,4,2,8,35,0,0
160523,-166.666666666667,4,2,1,35,0,0
161395,-166.666666666667,4,2,8,35,0,0
161570,-166.666666666667,4,2,1,35,0,0
162093,-166.666666666667,4,2,9,35,0,0
162268,-166.666666666667,4,2,1,35,0,0
162441,-166.666666666667,4,2,11,35,0,0
162616,-166.666666666667,4,2,1,35,0,0
163139,-166.666666666667,4,2,11,35,0,0
163488,-166.666666666667,4,2,1,35,0,0
184765,-166.666666666667,4,2,1,40,0,0
185814,-166.666666666667,4,2,1,45,0,0
191395,-166.666666666667,4,2,1,40,0,0
191916,-166.666666666667,4,2,1,5,0,0
192093,-166.666666666667,4,2,1,45,0,0
192790,-166.666666666667,4,2,1,50,0,0
193488,-166.666666666667,4,2,1,55,0,0
194184,-100,4,2,1,60,0,0
194707,-100,4,2,1,5,0,0
194883,-166.666666666667,4,2,1,55,0,0
195581,-166.666666666667,4,2,1,50,0,0
196277,-100,4,2,1,55,0,0
196538,-100,4,2,1,5,0,0
196626,-100,4,2,1,60,0,0
196887,-100,4,2,1,5,0,0
196974,-100,4,2,1,60,0,0
197236,-100,4,2,1,5,0,0
197323,-100,4,2,1,60,0,0
197585,-100,4,2,1,5,0,0
197672,-100,4,2,1,60,0,0
198023,-125,4,2,1,60,0,0
199418,-111.111111111111,4,2,1,60,0,0
200027,-111.111111111111,4,2,1,5,0,0
200114,-111.111111111111,4,2,1,60,0,0
201162,-181.818181818181,4,2,1,60,0,0
204651,-181.818181818181,4,2,1,65,0,0
208146,697.674418604651,4,2,2,75,1,1
208146,-83.3333333333333,4,2,2,75,0,1
210936,-83.3333333333333,4,2,3,75,0,1
211111,-83.3333333333333,4,2,2,75,0,1
213727,-83.3333333333333,4,2,4,75,0,1
213901,-83.3333333333333,4,2,2,75,0,1
216169,-66.6666666666667,4,2,2,75,0,1
216518,-83.3333333333333,4,2,5,75,0,1
216692,-83.3333333333333,4,2,2,75,0,1
219134,-83.3333333333333,4,2,2,75,0,0
219308,-83.3333333333333,4,2,2,75,0,1
222099,-83.3333333333333,4,2,3,75,0,1
222273,-83.3333333333333,4,2,2,75,0,1
224870,697.674418604651,4,2,4,75,1,1
224870,-83.3333333333333,4,2,4,75,0,1
225044,-83.3333333333333,4,2,2,75,0,1
227486,-83.3333333333333,4,2,2,75,0,0
227660,-83.3333333333333,4,2,1,75,0,1
230102,-83.3333333333333,4,2,1,75,0,0
230451,-83.3333333333333,4,2,2,75,0,1
231157,697.674418604651,4,2,2,75,1,1
231157,-83.3333333333333,4,2,2,75,0,1
231854,697.674418604651,4,2,2,75,1,1
231854,-83.3333333333333,4,2,2,75,0,1
233249,697.674418604651,4,2,3,75,1,1
233249,-83.3333333333333,4,2,3,75,0,1
233423,-83.3333333333333,4,2,2,75,0,1
235254,-100,4,2,2,5,0,1
235342,-83.3333333333333,4,2,2,75,0,1
236039,-83.3333333333333,4,2,4,75,0,1
236213,-83.3333333333333,4,2,2,75,0,1
238830,-83.3333333333333,4,2,5,75,0,1
239004,-83.3333333333333,4,2,2,75,0,1
241446,-83.3333333333333,4,2,2,75,0,0
241621,-83.3333333333333,4,2,2,75,0,1
244411,-83.3333333333333,4,2,3,75,0,1
244586,-83.3333333333333,4,2,2,75,0,1
247202,-83.3333333333333,4,2,1,75,0,1
249818,-83.3333333333333,4,2,1,75,0,0
249993,-83.3333333333333,4,2,1,70,0,1
254179,-83.3333333333333,4,2,2,70,0,1
260458,-83.3333333333333,4,2,1,70,0,1
261155,-83.3333333333333,4,2,1,75,0,1
268132,-66.6666666666667,4,2,1,75,0,1
269440,-66.6666666666667,4,2,1,5,0,1
269528,-66.6666666666667,4,2,1,35,0,0
289062,-66.6666666666667,4,2,1,40,0,0
289411,-66.6666666666667,4,2,1,50,0,0
289760,-66.6666666666667,4,2,1,55,0,0
290109,-66.6666666666667,4,2,1,60,0,0
290471,697.674418604651,4,2,1,70,1,1
290471,-83.3333333333333,4,2,1,70,0,1
310005,-200,4,2,1,65,0,0
310703,-200,4,2,13,30,0,0
310877,-200,4,2,13,30,0,0
311401,-200,4,2,12,30,0,0
311575,-200,4,2,12,30,0,0
311750,-200,4,2,13,30,0,0
311924,-200,4,2,13,30,0,0
312098,-200,4,2,2,30,0,0
312447,-200,4,2,8,30,0,0
312622,-200,4,2,8,30,0,0
312796,-200,4,2,1,30,0,0
313494,-200,4,2,8,30,0,0
313668,-200,4,2,8,30,0,0
314191,-200,4,2,9,30,0,0
314366,-200,4,2,9,30,0,0
314540,-200,4,2,11,30,0,0
314715,-200,4,2,11,30,0,0
314877,705.882352941176,4,2,1,35,1,0
314877,-200,4,2,1,35,0,0
315229,-200,4,2,11,30,0,0
315406,-200,4,2,11,30,0,0
315579,711.743772241993,4,2,1,35,1,0
315579,-200,4,2,1,35,0,0
316290,728.155339805825,4,2,13,30,1,0
316290,-200,4,2,13,30,0,0
317018,769.230769230769,4,2,12,40,1,0
317018,-200,4,2,12,40,0,0
317220,-200,4,2,12,40,0,0
317402,725.513905683192,4,2,13,40,1,0
317402,-200,4,2,13,40,0,0
317764,-200,4,2,2,40,0,0
318127,-200,4,2,8,30,0,0
318490,787.40157480315,4,2,1,40,1,0
319277,888.888888888889,4,2,8,40,1,0
319509,-200,4,2,8,40,0,0
319721,845.070422535211,4,2,2,40,1,0
320143,1006.71140939597,4,2,9,45,1,0
320394,-200,4,2,9,45,0,0
320646,-100,4,2,11,30,0,0
320898,-58.8235294117647,4,2,11,30,0,0
321149,1348.31460674157,4,2,1,50,1,0
321823,2105.26315789474,4,2,11,45,1,0
322875,1056.33802816901,4,2,2,40,1,0
322875,-153.846153846153,4,2,2,40,0,0
327100,-66.6666666666667,4,2,3,40,0,0
327364,-66.6666666666667,4,2,3,40,0,0

[Colours]
Combo1 : 255,191,170
Combo2 : 120,141,214
Combo3 : 168,240,255
Combo4 : 148,180,254
Combo5 : 255,132,132
Combo6 : 255,58,58
Combo7 : 163,163,163
Combo8 : 109,109,109

[HitObjects]
95,35,1640,6,0,P|75:59|73:90,1,62.5,2|0,0:0|0:0,0:0:0:0:
128,152,2337,2,0,P|147:175|149:206,1,62.5,2|0,0:0|0:0,0:0:0:0:
81,293,3035,6,0,L|209:279,1,125,2|2,0:0|0:0,0:0:0:0:
296,340,4081,1,0,0:0:0:0:
296,340,4430,2,0,L|373:347,1,62.5,2|0,0:0|0:0,0:0:0:0:
435,293,5128,1,0,0:0:0:0:
358,258,5477,5,2,0:0:0:0:
358,258,5826,2,0,L|295:252,1,62.5,2|0,0:0|0:0,0:0:0:0:
305,163,6523,2,0,L|367:157,1,62.5,2|2,0:0|0:0,0:0:0:0:
460,228,7221,86,0,P|445:180|498:126,1,125,2|0,0:0|0:0,0:0:0:0:
490,127,8267,1,2,0:0:0:0:
412,78,8616,2,0,L|349:83,1,62.5,2|2,0:0|0:0,0:0:0:0:
295,155,9314,2,0,L|232:149,1,62.5,2|2,0:0|0:0,0:0:0:0:
155,70,10012,6,0,B|79:45|79:45|35:69,1,125,2|2,0:0|0:0,0:0:0:0:
90,132,11058,1,2,0:0:0:0:
90,132,11756,5,2,0:0:0:0:
77,206,12105,1,2,0:0:0:0:
65,279,12453,1,2,0:0:0:0:
119,340,12802,86,0,P|175:366|233:333,1,125,2|2,3:2|0:0,0:0:0:0:
274,274,13849,1,2,0:0:0:0:
282,273,14198,2,0,P|294:244|294:210,1,62.5,2|2,0:0|0:0,0:0:0:0:
271,134,14895,2,0,P|251:109|222:92,1,62.5,2|2,0:0|0:0,0:0:0:0:
110,164,15593,6,0,P|137:149|168:145,1,62.5,2|2,0:0|0:0,0:0:0:0:
169,224,16291,1,0,0:0:0:0:
169,224,16639,2,0,L|341:209,1,125,2|2,0:0|0:0,0:0:0:0:
366,157,17686,2,0,L|452:164,1,62.5,2|2,0:0|0:0,0:0:0:0:
445,313,18384,5,2,0:0:0:0:
370,324,18733,1,2,0:0:0:0:
296,336,19081,1,2,0:0:0:0:
222,349,19430,1,2,0:0:0:0:
144,365,19779,2,0,L|155:256,1,93.75,2|0,0:0|0:0,0:0:0:0:
153,271,20477,2,0,L|143:203,1,62.5,2|2,3:2|0:0,0:0:0:0:
188,126,21161,85,4,1:2:0:0:
188,126,21509,1,0,0:0:0:0:
128,55,21858,2,0,P|93:40|56:43,1,74.9999977111817,2|0,0:1|1:2,0:0:0:0:
10,119,22556,1,2,0:1:0:0:
10,119,22905,2,0,L|26:204,1,74.9999977111817,2|8,1:1|0:0,0:0:0:0:
74,251,23602,6,0,L|58:336,1,74.9999977111817,2|0,0:1|1:2,0:0:0:0:
125,384,24300,1,0,0:0:0:0:
125,384,24649,2,0,P|176:382|211:347,1,74.9999977111817,2|0,0:1|1:0,0:0:0:0:
256,304,25347,1,2,0:1:0:0:
256,304,25695,2,0,L|363:318,1,74.9999977111817,2|8,1:1|0:0,0:0:0:0:
402,374,26393,6,0,L|476:364,1,74.9999977111817,2|0,0:1|1:2,0:0:0:0:
413,288,27091,1,0,0:0:0:0:
481,247,27440,2,0,P|498:214|488:165,1,74.9999977111817,2|0,0:1|1:2,0:0:0:0:
419,135,28137,1,2,0:1:0:0:
419,135,28486,2,0,L|429:46,1,74.9999977111817,2|8,1:1|0:0,0:0:0:0:
341,9,29184,86,0,L|266:0,1,74.9999977111817,2|0,0:1|1:2,0:0:0:0:
199,67,29881,1,0,0:0:0:0:
199,67,30230,2,0,L|124:75,1,74.9999977111817,2|0,0:1|1:0,0:0:0:0:
31,26,30928,1,2,0:1:0:0:
43,115,31277,1,2,1:1:0:0:
56,204,31626,1,8,0:0:0:0:
26,288,31974,1,2,0:1:0:0:
85,355,32323,6,0,L|186:333,1,74.9999977111817,4|0,1:2|0:0,0:0:0:0:
215,269,33021,2,0,L|316:291,1,74.9999977111817,2|0,0:1|1:2,0:0:0:0:
353,347,33719,1,2,0:1:0:0:
353,347,34067,2,0,P|385:313|381:258,1,74.9999977111817,2|8,1:1|0:0,0:0:0:0:
341,210,34765,6,0,L|329:111,1,74.9999977111817,2|0,0:1|1:2,0:0:0:0:
378,58,35463,1,0,0:0:0:0:
378,58,35812,2,0,P|327:36|281:53,1,74.9999977111817,2|0,0:1|1:0,0:0:0:0:
238,93,36509,1,2,0:1:0:0:
238,93,36858,2,0,P|187:115|141:98,1,74.9999977111817,2|8,1:1|0:0,0:0:0:0:
94,62,37556,1,2,0:1:0:0:
42,135,37905,85,0,1:2:0:0:
52,224,38254,1,0,0:0:0:0:
60,313,38602,2,0,L|142:303,1,74.9999977111817,2|0,0:1|1:2,0:0:0:0:
202,244,39300,1,2,0:1:0:0:
202,244,39649,2,0,L|276:253,1,74.9999977111817,2|8,1:1|0:0,0:0:0:0:
343,314,40347,6,0,L|417:304,1,74.9999977111817,2|0,0:1|1:2,0:0:0:0:
481,241,41044,1,0,0:0:0:0:
481,241,41393,2,0,L|465:144,1,74.9999977111817,2|0,0:1|1:0,0:0:0:0:
389,136,42091,1,2,0:1:0:0:
389,136,42440,2,0,L|405:39,1,74.9999977111817,2|12,1:1|0:0,0:0:0:0:
333,9,43137,2,0,L|236:-4,1,74.9999977111817,2|0,0:1|3:0,0:0:0:0:
41,123,43835,5,2,0:0:0:0:
41,123,44009,1,0,0:0:0:0:
41,123,44184,2,0,P|71:102|108:98,1,74.9999977111817,2|2,0:0|0:0,0:0:0:0:
166,162,44707,2,0,P|196:182|233:186,1,74.9999977111817,2|2,0:0|0:0,0:0:0:0:
298,126,45230,2,0,L|289:51,2,74.9999977111817,2|0|2,0:0|0:0|0:0,0:0:0:0:
322,210,46277,2,0,L|313:284,1,74.9999977111817,2|2,3:2|0:0,0:0:0:0:
437,348,46974,2,0,P|390:357|354:334,1,74.9999977111817,2|2,0:0|0:0,0:0:0:0:
222,360,47672,2,0,P|257:349|292:361,2,74.9999977111817,0|2|2,3:2|0:0|0:0,0:0:0:0:
142,377,48719,1,2,0:0:0:0:
81,327,49067,85,0,3:0:0:0:
65,238,49416,2,0,L|54:184,1,37.4999988555909,2|0,0:0|0:0,0:0:0:0:
39,130,49765,2,0,L|23:38,1,74.9999977111817,2|2,0:0|0:0,0:0:0:0:
92,12,50288,2,0,L|184:-4,1,74.9999977111817,2|2,0:0|0:0,0:0:0:0:
228,57,50812,2,0,L|244:149,1,74.9999977111817,2|0,0:0|0:0,0:0:0:0:
260,235,51509,2,0,L|268:278,1,37.4999988555909,2|0,0:0|0:0,0:0:0:0:
260,235,51858,6,0,P|302:211|336:218,1,74.9999977111817,2|2,3:2|0:0,0:0:0:0:
375,278,52556,2,0,P|417:302|451:295,1,74.9999977111817,2|2,0:0|0:0,0:0:0:0:
479,223,53254,2,0,L|468:148,3,74.9999977111817,0|2|2|2,3:2|0:0|0:0|0:0,0:0:0:0:
398,86,54649,1,0,3:0:0:0:
314,61,54998,6,0,L|254:43,1,37.4999988555909,2|0,0:0|0:0,0:0:0:0:
204,28,55347,2,0,L|109:-3,1,74.9999977111817,2|2,0:0|0:0,0:0:0:0:
48,128,55870,2,0,L|143:97,1,74.9999977111817,2|2,0:0|0:0,0:0:0:0:
221,220,56393,2,0,L|126:189,1,74.9999977111817,2|0,0:0|0:0,0:0:0:0:
82,247,57091,1,2,0:0:0:0:
54,353,57440,86,0,L|149:322,2,74.9999977111817,2|2|2,3:2|0:0|0:0,0:0:0:0:
0,269,58486,1,2,0:0:0:0:
98,174,58835,2,0,L|77:271,2,74.9999977111817,0|2|2,3:2|0:0|0:0,0:0:0:0:
124,332,59881,1,2,0:0:0:0:
231,301,60230,6,0,L|156:234,1,74.9999977111817,0|2,3:0|0:0,0:0:0:0:
256,384,60754,1,0,0:0:0:0:
256,384,60928,2,0,L|362:359,1,74.9999977111817,2|2,0:0|0:0,0:0:0:0:
397,325,61452,2,0,L|372:219,1,74.9999977111817,2|0,0:0|0:0,0:0:0:0:
361,166,61974,1,2,0:0:0:0:
361,166,62323,2,0,L|386:60,1,74.9999977111817,2|2,0:0|0:0,0:0:0:0:
319,24,63021,6,0,P|288:3|252:5,1,74.9999977111817,2|2,3:2|0:0,0:0:0:0:
192,109,63719,1,2,0:0:0:0:
214,196,64067,1,2,0:0:0:0:
235,283,64416,86,0,L|147:303,1,74.9999977111817,0|2,3:2|0:0,0:0:0:0:
86,349,65114,2,0,L|12:332,1,74.9999977111817,2|2,0:0|0:0,0:0:0:0:
33,244,65812,5,0,3:0:0:0:
105,153,66161,6,0,L|112:203,1,37.4999988555909,2|0,0:0|0:0,0:0:0:0:
105,153,66509,2,0,P|151:132|183:137,1,74.9999977111817,2|2,0:0|0:0,0:0:0:0:
256,192,67033,1,2,0:0:0:0:
256,192,67207,2,0,P|302:213|334:208,1,74.9999977111817,0|2,3:0|0:0,0:0:0:0:
388,135,67905,1,0,0:0:0:0:
442,204,68254,86,0,L|434:253,1,37.4999988555909,2|0,0:0|0:0,0:0:0:0:
442,204,68602,2,0,P|484:204|519:232,1,74.9999977111817,2|2,3:2|0:0,0:0:0:0:
492,349,69300,2,0,L|484:300,2,37.4999988555909,2|0|2,0:0|0:0|0:0,0:0:0:0:
492,349,69998,6,0,L|418:361,1,74.9999977111817,0|2,3:2|0:0,0:0:0:0:
329,300,70695,2,0,L|256:288,1,74.9999977111817,2|2,0:0|0:0,0:0:0:0:
170,345,71393,5,0,3:0:0:0:
59,322,71742,2,0,L|101:313,1,37.4999988555909,2|0,0:0|0:0,0:0:0:0:
59,322,72091,86,0,P|37:290|47:248,1,74.9999977111817,2|2,0:0|0:0,0:0:0:0:
108,191,72614,1,2,0:0:0:0:
108,191,72788,2,0,P|112:154|90:124,2,74.9999977111817,0|2|0,3:0|0:0|0:0,0:0:0:0:
170,245,73835,1,2,0:0:0:0:
233,177,74184,6,0,L|323:170,1,74.9999977111817,2|2,3:2|0:0,0:0:0:0:
377,244,74881,2,0,L|467:251,1,74.9999977111817,2|2,0:0|0:0,0:0:0:0:
512,87,75579,5,0,3:2:0:0:
499,160,75928,1,2,0:0:0:0:
487,234,76277,1,2,0:0:0:0:
470,307,76626,1,2,0:0:0:0:
386,328,76974,86,0,L|311:322,1,74.9999977111817,0|2,3:0|0:0,0:0:0:0:
234,374,77672,2,0,L|159:379,1,74.9999977111817,2|2,0:0|0:0,0:0:0:0:
89,319,78195,1,2,0:0:0:0:
89,319,78370,6,0,P|80:293|96:242,2,74.9999977111817,0|2|0,3:0|0:0|0:0,0:0:0:0:
190,246,79416,5,2,0:0:0:0:
148,170,79765,2,0,L|160:96,1,74.9999977111817,2|2,3:2|0:0,0:0:0:0:
225,45,80463,2,0,L|298:57,1,74.9999977111817,2|2,0:0|0:0,0:0:0:0:
367,106,81160,86,0,L|440:93,2,74.9999977111817,0|2|2,3:2|0:0|0:0,0:0:0:0:
309,169,82207,1,0,0:0:0:0:
319,243,82556,5,0,3:0:0:0:
325,317,82905,1,2,0:0:0:0:
292,341,83079,1,0,0:0:0:0:
263,359,83254,2,0,L|174:352,1,74.9999977111817,2|2,0:0|0:0,0:0:0:0:
113,343,83777,1,2,0:0:0:0:
113,343,83951,2,0,L|24:336,1,74.9999977111817,0|2,3:0|0:0,0:0:0:0:
18,264,84649,5,2,0:0:0:0:
26,226,84823,1,0,0:0:0:0:
33,190,84998,1,2,0:0:0:0:
53,117,85347,2,0,P|95:119|132:153,1,74.9999977111817,2|2,3:2|0:0,0:0:0:0:
133,286,86044,2,0,P|113:248|124:199,1,74.9999977111817,2|2,0:0|0:0,0:0:0:0:
143,187,86567,1,2,0:0:0:0:
186,179,86742,85,0,3:2:0:0:
260,187,87091,1,2,0:2:0:0:
334,195,87440,1,2,3:3:0:0:
482,212,87788,1,2,3:2:0:0:
304,348,88137,6,0,B|284:384|235:337|289:279|355:316|373:358,1,149.999995422363,6|0,1:2|0:0,0:0:0:0:
483,382,89184,5,2,1:2:0:0:
506,366,89533,1,2,0:0:0:0:
490,292,89881,1,0,1:2:0:0:
474,218,90230,1,8,0:0:0:0:
370,322,90579,1,2,0:0:0:0:
256,192,90928,86,0,B|355:173|355:173|329:180|320:206,1,149.999995422363,2|2,1:2|0:3,0:0:0:0:
390,248,91974,1,2,1:2:0:0:
317,38,92323,5,2,0:0:0:0:
240,227,92672,1,2,1:2:0:0:
320,205,93021,1,10,0:0:0:0:
261,147,93370,1,2,0:0:0:0:
317,337,93719,5,2,1:2:0:0:
195,47,94416,85,2,0:0:0:0:
378,117,95114,5,2,0:0:0:0:
447,63,95463,1,0,1:2:0:0:
367,31,95812,1,10,0:0:0:0:
256,192,96160,5,0,0:0:0:0:
128,128,96509,101,2,1:2:0:0:
256,0,97207,85,2,0:3:0:0:
256,384,97905,5,2,0:0:0:0:
160,192,98254,1,0,1:2:0:0:
352,192,98602,6,0,L|419:202,1,56.2499982833863,10|0,0:0|0:0,0:0:0:0:
417,211,98951,102,0,L|484:201,1,56.2499982833863,0|0,1:2|0:0,0:0:0:0:
489,192,99300,6,0,P|504:158|491:124,1,74.9999977111817,6|2,1:2|0:0,0:0:0:0:
351,271,99998,5,0,0:0:0:0:
432,343,100347,1,2,1:2:0:0:
351,271,100695,2,0,L|358:333,1,37.4999988555909,2|0,0:0|0:0,0:0:0:0:
294,364,101044,85,2,1:2:0:0:
349,251,101393,5,10,0:0:0:0:
342,162,101742,1,2,0:0:0:0:
170,162,102091,5,2,1:2:0:0:
163,251,102440,1,2,0:0:0:0:
256,288,102788,86,0,L|256:224,1,37.4999988555909,2|2,0:0|0:0,0:0:0:0:
256,224,103137,1,2,1:2:0:0:
128,352,103486,5,2,0:0:0:0:
192,384,103835,1,2,1:2:0:0:
384,352,104184,5,10,0:0:0:0:
320,384,104533,1,2,0:0:0:0:
202,284,104881,85,2,1:2:0:0:
271,233,105230,2,0,L|282:129,1,74.9999977111817,2|2,0:0|0:0,0:0:0:0:
186,180,105928,1,2,1:2:0:0:
149,106,106276,1,2,0:0:0:0:
75,142,106625,1,2,1:2:0:0:
112,217,106974,1,10,0:0:0:0:
21,305,107323,2,0,L|10:201,1,74.9999977111817,2|0,1:2|1:2,0:0:0:0:
154,278,108021,5,2,0:0:0:0:
96,334,108370,1,10,0:0:0:0:
231,384,108719,2,0,L|242:280,1,74.9999977111817,2|2,0:0|1:2,0:0:0:0:
324,271,109416,5,2,1:2:0:0:
269,194,109765,1,10,0:3:0:0:
328,122,110114,1,2,1:2:0:0:
267,59,110463,86,0,P|236:38|199:30,1,74.9999977111817,6|2,1:2|0:0,0:0:0:0:
134,104,111160,2,0,L|149:208,1,74.9999977111817,8|2,0:0|0:0,0:0:0:0:
105,258,111684,1,0,3:0:0:0:
101,276,111771,1,0,3:0:0:0:
98,294,111858,2,0,L|83:398,1,74.9999977111817,2|2,1:2|1:2,0:0:0:0:
182,315,112556,2,0,L|286:330,1,74.9999977111817,8|2,0:0|0:0,0:0:0:0:
304,257,113254,5,2,1:2:0:0:
393,292,113602,1,2,0:0:0:0:
359,380,113951,1,8,0:0:0:0:
272,346,114300,1,2,0:0:0:0:
216,232,114649,2,0,L|205:158,2,74.9999977111817,0|2|10,1:2|1:2|0:0,0:0:0:0:
299,221,115695,1,2,0:0:0:0:
285,138,115870,1,0,3:0:0:0:
278,120,115957,1,0,3:0:0:0:
271,102,116044,6,0,P|214:68|144:82,1,112.499996566773,2|0,1:2|0:0,0:0:0:0:
123,141,116742,2,0,L|24:150,1,74.9999977111817,10|2,0:0|0:0,0:0:0:0:
0,210,117265,1,0,3:0:0:0:
11,224,117352,1,0,3:0:0:0:
23,238,117440,2,0,L|98:245,1,74.9999977111817,2|2,1:2|1:2,0:0:0:0:
145,304,118137,1,8,0:0:0:0:
198,237,118486,1,2,0:0:0:0:
250,304,118660,1,0,3:0:0:0:
268,308,118748,1,0,3:0:0:0:
286,312,118835,86,0,L|361:319,1,74.9999977111817,2|2,1:2|0:0,0:0:0:0:
330,152,119533,2,0,L|323:227,1,74.9999977111817,8|2,0:0|0:0,0:0:0:0:
361,319,120056,1,0,3:0:0:0:
370,335,120143,1,0,3:0:0:0:
379,351,120230,2,0,P|417:354|453:333,2,74.9999977111817,2|2|8,1:2|1:2|0:0,0:0:0:0:
323,226,121277,1,2,0:0:0:0:
431,213,121451,1,0,3:0:0:0:
429,194,121538,1,0,3:0:0:0:
426,175,121626,6,0,L|419:96,1,74.9999977111817,2|2,1:2|0:0,0:0:0:0:
319,53,122323,2,0,L|312:128,1,74.9999977111817,8|2,0:0|0:0,0:0:0:0:
234,130,122847,1,0,3:0:0:0:
215,128,122934,1,0,3:0:0:0:
196,128,123021,2,0,L|121:121,1,74.9999977111817,2|2,1:2|1:2,0:0:0:0:
244,46,123719,2,0,L|319:53,1,74.9999977111817,8|2,0:0|0:0,0:0:0:0:
206,211,124416,6,0,L|131:204,2,74.9999977111817,2|2|8,1:2|0:0|0:0,0:0:0:0:
293,216,125463,1,2,0:0:0:0:
211,340,125637,1,0,3:0:0:0:
208,321,125724,1,0,3:0:0:0:
207,301,125812,1,2,1:2:0:0:
289,270,126160,1,2,1:2:0:0:
358,320,126509,2,0,P|374:287|371:250,1,74.9999977111817,10|2,0:0|0:0,0:0:0:0:
300,91,127207,86,0,L|310:180,1,74.9999977111817,2|0,1:2|0:0,0:0:0:0:
369,16,127905,2,0,L|444:11,1,74.9999977111817,10|2,0:0|0:0,0:0:0:0:
472,91,128602,2,0,L|397:96,2,74.9999977111817,2|2|8,1:2|1:2|0:0,0:0:0:0:
396,176,129649,1,2,0:0:0:0:
309,70,129998,6,0,P|230:96|206:163,1,149.999995422363,2|10,1:2|0:0,0:0:0:0:
295,155,131044,1,2,0:0:0:0:
200,13,131393,2,0,L|126:0,1,74.9999977111817,2|2,1:2|1:2,0:0:0:0:
3,146,132091,1,10,0:0:0:0:
76,188,132440,1,2,0:0:0:0:
171,91,132788,6,0,L|97:104,1,74.9999977111817,6|2,1:2|0:0,0:0:0:0:
200,13,133486,2,0,L|274:26,1,74.9999977111817,8|2,0:0|0:0,0:0:0:0:
356,123,134009,1,0,3:0:0:0:
337,127,134097,1,0,3:0:0:0:
318,130,134184,2,0,L|244:143,1,74.9999977111817,2|2,1:2|1:2,0:0:0:0:
355,24,134881,2,0,L|429:37,1,74.9999977111817,8|2,0:0|0:0,0:0:0:0:
411,120,135405,1,0,3:0:0:0:
411,120,135492,1,0,3:0:0:0:
411,120,135579,86,0,L|397:200,2,74.9999977111817,2|2|8,1:2|0:0|0:0,0:0:0:0:
480,189,136626,1,2,0:0:0:0:
447,272,136800,1,0,3:0:0:0:
447,272,136887,1,0,3:0:0:0:
447,271,136974,2,0,P|413:286|376:285,1,74.9999977111817,0|2,1:2|1:2,0:0:0:0:
326,208,137672,2,0,P|360:193|397:194,1,74.9999977111817,10|2,0:0|0:0,0:0:0:0:
375,285,138370,6,0,L|224:262,1,149.999995422363,2|8,1:2|0:0,0:0:0:0:
148,284,139416,1,2,0:0:0:0:
216,343,139591,1,0,3:0:0:0:
226,341,139678,1,0,3:0:0:0:
237,336,139765,2,0,L|224:246,1,74.9999977111817,2|2,1:2|1:2,0:0:0:0:
71,202,140463,2,0,L|60:276,1,74.9999977111817,8|2,0:0|0:0,0:0:0:0:
237,187,140986,5,0,3:0:0:0:
236,168,141073,1,0,3:0:0:0:
233,149,141160,2,0,L|225:36,1,112.499996566773,2|0,1:2|0:0,0:0:0:0:
139,17,141858,2,0,P|137:54|151:89,1,74.9999977111817,8|2,0:0|0:0,0:0:0:0:
316,125,142381,1,0,3:0:0:0:
316,125,142469,1,0,3:0:0:0:
316,125,142556,2,0,P|353:127|388:113,1,74.9999977111817,2|2,1:2|1:2,0:0:0:0:
306,31,143254,1,8,0:0:0:0:
222,216,143602,1,2,0:0:0:0:
330,274,143777,1,0,3:0:0:0:
330,274,143864,1,0,3:0:0:0:
330,274,143951,86,0,L|314:113,1,149.999995422363,2|10,1:2|0:0,0:0:0:0:
418,46,144998,1,2,0:0:0:0:
407,160,145172,1,0,3:0:0:0:
407,160,145259,1,0,3:0:0:0:
407,160,145347,2,0,L|414:235,1,74.9999977111817,0|2,1:2|1:2,0:0:0:0:
217,287,146044,2,0,L|224:212,1,74.9999977111817,8|2,0:0|0:0,0:0:0:0:
345,293,146742,6,0,L|352:368,2,74.9999977111817,2|2|8,1:2|0:0|0:0,0:0:0:0:
224,212,147788,1,2,0:0:0:0:
172,345,147963,1,0,3:0:0:0:
172,345,148050,1,0,3:0:0:0:
172,345,148137,2,0,L|259:334,1,74.9999977111817,2|2,1:2|1:2,0:0:0:0:
377,188,148835,2,0,L|290:177,1,74.9999977111817,10|2,0:0|0:0,0:0:0:0:
209,245,149533,6,0,P|212:163|159:109,1,149.999995422363,2|8,1:2|0:0,0:0:0:0:
118,200,150579,1,2,0:0:0:0:
292,282,150754,1,2,3:2:0:0:
292,282,150841,1,0,3:0:0:0:
292,282,150928,2,0,L|379:271,1,74.9999977111817,2|2,1:2|1:2,0:0:0:0:
193,234,151626,2,0,L|106:223,1,74.9999977111817,12|2,0:0|0:0,0:0:0:0:
92,147,152149,1,0,3:0:0:0:
92,147,152236,1,0,3:0:0:0:
92,147,152323,86,0,L|105:61,1,74.9999977111817,2|0,1:2|0:0,0:0:0:0:
179,31,153021,2,0,L|265:44,1,74.9999977111817,10|0,0:1|0:0,0:0:0:0:
309,110,153719,5,2,1:1:0:0:
309,110,154067,2,0,L|395:97,1,74.9999977111817,2|8,1:1|0:0,0:0:0:0:
436,21,154765,2,0,L|522:34,1,74.9999977111817,2|2,0:1|1:2,0:0:0:0:
471,120,155463,5,0,0:0:0:0:
471,120,155812,2,0,P|447:152|467:213,1,74.9999977111817,10|0,0:1|0:0,0:0:0:0:
489,259,156509,1,2,1:1:0:0:
489,259,156858,2,0,P|513:291|493:352,1,74.9999977111817,2|8,1:1|0:0,0:0:0:0:
435,369,157556,86,0,L|312:351,1,74.9999977111817,2|2,0:1|1:2,0:0:0:0:
293,302,158254,1,0,0:0:0:0:
293,302,158602,2,0,L|218:312,1,74.9999977111817,10|0,0:1|0:0,0:0:0:0:
134,368,159300,1,2,1:1:0:0:
134,368,159649,2,0,L|59:357,1,74.9999977111817,2|8,1:1|0:0,0:0:0:0:
10,286,160347,2,0,P|-1:255|21:215,1,74.9999977111817,2|2,0:1|1:2,0:0:0:0:
96,166,161044,1,0,0:0:0:0:
96,166,161393,2,0,P|112:133|102:98,1,74.9999977111817,10|0,0:1|0:0,0:0:0:0:
43,32,162091,1,2,1:1:0:0:
138,11,162440,1,2,1:1:0:0:
200,82,162788,1,12,0:0:0:0:
200,82,163137,6,0,L|188:144,1,37.4999988555909,2|2,0:1|0:1,0:0:0:0:
198,134,163486,6,0,L|271:149,1,74.9999977111817,4|2,3:2|0:0,0:0:0:0:
338,82,164184,2,0,L|411:66,1,74.9999977111817,2|2,0:0|0:0,0:0:0:0:
476,152,164881,2,0,P|492:185|484:221,2,74.9999977111817,0|2|0,3:0|0:0|0:0,0:0:0:0:
377,187,165928,85,2,0:0:0:0:
336,293,166277,2,0,L|410:278,1,74.9999977111817,2|2,3:2|0:0,0:0:0:0:
480,369,166974,2,0,L|406:384,1,74.9999977111817,2|2,0:0|0:0,0:0:0:0:
308,384,167672,2,0,P|279:360|242:358,2,74.9999977111817,0|2|2,3:2|0:0|0:0,0:0:0:0:
243,282,168719,1,2,0:0:0:0:
242,358,169067,6,0,L|145:373,1,74.9999977111817,0|2,3:0|0:0,0:0:0:0:
111,309,169765,2,0,L|36:297,1,74.9999977111817,2|2,0:0|0:0,0:0:0:0:
0,216,170463,2,0,P|-10:184|17:144,2,74.9999977111817,0|2|0,3:0|0:0|0:0,0:0:0:0:
99,140,171509,1,2,0:0:0:0:
46,42,171858,6,0,L|147:57,1,74.9999977111817,2|2,3:2|0:0,0:0:0:0:
207,116,172556,2,0,L|308:101,1,74.9999977111817,2|2,0:0|0:0,0:0:0:0:
394,242,173254,1,0,3:2:0:0:
298,229,173602,1,2,0:0:0:0:
202,216,173951,1,2,0:0:0:0:
106,203,174300,1,2,0:0:0:0:
222,384,174649,86,0,L|317:378,1,74.9999977111817,0|2,3:0|0:0,0:0:0:0:
356,320,175347,2,0,L|451:326,1,74.9999977111817,2|2,0:0|0:0,0:0:0:0:
507,384,176044,2,0,P|520:349|506:312,2,74.9999977111817,0|2|0,3:0|0:0|0:0,0:0:0:0:
455,238,177091,1,2,0:0:0:0:
485,159,177440,6,0,L|474:70,1,74.9999977111817,2|2,3:2|0:0,0:0:0:0:
412,22,178137,2,0,L|323:33,1,74.9999977111817,2|2,0:0|0:0,0:0:0:0:
255,96,178835,2,0,L|166:85,1,74.9999977111817,0|2,3:2|0:0,0:0:0:0:
122,27,179533,2,0,L|33:38,1,74.9999977111817,2|2,0:0|0:0,0:0:0:0:
7,117,180230,5,0,3:0:0:0:
15,214,180579,1,2,0:0:0:0:
23,311,180928,2,0,P|63:318|111:292,1,74.9999977111817,2|2,0:0|0:0,0:0:0:0:
159,141,181626,2,0,P|132:172|131:226,1,74.9999977111817,0|2,3:0|0:0,0:0:0:0:
185,286,182323,2,0,L|299:293,1,74.9999977111817,2|2,0:0|0:0,0:0:0:0:
328,217,183021,86,0,L|402:221,2,74.9999977111817,2|2|2,3:2|0:0|0:0,0:0:0:0:
256,204,184067,1,2,0:0:0:0:
322,297,184416,2,0,L|396:301,1,74.9999977111817,0|2,3:2|3:2,0:0:0:0:
256,204,185114,2,0,L|181:199,1,74.9999977111817,2|2,3:2|3:2,0:0:0:0:
0,384,185812,102,0,L|165:359,1,149.999995422363,4|8,3:2|0:0,0:0:0:0:
203,285,186858,1,2,0:0:0:0:
512,384,187207,5,2,0:0:0:0:
437,372,187556,1,0,1:2:0:0:
363,361,187905,1,8,0:0:0:0:
309,285,188254,1,2,0:0:0:0:
373,186,188602,6,0,P|441:204|430:291,1,149.999995422363,2|8,1:2|0:0,0:0:0:0:
256,192,189649,1,2,0:0:0:0:
256,0,189998,5,2,0:0:0:0:
256,192,190347,1,0,1:2:0:0:
352,96,190695,1,8,0:0:0:0:
256,0,191044,1,2,0:0:0:0:
83,83,191393,70,0,P|142:103|197:69,1,112.499996566773,2|0,1:2|0:0,0:0:0:0:
193,82,192091,2,0,L|277:89,1,74.9999977111817,10|0,0:0|0:0,0:0:0:0:
245,345,192788,5,2,1:2:0:0:
219,153,193137,1,2,1:2:0:0:
232,249,193486,1,10,0:0:0:0:
245,345,193835,5,0,0:0:0:0:
219,153,194184,6,0,B|257:113|309:142|309:142|332:196|385:186,1,187.5,2|0,1:2|0:0,0:0:0:0:
377,187,194881,69,10,0:0:0:0:
377,109,195230,1,0,0:0:0:0:
95,32,195579,5,2,1:2:0:0:
127,178,195928,1,2,1:2:0:0:
95,32,196277,6,0,P|141:25|183:48,1,93.75,8|0,0:2|0:0,0:0:0:0:
161,129,196626,2,0,P|189:165|191:213,1,93.75,2|0,1:2|0:0,0:0:0:0:
253,301,196974,6,0,P|270:258|310:232,1,93.75,2|0,1:2|0:0,0:0:0:0:
281,151,197323,2,0,P|326:146|367:167,1,93.75,2|0,0:0|0:0,0:0:0:0:
390,247,197672,1,8,0:0:0:0:
167,101,198021,1,2,0:0:0:0:
37,282,198370,69,2,1:2:0:0:
179,233,198719,1,2,1:2:0:0:
321,185,199067,1,10,0:0:0:0:
512,384,199416,5,2,0:0:0:0:
320,184,199765,6,0,P|297:150|296:108,1,84.3749974250794,2|2,1:2|0:0,0:0:0:0:
308,102,200114,2,0,L|361:120,1,56.2499982833863
402,198,200463,2,0,L|389:259,1,56.2499982833863,10|2,0:0|0:0,0:0:0:0:
325,293,200812,1,2,0:0:0:0:
93,348,201160,5,2,1:2:0:0:
38,170,201509,1,2,1:2:0:0:
214,117,201858,1,10,0:0:0:0:
269,293,202207,1,2,0:0:0:0:
88,243,202556,69,2,1:2:0:0:
214,117,202905,2,0,L|202:198,1,68.7500020980836,2|8,0:0|0:0,0:0:0:0:
269,293,203602,5,2,0:0:0:0:
83,140,203951,1,2,1:2:0:0:
310,57,204300,1,2,1:2:0:0:
165,301,204649,1,10,0:0:0:0:
34,37,204998,2,0,L|102:47,1,68.7500020980836,2|2,1:2|1:2,0:0:0:0:
317,191,205695,5,2,1:2:0:0:
41,250,206044,1,10,0:0:0:0:
259,384,206393,1,2,0:0:0:0:
185,163,206742,1,2,1:2:0:0:
185,163,207091,5,0,1:2:0:0:
120,117,207265,1,8,0:0:0:0:
191,83,207440,1,8,0:0:0:0:
114,196,207614,69,8,0:0:0:0:
126,36,207788,1,8,0:3:0:0:
259,127,207963,1,0,1:0:0:0:
259,127,208050,1,0,1:0:0:0:
259,127,208146,54,0,P|266:172|243:216,1,74.9999977111817,6|0,1:2|0:0,0:0:0:0:
40,237,208494,2,0,P|29:201|37:165,1,74.9999977111817,2|0,0:0|0:0,0:0:0:0:
158,311,208843,2,0,L|144:385,1,74.9999977111817,10|0,0:0|0:0,0:0:0:0:
323,332,209192,2,0,L|309:258,1,74.9999977111817,2|0,0:0|3:0,0:0:0:0:
304,256,209454,1,0,3:0:0:0:
300,255,209541,54,0,P|270:232|256:198,1,74.9999977111817,2|0,1:2|0:0,0:0:0:0:
441,0,209890,2,0,L|421:107,1,74.9999977111817,2|0,1:2|0:0,0:0:0:0:
261,13,210239,2,0,P|296:2|332:11,1,74.9999977111817,10|0,0:0|0:0,0:0:0:0:
416,169,210588,2,0,L|342:182,1,74.9999977111817,2|0,0:0|3:0,0:0:0:0:
335,179,210849,69,0,3:0:0:0:
328,176,210936,2,0,P|241:200|269:303,1,149.999995422363,6|2,1:2|0:0,0:0:0:0:
98,132,211634,102,0,L|172:145,1,74.9999977111817,10|0,0:0|0:0,0:0:0:0:
439,75,211983,2,0,L|365:88,1,74.9999977111817,2|0,0:0|3:0,0:0:0:0:
363,91,212244,1,0,3:0:0:0:
361,94,212332,2,0,L|287:107,1,74.9999977111817,2|0,1:2|0:0,0:0:0:0:
130,218,212680,2,0,L|143:292,1,74.9999977111817,2|0,1:2|0:0,0:0:0:0:
287,106,213029,2,0,L|300:32,1,74.9999977111817,10|0,0:0|0:0,0:0:0:0:
485,182,213378,2,0,L|410:189,1,74.9999977111817,2|0,0:0|3:0,0:0:0:0:
407,193,213640,1,0,3:0:0:0:
403,194,213727,54,0,P|357:231|268:196,1,149.999995422363,6|2,1:2|0:0,0:0:0:0:
275,206,214425,70,0,L|179:192,1,74.9999977111817,10|0,0:0|0:0,0:0:0:0:
0,373,214773,2,0,L|96:359,1,74.9999977111817,2|0,0:0|3:0,0:0:0:0:
75,358,215035,1,0,3:0:0:0:
73,354,215122,2,0,P|49:325|44:288,1,74.9999977111817,2|0,1:2|0:0,0:0:0:0:
200,195,215471,2,0,P|223:166|228:129,1,74.9999977111817,2|0,1:2|0:0,0:0:0:0:
42,168,215820,37,10,0:0:0:0:
42,168,216169,70,0,L|57:49,1,93.7500035762788,2|0,0:0|3:0,0:0:0:0:
139,45,216430,1,0,3:0:0:0:
140,48,216518,102,0,L|121:196,1,149.999995422363,6|2,1:2|0:0,0:0:0:0:
121,196,217215,54,0,L|195:205,1,74.9999977111817,10|0,0:0|0:0,0:0:0:0:
289,132,217564,2,0,L|214:122,1,74.9999977111817,2|0,0:0|3:0,0:0:0:0:
215,120,217826,1,0,3:0:0:0:
215,117,217913,2,0,L|224:42,1,74.9999977111817,2|0,1:2|0:0,0:0:0:0:
277,221,218262,2,0,L|286:295,1,74.9999977111817,2|0,1:2|0:0,0:0:0:0:
194,297,218611,70,0,L|82:282,1,74.9999977111817,10|0,0:0|0:0,0:0:0:0:
277,221,218959,102,0,L|388:206,1,74.9999977111817,2|0,1:2|0:0,0:0:0:0:
182,207,219308,54,0,P|160:176|155:139,1,74.9999977111817,6|0,1:2|0:0,0:0:0:0:
174,15,219657,2,0,P|158:48|128:71,1,74.9999977111817,2|0,0:0|0:0,0:0:0:0:
12,118,220006,2,0,P|49:115|83:129,1,74.9999977111817,10|0,0:0|0:0,0:0:0:0:
107,203,220355,2,0,L|92:314,1,74.9999977111817,2|0,0:0|3:0,0:0:0:0:
99,280,220616,1,0,3:0:0:0:
101,282,220704,2,0,L|212:296,1,74.9999977111817,2|0,1:2|0:0,0:0:0:0:
229,130,221052,2,0,L|117:144,1,74.9999977111817,2|0,1:2|0:0,0:0:0:0:
16,268,221401,69,10,0:0:0:0:
16,268,221750,38,0,L|1:379,1,74.9999977111817,2|0,0:0|3:2,0:0:0:0:
10,343,222012,1,0,3:2:0:0:
10,345,222099,2,0,P|37:371|73:380,1,74.9999977111817,6|0,1:2|0:0,0:0:0:0:
137,211,222448,2,0,P|111:237|102:273,1,74.9999977111817,2|0,0:0|0:0,0:0:0:0:
182,356,222797,2,0,L|285:340,1,74.9999977111817,10|0,0:0|0:0,0:0:0:0:
308,200,223146,2,0,L|233:211,1,74.9999977111817,2|0,0:0|0:0,0:0:0:0:
102,273,223494,69,2,1:2:0:0:
102,273,223843,102,0,P|137:288|199:268,1,74.9999977111817,2|0,1:2|0:0,0:0:0:0:
261,102,224192,2,0,P|230:124|216:188,1,74.9999977111817,10|0,0:0|0:0,0:0:0:0:
329,325,224541,2,0,P|324:287|276:243,1,74.9999977111817,2|0,0:0|3:0,0:0:0:0:
299,256,224802,1,0,3:0:0:0:
296,255,224870,53,6,1:2:0:0:
296,255,225567,70,0,L|370:243,1,74.9999977111817,10|0,0:0|0:0,0:0:0:0:
215,157,225916,2,0,L|140:145,1,74.9999977111817,2|0,0:0|3:0,0:0:0:0:
138,147,226178,1,0,3:0:0:0:
135,150,226265,2,0,P|114:188|123:224,1,74.9999977111817,2|0,1:2|0:0,0:0:0:0:
324,124,226614,2,0,P|345:86|335:49,1,74.9999977111817,0|8,1:2|0:0,0:0:0:0:
336,54,226875,1,8,0:0:0:0:
332,52,226963,1,8,0:0:0:0:
215,157,227137,1,8,0:3:0:0:
321,273,227311,1,4,0:3:0:0:
257,82,227486,1,0,1:0:0:0:
45,229,227660,102,0,L|119:217,1,74.9999977111817,4|0,1:2|0:0,0:0:0:0:
145,367,228009,2,0,L|132:293,1,74.9999977111817,0|0,1:2|0:0,0:0:0:0:
185,128,228358,2,0,L|197:201,1,74.9999977111817,8|0,0:0|0:0,0:0:0:0:
375,314,228707,1,0,3:0:0:0:
214,280,228881,1,0,3:0:0:0:
290,337,229056,2,0,L|303:263,1,74.9999977111817,0|0,1:2|0:0,0:0:0:0:
341,136,229404,1,0,1:2:0:0:
279,179,229579,1,8,0:0:0:0:
368,67,229753,53,8,0:0:0:0:
248,25,229928,1,8,0:3:0:0:
384,70,230102,2,0,P|400:36|404:0,1,74.9999977111817,4|0,0:3|0:0,0:0:0:0:
202,96,230451,70,0,L|122:107,1,74.9999977111817,6|0,1:2|0:0,0:0:0:0:
0,184,230800,2,0,L|74:174,1,74.9999977111817,2|0,0:0|0:0,0:0:0:0:
187,282,231157,2,0,L|267:293,1,74.9999977111817,10|0,0:0|0:0,0:0:0:0:
416,368,231506,2,0,L|342:358,1,74.9999977111817,2|0,0:0|3:0,0:0:0:0:
339,354,231767,1,0,3:0:0:0:
337,350,231854,2,0,L|347:275,1,74.9999977111817,2|0,1:2|0:0,0:0:0:0:
432,222,232202,2,0,L|442:296,1,74.9999977111817,2|0,1:2|0:0,0:0:0:0:
270,206,232551,2,0,L|345:196,1,74.9999977111817,10|0,0:0|0:0,0:0:0:0:
480,85,232900,1,2,0:0:0:0:
366,104,233074,101,0,3:0:0:0:
369,103,233162,1,0,3:0:0:0:
372,101,233249,2,0,P|428:144|430:238,1,149.999995422363,6|2,1:2|0:0,0:0:0:0:
205,116,233772,1,0,0:0:0:0:
268,38,233946,2,0,L|369:21,1,74.9999977111817,10|0,0:0|0:0,0:0:0:0:
142,166,234295,2,0,L|41:149,1,74.9999977111817,2|0,0:0|3:0,0:0:0:0:
64,155,234557,1,0,3:0:0:0:
64,155,234644,1,2,1:2:0:0:
196,231,234993,54,0,L|167:376,1,112.499996566773,2|0,1:2|0:0,0:0:0:0:
173,341,235342,2,0,P|196:313|264:307,1,74.9999977111817,10|0,0:0|0:0,0:0:0:0:
324,281,235690,1,2,0:0:0:0:
318,186,235865,1,0,3:0:0:0:
316,182,235952,1,0,3:0:0:0:
313,178,236039,2,0,L|327:21,1,149.999995422363,6|2,1:2|0:0,0:0:0:0:
481,102,236737,70,0,L|395:94,1,74.9999977111817,10|0,0:0|0:0,0:0:0:0:
247,19,237086,2,0,L|161:27,1,74.9999977111817,2|0,0:0|3:0,0:0:0:0:
170,29,237347,1,0,3:0:0:0:
168,32,237435,1,2,1:2:0:0:
48,140,237609,1,8,0:2:0:0:
103,216,237783,2,0,L|178:223,1,74.9999977111817,2|0,3:2|0:0,0:0:0:0:
246,102,238132,2,0,L|171:108,1,74.9999977111817,10|0,0:0|0:0,0:0:0:0:
25,276,238481,1,2,0:0:0:0:
94,337,238655,1,0,3:2:0:0:
97,339,238743,1,0,3:2:0:0:
97,342,238830,102,0,L|267:322,1,149.999995422363,6|2,1:2|0:0,0:0:0:0:
292,160,239528,54,0,P|294:123|316:93,1,74.9999977111817,10|0,0:0|0:0,0:0:0:0:
336,225,239876,2,0,P|302:241|266:237,1,74.9999977111817,2|0,0:0|3:0,0:0:0:0:
263,233,240138,1,0,3:0:0:0:
260,230,240225,2,0,L|164:222,1,74.9999977111817,2|0,1:2|0:0,0:0:0:0:
382,147,240574,2,0,L|478:138,1,74.9999977111817,2|0,1:2|0:0,0:0:0:0:
426,231,240923,70,0,L|417:339,1,74.9999977111817,10|0,0:0|0:0,0:0:0:0:
203,125,241272,102,0,L|196:50,1,74.9999977111817,2|0,1:2|0:0,0:0:0:0:
279,10,241621,54,0,L|291:159,1,149.999995422363,6|2,1:2|0:0,0:0:0:0:
122,324,242318,69,10,0:0:0:0:
3,201,242667,38,0,L|94:213,1,74.9999977111817,2|0,0:0|3:0,0:0:0:0:
79,213,242929,1,0,3:0:0:0:
81,215,243016,2,0,L|172:227,1,74.9999977111817,2|0,1:2|0:0,0:0:0:0:
200,51,243365,2,0,L|109:63,1,74.9999977111817,2|0,1:2|0:0,0:0:0:0:
50,120,243714,53,10,0:0:0:0:
219,295,244062,6,0,P|240:264|245:227,1,74.9999977111817,2|0,0:0|3:0,0:0:0:0:
306,178,244324,1,0,3:0:0:0:
305,174,244411,38,0,L|292:73,1,74.9999977111817,6|0,1:2|0:0,0:0:0:0:
395,54,244760,2,0,L|385:128,1,74.9999977111817,2|0,0:0|0:0,0:0:0:0:
387,296,245109,2,0,L|374:195,1,74.9999977111817,10|0,0:0|0:0,0:0:0:0:
476,172,245458,2,0,L|466:246,1,74.9999977111817,2|0,3:2|3:0,0:0:0:0:
319,338,245807,1,2,1:2:0:0:
319,338,246155,70,0,L|245:351,1,74.9999977111817,2|0,1:2|0:0,0:0:0:0:
105,227,246504,2,0,L|178:240,1,74.9999977111817,10|0,0:0|0:0,0:0:0:0:
385,128,246853,2,0,L|311:141,1,74.9999977111817,2|0,1:2|0:0,0:0:0:0:
124,114,247202,38,0,B|64:85|64:85|90:5,1,149.999995422363,6|10,1:2|0:0,0:0:0:0:
203,125,247725,1,0,0:0:0:0:
41,166,247900,2,0,P|22:198|18:235,1,74.9999977111817,0|8,1:2|0:3,0:0:0:0:
74,303,248249,1,4,0:3:0:0:
253,261,248423,69,0,3:0:0:0:
251,257,248510,1,0,3:0:0:0:
250,253,248597,2,0,L|102:226,1,149.999995422363,4|0,1:3|1:0,0:0:0:0:
174,332,249121,1,8,1:3:0:0:
237,161,249295,2,0,L|163:147,1,74.9999977111817,8|0,1:2|0:0,0:0:0:0:
265,345,249644,2,0,L|338:331,1,74.9999977111817,0|0,1:0|0:0,0:0:0:0:
401,384,249993,102,0,P|419:353|420:313,1,74.9999977111817,4|0,1:2|0:0,0:0:0:0:
370,258,250342,1,2,0:3:0:0:
492,102,250691,54,0,L|479:202,1,74.9999977111817,8|0,0:0|0:0,0:0:0:0:
396,42,251039,2,0,L|409:142,1,74.9999977111817,2|0,0:3|3:0,0:0:0:0:
406,127,251301,1,0,3:0:0:0:
406,137,251388,2,0,P|368:136|335:120,1,74.9999977111817,0|0,1:2|0:0,0:0:0:0:
273,176,251737,2,0,P|254:142|252:106,1,74.9999977111817,2|0,1:3|0:0,0:0:0:0:
62,260,252086,2,0,P|81:227|112:207,1,74.9999977111817,8|0,0:0|0:0,0:0:0:0:
94,125,252435,2,0,P|132:126|165:141,1,74.9999977111817,2|0,0:3|0:0,0:0:0:0:
241,254,252783,70,0,L|229:364,1,74.9999977111817,0|0,1:2|0:0,0:0:0:0:
163,366,253132,1,2,0:3:0:0:
291,176,253481,102,0,P|316:202|331:237,1,74.9999977111817,8|0,0:0|0:0,0:0:0:0:
430,82,253830,2,0,P|404:108|389:143,1,74.9999977111817,2|0,0:3|3:0,0:0:0:0:
394,149,254092,1,0,3:0:0:0:
399,156,254179,2,0,L|482:174,1,74.9999977111817,2|0,1:2|0:0,0:0:0:0:
307,102,254528,2,0,L|291:175,1,74.9999977111817,2|0,1:3|0:0,0:0:0:0:
196,44,254876,2,0,L|211:117,1,74.9999977111817,10|0,0:0|0:0,0:0:0:0:
121,0,255225,2,0,L|105:73,1,74.9999977111817,2|0,0:3|3:0,0:0:0:0:
0,161,255574,54,0,P|67:144|127:199,1,149.999995422363,2|2,1:2|0:3,0:0:0:0:
257,253,256097,1,0,0:0:0:0:
159,331,256272,2,0,L|174:258,1,74.9999977111817,10|0,0:0|0:0,0:0:0:0:
374,105,256621,2,0,L|389:179,1,74.9999977111817,2|0,0:3|3:0,0:0:0:0:
398,183,256882,1,0,3:0:0:0:
398,183,256969,70,0,L|413:257,1,74.9999977111817,2|0,1:2|0:0,0:0:0:0:
344,21,257318,2,0,P|382:17|417:28,1,74.9999977111817,2|0,1:3|0:0,0:0:0:0:
228,166,257667,2,0,P|190:169|155:158,1,74.9999977111817,10|0,0:0|0:0,0:0:0:0:
374,105,258016,1,2,0:3:0:0:
256,0,258190,101,0,3:0:0:0:
256,0,258278,1,0,3:0:0:0:
256,0,258365,2,0,L|271:129,1,99.9999969482423,2|0,1:2|0:0,0:0:0:0:
274,110,258714,6,0,L|338:126,2,49.9999984741211,2|0|0,1:3|0:0|0:0,0:0:0:0:
319,199,259062,38,0,B|301:255|301:255|331:299,1,112.499996566773,10|0,0:0|0:0,0:0:0:0:
327,303,259411,2,0,L|244:316,1,74.9999977111817,2|0,0:3|3:0,0:0:0:0:
390,247,259760,1,2,1:2:0:0:
309,384,259935,1,8,0:0:0:0:
223,230,260109,70,0,L|173:220,2,49.9999984741211,2|0|0,1:3|0:0|0:0,0:0:0:0:
162,309,260458,102,0,L|112:318,2,49.9999984741211,12|0|0,1:2|0:0|0:0,0:0:0:0:
82,237,260807,54,0,L|32:227,2,49.9999984741211,12|0|0,1:2|0:0|0:0,0:0:0:0:
119,148,261155,70,0,L|93:-26,1,149.999995422363,6|2,1:2|0:3,0:0:0:0:
313,115,261853,2,0,P|280:132|243:135,1,74.9999977111817,10|0,0:0|0:0,0:0:0:0:
251,54,262202,2,0,P|219:34|198:3,1,74.9999977111817,2|0,0:3|0:0,0:0:0:0:
393,148,262551,102,0,L|419:-26,1,149.999995422363,2|2,1:2|0:3,0:0:0:0:
313,115,263248,2,0,P|280:97|243:94,1,74.9999977111817,10|0,0:0|0:0,0:0:0:0:
251,176,263597,2,0,P|219:195|198:226,1,74.9999977111817,2|0,0:3|3:0,0:0:0:0:
215,312,263946,54,0,L|140:306,1,74.9999977111817,2|0,1:2|0:0,0:0:0:0:
285,255,264295,2,0,L|359:249,1,74.9999977111817,2|0,0:3|0:0,0:0:0:0:
461,272,264644,2,0,P|455:235|437:202,1,74.9999977111817,10|0,0:0|0:0,0:0:0:0:
285,255,264993,2,0,P|290:291|308:324,1,74.9999977111817,2|0,0:3|3:0,0:0:0:0:
399,353,265342,2,0,L|474:359,1,74.9999977111817,2|0,1:2|0:0,0:0:0:0:
214,311,265690,2,0,L|140:317,1,74.9999977111817,2|0,1:3|0:0,0:0:0:0:
66,358,266039,70,0,P|56:334|53:310,2,49.9999984741211,10|0|0,0:0|0:0|0:0,0:0:0:0:
139,317,266388,2,0,P|154:297|174:282,2,49.9999984741211,2|0|0,0:3|0:0|0:0,0:0:0:0:
285,349,266737,102,0,L|274:246,1,74.9999977111817,4|0,1:2|0:0,0:0:0:0:
228,200,267086,1,8,0:0:0:0:
62,217,267260,2,0,L|165:206,1,74.9999977111817,0|2,0:0|1:3,0:0:0:0:
313,206,267609,1,8,0:3:0:0:
287,0,267783,2,0,L|298:103,1,74.9999977111817,4|0,0:3|0:0,0:0:0:0:
464,286,268132,54,0,B|433:243|467:193|510:222|529:121|451:66|384:110|389:181|389:181|328:125|214:190|230:274|350:369|378:234|438:276|476:334|446:390,1,703.125026822091,4|0,1:2|0:0,0:0:0:0:
375,371,269528,69,0,3:2:0:0:
256,192,286272,12,2,288714,0:0:0:0:
256,320,289062,101,2,3:2:0:0:
329,288,289411,5,2,0:0:0:0:
368,183,289760,5,2,0:0:0:0:
277,25,290109,5,2,0:0:0:0:
265,19,290283,1,2,0:0:0:0:
107,29,290471,6,0,P|77:52|63:86,1,74.9999977111817,6|0,1:2|0:0,0:0:0:0:
147,102,290819,2,0,P|152:138|174:168,1,74.9999977111817
228,100,291168,2,0,P|262:113|299:109,1,74.9999977111817,10|0,0:0|0:0,0:0:0:0:
386,12,291517,2,0,L|374:108,1,74.9999977111817,0|0,3:2|3:2,0:0:0:0:
383,95,291779,1,0,3:2:0:0:
390,103,291866,2,0,L|378:199,1,74.9999977111817,2|0,1:2|0:0,0:0:0:0:
487,204,292215,2,0,L|477:129,1,74.9999977111817,0|0,1:2|0:0,0:0:0:0:
360,257,292564,2,0,L|348:353,1,74.9999977111817,10|0,0:0|0:0,0:0:0:0:
494,363,292913,2,0,L|484:288,1,74.9999977111817,0|0,3:2|3:2,0:0:0:0:
266,277,293261,70,0,P|212:322|132:308,1,149.999995422363,2|0,1:2|3:0,0:0:0:0:
0,77,293959,2,0,P|72:65|128:111,1,149.999995422363,8|2,0:0|0:0,0:0:0:0:
48,142,294482,1,0,0:0:0:0:
115,191,294657,2,0,L|203:175,1,74.9999977111817,2|0,1:2|0:0,0:0:0:0:
284,101,295005,2,0,L|196:85,1,74.9999977111817,0|0,1:2|0:0,0:0:0:0:
128,111,295354,2,0,L|144:23,1,74.9999977111817,8|0,0:0|0:0,0:0:0:0:
284,101,295703,2,0,L|297:174,1,74.9999977111817,2|0,3:2|3:2,0:0:0:0:
303,183,295965,1,0,3:2:0:0:
303,185,296052,102,0,P|221:208|190:267,1,149.999995422363,6|0,1:2|0:0,0:0:0:0:
272,351,296750,2,0,L|283:276,1,74.9999977111817,8|0,0:0|0:0,0:0:0:0:
87,231,297098,2,0,L|98:305,1,74.9999977111817,2|0,0:0|0:0,0:0:0:0:
245,160,297447,2,0,P|263:127|268:90,1,74.9999977111817,2|0,1:2|0:0,0:0:0:0:
68,13,297796,2,0,P|72:49|91:82,1,74.9999977111817,0|0,1:2|0:0,0:0:0:0:
245,160,298145,2,0,P|210:145|173:145,1,74.9999977111817,10|0,0:0|0:0,0:0:0:0:
30,240,298494,2,0,P|59:217|78:185,1,74.9999977111817,2|0,3:2|3:2,0:0:0:0:
77,181,298755,1,0,3:2:0:0:
75,177,298843,54,0,L|112:348,1,149.999995422363,2|2,1:2|3:2,0:0:0:0:
405,323,299540,2,0,L|437:177,1,149.999995422363,8|0,0:0|3:2,0:0:0:0:
370,110,300064,1,0,3:2:0:0:
370,110,300151,1,0,3:2:0:0:
370,110,300238,2,0,P|339:88|302:86,1,74.9999977111817,0|0,1:2|0:0,0:0:0:0:
407,177,300587,2,0,P|437:198|474:201,1,74.9999977111817,2|0,1:2|0:0,0:0:0:0:
311,175,300936,2,0,L|331:305,1,74.9999977111817,14|0,0:0|0:0,0:0:0:0:
500,76,301284,2,0,L|511:1,1,74.9999977111817,2|0,1:2|0:0,0:0:0:0:
272,10,301633,70,0,P|219:59|228:130,1,149.999995422363,6|0,1:2|0:0,0:0:0:0:
228,130,302331,2,0,L|114:148,1,74.9999977111817,10|0,0:0|0:0,0:0:0:0:
29,45,302680,2,0,L|143:63,1,74.9999977111817,2|0,3:2|3:2,0:0:0:0:
153,141,303029,2,0,L|164:215,1,74.9999977111817,2|0,1:2|0:0,0:0:0:0:
45,264,303377,2,0,L|56:189,1,74.9999977111817,2|0,1:2|0:0,0:0:0:0:
206,283,303726,2,0,P|171:297|134:294,1,74.9999977111817,10|0,0:0|0:0,0:0:0:0:
0,365,304075,2,0,P|37:362|71:376,1,74.9999977111817,2|0,3:2|3:0,0:0:0:0:
75,375,304337,1,0,3:0:0:0:
77,372,304424,102,0,L|235:384,1,149.999995422363,2|2,1:2|3:2,0:0:0:0:
445,131,305122,2,0,L|295:142,1,149.999995422363,8|2,0:0|0:0,0:0:0:0:
263,213,305645,1,0,3:0:0:0:
263,213,305732,1,0,3:0:0:0:
263,213,305819,2,0,L|274:313,1,74.9999977111817,0|0,1:2|0:0,0:0:0:0:
436,205,306168,2,0,L|444:130,1,74.9999977111817,2|0,1:2|0:0,0:0:0:0:
194,143,306517,2,0,P|173:173|167:210,1,74.9999977111817,10|0,0:0|0:0,0:0:0:0:
388,335,306866,2,0,P|382:298|360:267,1,74.9999977111817,8|0,3:3|3:2,0:0:0:0:
150,347,307215,54,0,L|-37:368,1,149.999995422363,6|0,1:2|3:0,0:0:0:0:
0,20,307912,2,0,L|150:37,1,149.999995422363,8|2,0:0|3:2,0:0:0:0:
214,97,308436,1,0,3:2:0:0:
214,97,308523,1,0,3:2:0:0:
213,96,308610,2,0,P|211:133|193:165,1,74.9999977111817,2|0,1:2|0:0,0:0:0:0:
130,111,308959,2,0,P|96:128|59:129,1,74.9999977111817,2|0,1:2|0:0,0:0:0:0:
234,9,309308,2,0,L|321:-2,1,74.9999977111817,10|0,0:0|0:0,0:0:0:0:
379,105,309657,2,0,L|304:95,1,74.9999977111817,8|0,3:3|3:2,0:0:0:0:
234,9,310005,102,0,P|218:84|178:120,1,125,6|10,1:2|0:1,0:0:0:0:
312,122,311401,1,2,1:1:0:0:
312,122,311750,2,0,L|386:134,1,62.5,2|8,1:1|0:2,0:0:0:0:
200,122,312447,2,0,L|126:134,1,62.5,2|0,0:1|1:1,0:0:0:0:
256,192,313145,101,0,0:0:0:0:
357,248,313494,2,0,P|381:192|373:131,1,125,10|2,0:1|1:1,0:0:0:0:
292,106,314540,1,2,1:1:0:0:
178,207,314877,2,0,L|190:281,1,62.5,8|2,0:1|0:1,0:0:0:0:
292,106,315579,5,0,1:1:0:0:
220,106,315934,1,0,0:0:0:0:
323,268,316290,2,0,L|334:207,1,62.5,10|0,0:1|0:0,0:0:0:0:
256,192,317018,1,2,1:1:0:0:
126,258,317402,2,0,L|187:268,1,62.5,2|8,1:1|0:2,0:0:0:0:
386,258,318127,2,0,L|324:268,1,62.5,2|0,0:1|1:1,0:0:0:0:
173,185,318883,101,0,1:1:0:0:
339,185,319277,1,10,0:1:0:0:
187,268,319721,5,0,1:1:0:0:
325,268,320143,1,14,0:1:0:0:
204,347,320646,101,2,1:1:0:0:
308,347,321149,1,8,0:1:0:0:
256,384,321823,5,2,1:1:0:0:
256,384,322875,86,0,B|254:334|195:293|156:405|51:332|35:250|147:187|206:241|206:241|201:172|267:129|343:183|324:282|282:253|249:302|279:344,1,649.999970245363,6|4,1:2|0:0,0:0:0:0:
