osu file format v14

[General]
AudioFilename: audio.mp3
AudioLeadIn: 0
PreviewTime: 206930
Countdown: 0
SampleSet: Soft
StackLeniency: 0.7
Mode: 0
LetterboxInBreaks: 0
WidescreenStoryboard: 0

[Editor]
DistanceSpacing: 0.5
BeatDivisor: 4
GridSize: 4
TimelineZoom: 2.2

[Metadata]
Title:Ayano no Koufuku Riron
TitleUnicode:アヤノの幸福理論
Artist:Yumeko
ArtistUnicode:ゆめこ
Creator:Hishiro Chizuru
Version:Color of Heroes
Source:カゲロウプロジェクト
Tags:kagerou project ia jin ayano's theory of happiness shintaro utaite mekakucity actors amb1d3x Hato はと
BeatmapID:2219799
BeatmapSetID:1060151

[Difficulty]
HPDrainRate:5
CircleSize:5
OverallDifficulty:7
ApproachRate:8
SliderMultiplier:1.7
SliderTickRate:1

[Events]
//Background and Video events
0,0,"ayano.jpg",0,0
Video,0,"ayano.flv"
//Break Periods
//Storyboard Layer 0 (Background)
//Storyboard Layer 1 (Fail)
//Storyboard Layer 2 (Pass)
//Storyboard Layer 3 (Foreground)
//Storyboard Layer 4 (Overlay)
//Storyboard Sound Samples

[TimingPoints]
1640,697.674418604651,4,2,1,25,1,0
1640,-133.333333333333,4,2,1,30,0,0
21147,722.89156626506,4,2,1,30,1,0
21147,-100,4,2,1,30,0,0
21872,697.674418604651,4,2,1,40,1,8
21872,-100,4,2,1,40,0,0
32337,-100,4,2,1,30,0,0
32500,-100,4,2,1,40,0,0
65814,-125,4,2,1,40,0,0
110476,-100,4,2,1,40,0,0
152337,-125,4,2,1,40,0,0
185825,-100,4,2,1,40,0,0
208151,-80,4,2,1,60,0,0
224895,-80,4,2,1,60,0,0
231174,-80,4,2,1,60,0,0
231871,-80,4,2,1,60,0,0
250011,-100,4,2,1,60,0,0
259081,-133.333333333333,4,2,1,60,0,0
259760,-76.9230769230769,4,2,1,60,0,0
260128,638.297872340426,4,2,1,60,1,0
260447,697.674418604651,4,2,1,60,1,0
260795,681.818181818182,4,2,1,60,1,0
261135,714.285714285714,4,2,1,60,1,0
261135,-100,4,2,1,60,0,0
262569,697.674418604651,4,2,1,60,1,0
290475,-66.6666666666667,4,2,1,60,0,1
310010,-133.333333333333,4,2,1,60,0,0
314895,705.882352941176,4,2,1,50,1,0
315600,714.285714285714,4,2,1,50,1,0
316314,722.89156626506,4,2,1,50,1,0
317036,722.89156626506,4,2,1,50,1,0
317396,722.89156626506,4,2,1,50,1,0
318118,769.230769230769,4,2,1,50,1,0
318504,794.701986754967,4,2,1,50,1,0
319298,882.352941176471,4,2,1,50,1,0
319739,857.142857142857,4,2,1,50,1,0
320147,1020.581731587,4,2,1,50,1,0
320657,987.004441519982,4,2,1,50,1,0
321152,1348.31460674157,4,2,1,50,1,0
321828,2173.91304347826,4,2,1,50,1,0
322913,1668.98470097357,4,2,1,50,1,0
322913,-83.3333333333333,4,2,1,20,0,0

[Colours]
Combo1 : 255,255,0
Combo2 : 255,0,0
Combo3 : 128,255,255
Combo4 : 128,128,192

[HitObjects]
477,374,2337,37,2,0:0:0:0:
472,357,3035,1,2,0:0:0:0:
334,344,3733,1,2,0:0:0:0:
458,159,4430,37,2,0:0:0:0:
448,140,5477,1,2,0:0:0:0:
435,156,5651,1,2,0:0:0:0:
425,205,5826,1,2,0:0:0:0:
418,221,6872,5,2,0:0:0:0:
245,137,7221,1,2,0:0:0:0:
233,125,8267,37,2,0:0:0:0:
227,132,8442,1,2,0:0:0:0:
231,164,8616,1,2,0:0:0:0:
173,200,8965,1,2,0:0:0:0:
99,73,9314,1,2,0:0:0:0:
67,139,9663,1,2,0:0:0:0:
106,251,10012,1,2,0:0:0:0:
99,334,10360,1,2,0:0:0:0:
336,384,11756,5,2,0:0:0:0:
263,188,12105,1,2,0:0:0:0:
332,0,12453,1,2,0:0:0:0:
512,193,12802,38,0,P|455:216|407:179,1,127.500004863739,2|2,0:0|0:0,0:0:0:0:
477,85,13849,2,0,B|467:116|464:155,1,63.7500024318696,2|2,0:0|0:0,0:0:0:0:
266,49,14546,1,2,0:0:0:0:
260,69,14895,1,2,0:0:0:0:
293,160,15244,1,2,0:0:0:0:
67,54,15593,5,2,0:0:0:0:
13,109,15942,2,0,P|69:133|125:105,1,127.500004863739,2|0,0:0|0:0,0:0:0:0:
139,87,17337,1,2,0:0:0:0:
125,75,17686,1,2,0:0:0:0:
64,210,18035,1,2,0:0:0:0:
124,164,18384,2,0,P|184:142|254:164,1,127.500004863739,2|0,0:0|0:0,0:0:0:0:
291,218,19430,37,2,0:0:0:0:
455,0,19779,2,0,P|481:38|473:84,1,95.6250036478044,2|0,0:0|0:0,0:0:0:0:
467,93,20477,1,2,0:0:0:0:
447,105,20826,1,2,0:0:0:0:
80,72,21147,22,0,P|129:17|234:15,1,170,4|2,1:0|0:0,0:0:0:0:
186,124,22220,1,0,1:0:0:0:
218,239,22569,2,0,P|239:238|260:234,1,42.5,2|0,0:0|0:0,0:0:0:0:
366,212,22918,2,0,P|355:230|341:246,1,42.5,2|0,1:0|0:0,0:0:0:0:
199,225,23267,1,8,0:0:0:0:
218,239,23616,1,2,0:0:0:0:
81,11,23965,38,0,B|72:78|72:78|76:86|76:86|70:181,1,170,0|2,1:0|0:0,0:0:0:0:
1,272,25011,1,0,1:0:0:0:
110,292,25360,2,0,P|109:270|101:251,1,42.5,2|0,0:0|0:0,0:0:0:0:
66,350,25709,2,0,P|49:363|30:371,1,42.5,2|0,1:0|0:0,0:0:0:0:
71,183,26058,1,8,0:0:0:0:
101,251,26406,1,2,0:0:0:0:
403,348,26755,38,0,B|444:358|476:322|476:322|447:276|382:278,1,170,0|2,1:0|0:0,0:0:0:0:
311,361,27802,1,0,1:0:0:0:
252,212,28151,2,0,L|247:263,1,42.5,2|0,0:0|0:0,0:0:0:0:
235,375,28499,2,0,L|238:332,1,42.5,2|0,1:0|0:0,0:0:0:0:
242,182,28848,1,8,0:0:0:0:
252,212,29197,1,2,0:0:0:0:
496,40,29546,22,0,P|439:21|321:73,1,170,0|2,1:0|0:0,0:0:0:0:
428,164,30592,1,0,1:0:0:0:
364,248,30941,2,0,P|343:245|325:234,1,42.5,2|0,0:0|0:0,0:0:0:0:
246,152,31290,2,0,P|245:173|254:193,1,42.5,2|0,1:0|0:0,0:0:0:0:
451,118,31639,2,0,B|446:159|446:159|449:168|449:168|443:203,1,85,2|2,0:3|1:0,0:0:0:0:
64,372,32337,38,0,B|66:285|66:285|84:182,1,170,4|2,1:0|0:0,0:0:0:0:
8,90,33383,1,0,1:0:0:0:
107,31,33732,2,0,P|133:29|165:34,1,42.5,2|0,0:0|0:0,0:0:0:0:
260,89,34080,2,0,P|234:91|202:86,1,42.5,2|0,1:0|0:0,0:0:0:0:
82,53,34429,1,8,0:0:0:0:
107,31,34778,1,2,0:0:0:0:
399,271,35127,38,0,B|386:200|436:186|445:142|406:137|367:129,1,170,0|2,1:0|0:0,0:0:0:0:
311,259,36174,1,0,1:0:0:0:
236,192,36522,2,0,P|215:193|194:197,1,42.5,2|0,0:0|0:0,0:0:0:0:
95,245,36871,2,0,P|119:241|143:231,1,42.5,2|0,1:0|0:0,0:0:0:0:
33,194,37220,1,8,0:0:0:0:
7,255,37569,1,2,0:0:0:0:
269,47,37918,22,0,P|333:63|264:84,1,170,0|2,1:0|0:0,0:0:0:0:
181,8,38964,1,0,1:0:0:0:
97,93,39313,2,0,B|98:120|98:120|96:125|96:125|91:160,1,42.5,2|0,0:0|0:0,0:0:0:0:
146,229,39662,2,0,B|145:202|145:202|147:197|147:197|152:162,1,42.5,2|0,1:0|0:0,0:0:0:0:
77,67,40011,1,8,0:0:0:0:
97,93,40360,1,2,0:0:0:0:
9,276,40708,38,0,P|18:328|123:336,1,170,0|2,1:0|0:0,0:0:0:0:
78,282,41755,1,0,1:0:0:0:
143,242,42104,2,0,P|163:237|184:237,1,42.5,2|0,0:0|0:0,0:0:0:0:
220,293,42453,2,0,P|240:297|261:297,1,42.5,2|0,1:0|0:0,0:0:0:0:
316,229,42801,1,2,0:3:0:0:
321,248,43150,1,2,0:0:0:0:
476,370,43848,37,2,0:0:0:0:
488,351,44022,1,0,0:0:0:0:
458,263,44197,1,2,0:0:0:0:
329,350,44546,1,2,0:0:0:0:
342,283,44720,1,2,0:0:0:0:
218,308,45069,1,2,0:0:0:0:
194,201,45243,1,2,0:0:0:0:
188,185,45941,1,2,0:0:0:0:
330,20,46290,5,2,0:0:0:0:
370,113,46639,1,2,0:0:0:0:
335,217,46987,1,2,0:0:0:0:
328,203,47162,1,0,0:0:0:0:
359,119,47336,1,2,0:0:0:0:
377,129,48034,1,2,0:0:0:0:
234,163,48383,1,2,0:0:0:0:
191,44,48732,1,2,0:0:0:0:
21,358,49429,37,2,0:0:0:0:
135,312,49604,1,0,0:0:0:0:
36,270,49778,1,2,0:0:0:0:
145,307,50127,5,2,0:0:0:0:
127,207,50301,1,2,0:0:0:0:
197,144,50650,37,2,0:0:0:0:
156,302,50824,1,2,0:0:0:0:
164,315,51522,1,2,0:0:0:0:
171,327,51697,1,0,0:0:0:0:
268,185,51871,5,2,0:0:0:0:
351,88,52220,1,2,0:0:0:0:
485,250,52569,1,2,0:0:0:0:
226,351,52918,1,2,0:0:0:0:
216,331,53615,37,2,0:0:0:0:
165,275,53964,1,2,0:0:0:0:
161,286,54139,1,0,0:0:0:0:
158,297,54313,1,2,0:0:0:0:
152,314,55011,5,2,0:0:0:0:
72,287,55185,1,2,0:0:0:0:
79,384,55360,1,2,0:0:0:0:
154,210,55708,37,2,0:0:0:0:
176,295,55883,1,2,0:0:0:0:
280,176,56232,5,2,0:0:0:0:
251,308,56406,1,2,0:0:0:0:
256,318,57104,1,2,0:0:0:0:
488,189,57453,37,2,0:0:0:0:
412,147,57801,1,2,0:0:0:0:
351,197,58150,1,2,0:0:0:0:
474,98,58499,1,2,0:0:0:0:
480,113,59197,1,2,0:0:0:0:
488,189,59546,1,2,0:0:0:0:
493,202,59720,1,0,0:0:0:0:
498,215,59894,1,2,0:0:0:0:
496,237,60592,5,2,0:0:0:0:
491,254,60767,1,2,0:0:0:0:
433,291,60941,1,2,0:0:0:0:
416,284,61290,37,2,0:0:0:0:
388,224,61464,1,2,0:0:0:0:
63,67,61987,1,2,0:0:0:0:
32,146,62336,1,2,0:0:0:0:
52,142,62511,1,0,0:0:0:0:
72,139,62685,1,2,0:0:0:0:
146,356,63034,5,2,0:0:0:0:
257,97,63383,1,2,0:0:0:0:
153,364,63732,1,2,0:0:0:0:
289,293,64080,37,2,0:0:0:0:
325,383,64313,1,2,0:0:0:0:
267,343,65825,6,0,P|296:359|329:362,1,68,2|0,0:0|0:0,0:0:0:0:
341,354,66348,1,0,0:0:0:0:
209,276,66523,2,0,B|173:267|173:267|132:278,1,68,2|0,0:0|0:0,0:0:0:0:
284,241,67046,1,0,0:0:0:0:
279,229,67220,2,0,P|285:196|315:167,1,68,2|0,0:0|0:0,0:0:0:0:
317,181,67918,1,2,0:3:0:0:
331,194,68267,1,0,0:0:0:0:
341,206,68441,1,0,0:0:0:0:
439,75,68616,38,0,B|408:78|390:59|373:68,1,68,2|0,0:0|0:0,0:0:0:0:
42,167,69313,1,2,0:0:0:0:
73,177,69487,1,0,0:0:0:0:
107,173,69662,2,0,P|137:156|157:106,2,68,0|2|0,0:0|0:0|0:0,0:0:0:0:
84,96,70708,1,2,0:3:0:0:
85,81,70883,1,0,0:0:0:0:
86,65,71057,2,0,L|89:28,1,34
177,213,71406,6,0,B|179:246|179:246|175:255|175:255|173:301,1,68,2|0,0:0|0:0,0:0:0:0:
175,299,71929,1,0,0:0:0:0:
277,170,72104,2,0,B|274:203|274:203|279:212|279:212|281:258,1,68,2|0,0:0|0:0,0:0:0:0:
408,162,72627,1,0,0:0:0:0:
402,149,72802,2,0,P|369:118|347:119,1,68,2|0,0:0|0:0,0:0:0:0:
410,171,73499,1,2,0:3:0:0:
348,246,73848,2,0,P|368:248|386:246,1,34
154,110,74197,38,0,B|119:125|100:114|79:135,1,68,2|0,0:0|0:0,0:0:0:0:
72,194,74894,1,2,0:0:0:0:
341,333,75243,2,0,B|334:326|398:337|445:291,1,136,0|2,0:0|0:0,0:0:0:0:
341,333,76290,1,2,0:3:0:0:
238,294,76639,2,0,L|242:343,1,34
330,132,76987,1,2,0:0:0:0:
336,143,77336,5,0,0:0:0:0:
45,259,77685,2,0,B|43:288|43:288|45:296|45:296|43:326,1,68,2|0,0:0|0:0,0:0:0:0:
121,202,78208,1,0,0:0:0:0:
113,195,78383,2,0,B|94:154|126:161|96:109,1,68,2|0,0:0|0:0,0:0:0:0:
115,139,79080,1,2,0:3:0:0:
127,154,79429,1,0,0:0:0:0:
342,17,79778,37,2,0:0:0:0:
440,150,80127,1,0,0:0:0:0:
407,311,80476,1,2,0:0:0:0:
306,315,80825,2,0,B|285:294|298:272|311:268|337:285|377:213,1,136,0|2,0:0|0:0,0:0:0:0:
230,248,81871,5,2,0:3:0:0:
214,348,82104,1,0,0:0:0:0:
20,143,82569,1,2,0:0:0:0:
27,157,82918,37,0,0:0:0:0:
31,175,83092,1,0,0:0:0:0:
91,253,83267,2,0,P|92:207|110:175,1,68,2|0,0:0|0:0,0:0:0:0:
111,179,83790,1,0,0:0:0:0:
195,287,83964,2,0,B|193:335|183:358,1,68,2|0,0:0|0:0,0:0:0:0:
185,354,84662,1,2,0:3:0:0:
181,333,84837,1,0,0:0:0:0:
177,313,85011,1,2,0:0:0:0:
441,363,85360,6,0,P|443:319|467:269,2,68,2|0|2,0:0|0:0|0:0,0:0:0:0:
309,114,86406,1,0,0:0:0:0:
318,124,86580,2,0,P|325:138|327:155,1,34,0|2,0:0|0:0,0:0:0:0:
142,375,87104,37,2,0:0:0:0:
38,131,87453,1,2,0:3:0:0:
312,44,87801,1,2,0:0:0:0:
451,361,88150,6,0,P|484:312|465:231,1,136,2|0,1:0|0:0,0:0:0:0:
343,142,89197,1,2,1:0:0:0:
162,335,89546,2,0,B|191:324|207:338|231:326,2,68,2|0|8,0:0|1:0|0:0,0:0:0:0:
275,268,90592,1,2,0:0:0:0:
3,90,90941,38,0,B|38:60|103:103|138:14,1,136,2|0,1:0|0:0,0:0:0:0:
250,76,91987,1,2,1:0:0:0:
148,276,92336,1,0,0:0:0:0:
113,205,92685,1,2,1:0:0:0:
202,151,93034,1,8,0:0:0:0:
340,293,93383,1,2,0:0:0:0:
70,361,93732,6,0,B|118:334|70:288|134:250,1,102,2|0,1:0|0:0,0:0:0:0:
63,185,94429,2,0,B|62:240|126:221|127:295,1,102,2|0,0:0|0:0,0:0:0:0:
249,324,95127,2,0,B|201:295|185:360|120:324,1,102,2|0,0:0|0:0,0:0:0:0:
403,243,95825,2,0,B|355:271|339:206|274:242,1,102,2|0,0:0|0:0,0:0:0:0:
119,63,96522,38,0,P|167:61|203:122,1,102,2|0,1:0|0:0,0:0:0:0:
213,207,97220,2,0,P|187:166|222:104,1,102,2|0,0:0|0:0,0:0:0:0:
272,44,97918,1,2,0:0:0:0:
358,122,98267,1,2,1:0:0:0:
463,0,98616,2,0,B|453:18|483:36|470:90,1,68,2|0,0:0|1:0,0:0:0:0:
376,384,99313,5,6,1:0:0:0:
366,363,99662,2,0,B|353:331|372:319|375:289,1,68,0|2,0:0|0:0,0:0:0:0:
444,278,100360,1,0,1:0:0:0:
244,208,100708,1,2,0:0:0:0:
269,269,100883,1,0,0:0:0:0:
238,329,101057,2,0,P|231:362|204:357,1,68,0|10,1:0|0:0,0:0:0:0:
234,198,101755,1,0,0:0:0:0:
56,29,102104,37,2,1:0:0:0:
25,89,102453,1,0,0:0:0:0:
44,236,102801,1,2,0:0:0:0:
94,284,102976,1,0,0:0:0:0:
142,212,103150,2,0,P|175:205|218:204,1,68,0|2,1:0|0:0,0:0:0:0:
282,275,103848,1,0,1:0:0:0:
158,368,104197,1,10,0:0:0:0:
83,324,104546,1,0,0:0:0:0:
442,110,104894,5,2,1:0:0:0:
467,182,105243,2,0,P|505:166|511:133,1,68,0|2,0:0|0:0,0:0:0:0:
40,3,105941,1,0,1:0:0:0:
0,78,106290,1,2,0:0:0:0:
90,192,106639,1,0,1:0:0:0:
13,373,106987,1,2,0:3:0:0:
72,174,107336,38,0,P|103:163|137:163,1,68,0|2,1:0|1:0,0:0:0:0:
256,370,108034,1,0,0:0:0:0:
343,78,108383,1,2,0:0:0:0:
197,210,108732,2,0,P|230:215|263:209,1,68,0|2,0:0|1:0,0:0:0:0:
7,375,109429,5,2,1:0:0:0:
239,2,109778,1,2,0:3:0:0:
121,39,110127,1,2,1:0:0:0:
348,366,110476,6,0,P|388:350|421:324,1,85,2|0,1:0|0:0,0:0:0:0:
172,46,111173,2,0,P|114:22|54:40,1,127.5,8|0,0:0|3:0,0:0:0:0:
48,49,111784,1,0,3:0:0:0:
44,58,111871,1,0,1:0:0:0:
65,162,112220,1,2,1:0:0:0:
444,34,112569,1,8,0:0:0:0:
508,95,112918,2,0,L|514:44,1,42.5,2|0,0:0|0:0,0:0:0:0:
317,267,113267,38,0,P|303:306|302:355,1,85,2|0,1:0|0:0,0:0:0:0:
76,131,113964,2,0,P|22:1|-13:-2,1,170,8|0,0:0|1:0,0:0:0:0:
80,147,115011,1,2,1:0:0:0:
365,0,115360,1,8,0:0:0:0:
466,113,115708,1,2,0:0:0:0:
419,170,115883,1,0,3:0:0:0:
419,170,115970,1,0,3:0:0:0:
419,170,116057,38,0,P|336:151|289:168,1,127.5,2|0,1:0|0:0,0:0:0:0:
374,338,116755,2,0,P|432:331|432:272,1,127.5,8|0,0:0|0:0,0:0:0:0:
426,263,117365,1,0,0:0:0:0:
418,255,117453,1,0,1:0:0:0:
211,42,117801,1,2,1:0:0:0:
34,352,118150,1,8,0:0:0:0:
84,294,118499,2,0,P|65:283|44:280,1,42.5,2|0,0:0|0:0,0:0:0:0:
274,163,118848,22,0,L|358:158,1,85,2|0,1:0|0:0,0:0:0:0:
89,27,119546,1,8,0:0:0:0:
275,91,119894,1,2,0:0:0:0:
320,33,120069,1,0,3:0:0:0:
320,33,120156,1,0,3:0:0:0:
320,33,120243,2,0,P|349:79|345:117,2,85,0|2|8,1:0|1:0|0:0,0:0:0:0:
257,241,121290,1,2,0:0:0:0:
200,193,121464,1,0,3:0:0:0:
200,193,121551,1,0,3:0:0:0:
200,193,121639,38,0,P|159:181|116:183,1,85,2|0,1:3|0:0,0:0:0:0:
344,296,122336,2,0,P|384:304|464:264,1,127.5,8|0,0:0|3:0,0:0:0:0:
466,261,122947,1,0,3:0:0:0:
472,251,123034,1,0,1:0:0:0:
354,105,123383,1,2,1:0:0:0:
181,330,123732,1,8,0:0:0:0:
102,269,124080,2,0,L|152:260,1,42.5,2|0,0:0|0:0,0:0:0:0:
484,91,124429,38,0,B|419:87|419:87|415:79|415:79|297:82,1,170,2|8,1:0|0:0,0:0:0:0:
78,159,125476,1,2,0:0:0:0:
299,277,125825,2,0,B|340:281|340:281|346:287|346:287|390:290,1,85,0|2,1:0|1:0,0:0:0:0:
208,21,126522,1,8,0:0:0:0:
182,107,126871,1,2,0:0:0:0:
437,376,127220,22,0,P|471:355|470:309,1,85,2|0,1:0|0:0,0:0:0:0:
61,9,127918,2,0,P|28:33|28:76,1,85,8|2,0:0|0:0,0:0:0:0:
256,8,128615,1,2,1:0:0:0:
328,84,128964,1,2,1:0:0:0:
124,360,129313,2,0,B|130:318|130:318|112:300|116:272,1,85,8|2,0:0|0:0,0:0:0:0:
445,44,130011,38,0,B|397:56|422:78|390:168,1,127.5,2|0,1:0|0:0,0:0:0:0:
431,212,130709,2,0,P|418:158|362:165,1,85,8|2,0:0|0:0,0:0:0:0:
127,384,131406,1,2,1:0:0:0:
67,292,131755,1,0,1:0:0:0:
479,359,132104,1,8,0:0:0:0:
432,288,132453,2,0,L|429:319,3,21.25,2|2|2|2,0:0|0:0|0:0|0:0,0:0:0:0:
408,261,132801,6,0,P|389:251|368:249,1,42.5,2|0,1:0|0:0,0:0:0:0:
286,340,133150,2,0,P|337:338|380:290,1,85,2|8,0:0|0:0,0:0:0:0:
60,99,133848,2,0,P|60:75|78:51,1,42.5,2|0,0:0|0:0,0:0:0:0:
146,138,134197,2,0,P|140:117|131:98,1,42.5,2|0,1:0|0:0,0:0:0:0:
42,256,134546,2,0,P|69:193|107:188,1,85,2|8,1:0|0:0,0:0:0:0:
79,189,135243,2,0,P|101:197|123:199,1,42.5,2|0,0:0|0:0,0:0:0:0:
455,26,135592,38,0,P|398:15|351:47,1,85,2|0,1:0|0:0,0:0:0:0:
370,37,136115,1,0,0:0:0:0:
307,151,136290,2,0,P|351:123|405:123,1,85,10|0,0:0|0:0,0:0:0:0:
447,174,136813,1,0,3:0:0:0:
447,174,136900,1,0,3:0:0:0:
447,174,136988,2,0,B|443:213|443:213|445:223|445:223|439:264,1,85,0|2,1:0|1:0,0:0:0:0:
446,273,137511,1,0,0:0:0:0:
272,338,137685,2,0,L|285:289,1,42.5,10|0,0:0|0:0,0:0:0:0:
374,384,138034,2,0,L|360:334,1,42.5
168,363,138383,38,0,P|117:361|83:273,1,127.5,2|0,1:0|0:0,0:0:0:0:
178,373,139080,1,8,0:0:0:0:
300,220,139429,1,0,0:0:0:0:
242,161,139604,1,0,3:0:0:0:
242,161,139691,1,0,3:0:0:0:
242,161,139778,2,0,P|235:129|276:74,1,85,2|2,1:0|1:0,0:0:0:0:
278,76,140301,1,0,0:0:0:0:
224,235,140476,2,0,L|172:230,1,42.5,8|0,0:0|0:0,0:0:0:0:
127,172,140825,2,0,L|84:176,1,42.5
304,352,141173,22,0,B|348:348|351:330|397:312|425:325,1,127.5,2|0,1:0|0:0,0:0:0:0:
354,307,141871,2,0,P|336:260|370:178,1,127.5,10|0,0:0|3:0,0:0:0:0:
365,183,142482,1,0,3:0:0:0:
373,178,142569,1,0,1:0:0:0:
207,3,142918,2,0,L|200:54,1,42.5,2|0,1:0|0:0,0:0:0:0:
149,151,143267,2,0,L|141:89,1,42.5,8|0,0:0|0:0,0:0:0:0:
236,243,143615,1,2,0:0:0:0:
22,372,143964,38,0,B|61:349|123:351|170:329,1,127.5,2|0,1:0|0:0,0:0:0:0:
219,384,144662,2,0,L|231:338,1,42.5,8|0,0:0|0:0,0:0:0:0:
296,269,145011,2,0,L|308:322,1,42.5,2|0,0:0|3:0,0:0:0:0:
310,322,145272,1,0,3:0:0:0:
313,333,145360,1,0,1:0:0:0:
195,179,145708,2,0,L|204:130,1,42.5,2|0,1:0|0:0,0:0:0:0:
273,7,146057,2,0,L|285:60,1,42.5,8|0,0:0|0:0,0:0:0:0:
347,78,146406,2,0,L|359:131,1,42.5,2|0,0:0|0:0,0:0:0:0:
159,297,146755,38,0,P|167:248|206:231,1,85,2|0,1:0|0:0,0:0:0:0:
217,237,147278,1,0,0:0:0:0:
155,59,147453,2,0,B|151:102|151:102|141:106|141:106|141:144,1,85,8|2,0:0|0:0,0:0:0:0:
74,167,147976,1,0,3:0:0:0:
74,167,148063,1,0,3:0:0:0:
74,167,148150,2,0,B|76:199|76:199|70:203|70:203|75:225,1,42.5,0|0,1:0|0:0,0:0:0:0:
123,345,148499,2,0,P|129:306|152:289,1,42.5,2|0,1:0|0:0,0:0:0:0:
247,201,148848,2,0,L|193:213,1,42.5,8|0,0:0|0:0,0:0:0:0:
299,258,149197,2,0,L|340:267,1,42.5,2|0,0:0|0:0,0:0:0:0:
452,39,149546,22,0,P|397:36|387:43,1,42.5,2|0,1:0|0:0,0:0:0:0:
347,127,149895,2,0,P|355:87|299:46,1,85,2|8,0:0|0:0,0:0:0:0:
60,248,150592,1,2,0:0:0:0:
61,271,150767,1,2,0:0:0:0:
75,296,150941,2,0,P|117:281|131:266,1,42.5,2|0,1:0|0:0,0:0:0:0:
218,335,151290,2,0,P|195:328|181:314,1,42.5,2|0,1:0|0:0,0:0:0:0:
226,125,151639,2,0,B|229:141|229:141|235:147|235:147|241:171,1,42.5,12|0,0:0|0:0,0:0:0:0:
218,235,151987,1,0,1:0:0:0:
289,283,152162,1,0,3:0:0:0:
289,283,152249,1,0,3:0:0:0:
289,283,152337,38,0,P|345:278|386:206,1,136,2|10,1:0|0:0,0:0:0:0:
288,176,153383,1,0,0:0:0:0:
320,73,153732,2,0,L|364:69,1,34,2|0,1:0|0:0,0:0:0:0:
457,60,154080,2,0,L|423:63,1,34,2|0,1:0|0:0,0:0:0:0:
302,98,154429,1,8,0:0:0:0:
320,73,154778,1,2,0:0:0:0:
81,4,155127,38,0,B|89:50|89:50|85:64|85:64|81:142,1,136,0|10,1:0|0:0,0:0:0:0:
13,265,156173,1,0,0:0:0:0:
74,217,156522,2,0,P|90:219|106:226,1,34,2|0,1:0|0:0,0:0:0:0:
181,232,156871,2,0,P|187:247|189:264,1,34,2|0,1:0|0:0,0:0:0:0:
123,383,157220,1,8,0:0:0:0:
94,303,157569,1,2,0:0:0:0:
438,208,157918,22,0,P|463:183|400:180,1,136,0|10,1:0|0:0,0:0:0:0:
390,290,158964,1,0,0:0:0:0:
308,203,159313,2,0,P|294:192|277:189,1,34,2|0,1:0|0:0,0:0:0:0:
170,203,159662,2,0,P|183:192|200:189,1,34,2|0,1:0|0:0,0:0:0:0:
341,198,160011,1,8,0:0:0:0:
308,203,160360,1,2,0:0:0:0:
98,375,160708,38,0,B|121:321|76:294|111:234,1,136,0|10,1:0|0:0,0:0:0:0:
3,187,161755,1,0,0:0:0:0:
68,100,162104,2,0,L|112:97,1,34,2|0,1:0|0:0,0:0:0:0:
211,91,162453,2,0,L|177:93,1,34,2|0,1:0|0:0,0:0:0:0:
0,103,162801,1,8,0:0:0:0:
101,97,163150,1,2,0:0:0:0:
211,91,163499,37,0,1:0:0:0:
260,135,163848,1,0,0:0:0:0:
256,153,164022,1,0,0:0:0:0:
327,82,164197,1,2,0:0:0:0:
434,193,164546,1,2,0:0:0:0:
422,98,164720,1,2,0:0:0:0:
244,248,165069,1,2,0:0:0:0:
256,153,165243,1,2,0:0:0:0:
396,314,165941,1,0,0:0:0:0:
392,331,166115,1,0,0:0:0:0:
313,348,166290,5,2,0:0:0:0:
204,307,166639,1,2,0:0:0:0:
152,157,166987,1,2,0:0:0:0:
333,28,167336,1,2,0:0:0:0:
345,19,168034,1,2,0:0:0:0:
348,35,168383,1,2,0:0:0:0:
350,43,168732,1,2,0:0:0:0:
351,57,169429,37,2,0:0:0:0:
346,69,169604,1,0,0:0:0:0:
392,163,169778,1,2,0:0:0:0:
274,245,170127,1,2,0:0:0:0:
300,148,170301,1,2,0:0:0:0:
422,344,170650,1,2,0:0:0:0:
396,247,170824,1,2,0:0:0:0:
390,258,171522,1,2,0:0:0:0:
373,268,171697,1,0,0:0:0:0:
199,176,171871,5,2,0:0:0:0:
151,242,172220,1,2,0:0:0:0:
333,369,172569,1,2,0:0:0:0:
428,45,172918,1,2,0:0:0:0:
420,59,173615,1,2,0:0:0:0:
276,17,173964,1,2,0:0:0:0:
280,32,174139,1,0,0:0:0:0:
284,48,174313,1,2,0:0:0:0:
64,149,175011,37,2,0:0:0:0:
82,132,175185,1,0,0:0:0:0:
160,172,175360,1,2,0:0:0:0:
207,74,175708,5,2,0:0:0:0:
170,183,175883,1,2,0:0:0:0:
304,173,176232,37,2,0:0:0:0:
180,196,176407,1,2,0:0:0:0:
173,212,177104,1,2,0:0:0:0:
321,374,177453,5,2,0:0:0:0:
397,261,177801,1,2,0:0:0:0:
300,253,178150,1,2,0:0:0:0:
298,273,178325,1,0,0:0:0:0:
296,293,178499,1,2,0:0:0:0:
347,172,179197,1,2,0:0:0:0:
285,310,179546,1,2,0:0:0:0:
272,319,179720,1,2,0:0:0:0:
258,327,179894,1,2,0:0:0:0:
19,273,180592,37,2,0:0:0:0:
41,259,180767,1,2,0:0:0:0:
104,294,180941,1,2,0:0:0:0:
212,192,181290,1,2,0:0:0:0:
109,219,181464,1,2,0:0:0:0:
123,202,181987,1,2,0:0:0:0:
127,181,182336,5,2,0:0:0:0:
124,160,182511,1,0,0:0:0:0:
120,138,182685,1,2,0:0:0:0:
346,2,183034,37,2,0:0:0:0:
381,99,183383,1,2,0:0:0:0:
265,293,183732,1,2,0:0:0:0:
275,149,184080,5,2,0:0:0:0:
300,231,184313,1,2,0:0:0:0:
456,17,184778,37,2,0:0:0:0:
298,329,185127,1,2,0:3:0:0:
142,66,185476,1,2,1:0:0:0:
486,223,185825,22,0,B|445:174|388:285|319:195,1,170,2|8,1:0|0:0,0:0:0:0:
269,137,186871,1,2,0:0:0:0:
137,354,187220,2,0,B|138:313|138:313|131:310|131:310|129:259,2,85,2|0|8,0:0|1:0|0:0,0:0:0:0:
194,232,188267,1,2,0:0:0:0:
22,103,188615,38,0,P|38:40|127:48,1,170,2|8,1:0|0:0,0:0:0:0:
113,150,189662,1,2,0:0:0:0:
301,68,190011,1,2,0:0:0:0:
367,117,190360,1,0,1:0:0:0:
336,297,190708,1,8,0:0:0:0:
147,311,191057,1,2,0:0:0:0:
165,35,191406,38,0,B|177:24|199:32|199:32|188:68|137:98,1,127.5,2|0,1:0|0:0,0:0:0:0:
35,86,192104,2,0,B|15:82|11:59|11:59|48:51|98:79,1,127.5,10|0,0:0|0:0,0:0:0:0:
122,231,192801,2,0,B|128:247|110:263|110:263|84:234|83:176,1,127.5,2|0,1:0|0:0,0:0:0:0:
165,35,193499,2,0,P|225:21|275:57,1,127.5,10|0,0:0|0:0,0:0:0:0:
395,247,194197,22,0,B|402:159|402:159|375:197,1,127.5,2|0,1:0|0:0,0:0:0:0:
424,315,194894,2,0,B|496:365|496:365|477:322,1,127.5,10|0,0:0|0:0,0:0:0:0:
307,341,195592,1,0,1:0:0:0:
216,384,195941,1,2,1:0:0:0:
30,151,196290,1,10,0:0:0:0:
451,91,196987,38,0,P|489:69|407:47,1,170,2|8,1:0|0:0,0:0:0:0:
421,14,198034,1,2,0:0:0:0:
348,166,198383,2,0,P|289:193|236:97,1,170,0|10,1:0|0:0,0:0:0:0:
228,123,199429,1,0,0:0:0:0:
22,0,199778,38,0,B|18:81|18:81|14:88|14:88|3:191,1,170,2|8,1:0|0:0,0:0:0:0:
5,168,200825,1,2,0:0:0:0:
67,336,201174,2,0,B|56:295|55:234,1,85,2|0,1:0|1:0,0:0:0:0:
127,255,201871,2,0,B|126:293|138:340,1,85,8|2,0:0|0:0,0:0:0:0:
501,291,202569,22,0,P|461:269|386:246,2,85,2|0|8,1:0|0:0|0:0,0:0:0:0:
364,309,203615,1,2,0:0:0:0:
221,29,203964,1,2,1:0:0:0:
376,46,204313,1,2,1:0:0:0:
228,353,204662,1,2,0:3:0:0:
183,293,205011,2,0,P|201:281|221:277,1,42.5,2|0,1:0|0:0,0:0:0:0:
330,241,205360,38,0,P|294:242|250:210,2,85,2|0|2,1:0|1:0|0:3,0:0:0:0:
187,204,206406,1,2,0:0:0:0:
463,116,206755,1,2,0:1:0:0:
15,52,207104,37,2,1:0:0:0:
93,83,207278,1,0,0:0:0:0:
206,83,207453,21,8,0:0:0:0:
51,142,207627,1,0,3:0:0:0:
144,25,207801,37,8,3:0:0:0:
200,180,207976,1,0,3:0:0:0:
200,180,208063,1,0,3:0:0:0:
200,180,208151,22,0,P|186:203|103:217,1,106.25,6|0,1:0|0:0,0:0:0:0:
94,209,208674,1,0,0:0:0:0:
361,7,208848,2,0,P|416:15|421:96,1,106.25,10|0,0:0|0:0,0:0:0:0:
433,73,209371,1,0,0:0:0:0:
176,0,209546,2,0,P|149:-1|124:6,1,53.125,2|0,1:3|0:0,0:0:0:0:
292,68,209895,2,0,P|265:69|240:62,1,53.125,2|0,1:0|0:0,0:0:0:0:
22,9,210244,2,0,B|17:54|17:54|9:58|9:58|3:153,1,106.25,8|2,0:0|0:0,0:0:0:0:
14,133,210767,1,0,0:0:0:0:
354,133,210941,38,0,B|358:178|358:178|366:182|366:182|373:277,1,106.25,6|0,1:0|0:0,0:0:0:0:
363,253,211464,1,0,0:0:0:0:
158,384,211639,2,0,L|160:330,1,53.125,10|0,0:0|0:0,0:0:0:0:
206,281,211988,1,0,0:0:0:0:
146,222,212162,1,0,3:0:0:0:
146,222,212249,1,0,3:0:0:0:
146,222,212337,2,0,L|148:168,1,53.125,2|0,1:3|0:0,0:0:0:0:
424,69,212685,2,0,P|446:68|478:79,1,53.125,2|0,1:0|0:0,0:0:0:0:
315,144,213034,2,0,P|338:144|369:134,1,53.125,10|0,0:0|0:0,0:0:0:0:
254,69,213383,1,2,0:0:0:0:
95,136,213557,1,0,3:0:0:0:
95,136,213645,1,0,3:0:0:0:
95,136,213732,38,0,P|135:146|213:127,1,106.25,6|0,1:0|0:0,0:0:0:0:
0,384,214430,2,0,P|12:328|56:324,1,106.25,10|0,0:0|0:0,0:0:0:0:
246,384,214953,1,0,3:0:0:0:
246,384,215040,1,0,3:0:0:0:
246,384,215127,2,0,L|249:313,1,53.125,2|0,1:3|0:0,0:0:0:0:
174,254,215476,2,0,L|171:183,1,53.125,2|0,1:0|0:0,0:0:0:0:
429,50,215825,2,0,P|435:104|380:143,1,106.25,8|2,0:0|0:0,0:0:0:0:
313,105,216348,1,0,3:0:0:0:
313,105,216435,1,0,3:0:0:0:
313,105,216523,38,0,P|267:98|252:104,1,53.125,6|0,1:0|0:0,0:0:0:0:
193,145,216871,2,0,P|147:152|132:146,1,53.125
8,6,217220,2,0,B|28:32|28:32|19:123,1,106.25,10|0,0:0|0:0,0:0:0:0:
27,125,217744,1,0,0:0:0:0:
76,343,217918,2,0,L|83:279,1,53.125,2|0,1:3|0:0,0:0:0:0:
172,257,218267,2,0,L|165:193,1,53.125,2|0,1:0|0:0,0:0:0:0:
274,351,218616,2,0,P|343:336|352:288,1,106.25,8|2,0:0|1:0,0:0:0:0:
512,13,219313,38,0,B|502:67|502:67|508:134,1,106.25,6|0,1:0|0:0,0:0:0:0:
0,201,220011,2,0,B|10:255|10:255|4:322,1,106.25,10|0,0:0|0:0,0:0:0:0:
106,358,220534,1,0,3:0:0:0:
106,358,220621,1,0,3:0:0:0:
106,358,220709,2,0,P|150:335|172:343,1,53.125,2|0,1:3|0:0,0:0:0:0:
359,379,221057,2,0,B|383:377|383:377|388:380|388:380|422:374,1,53.125,2|0,1:0|0:0,0:0:0:0:
493,54,221406,2,0,B|448:38|421:81|388:47,1,106.25,8|2,0:0|0:0,0:0:0:0:
320,7,221930,1,0,3:0:0:0:
320,7,222017,1,0,3:0:0:0:
320,7,222104,38,0,P|296:48|276:112,1,106.25,6|0,1:0|0:0,0:0:0:0:
283,119,222627,1,0,0:0:0:0:
347,290,222802,2,0,P|324:303|298:302,1,53.125,10|0,0:0|0:0,0:0:0:0:
479,230,223151,2,0,P|454:219|428:223,1,53.125,2|0,0:0|0:0,0:0:0:0:
212,354,223499,2,0,P|168:325|175:263,1,106.25,2|2,1:3|1:0,0:0:0:0:
404,0,224197,2,0,P|454:8|475:55,1,106.25,8|2,0:0|0:0,0:0:0:0:
363,101,224720,1,0,3:0:0:0:
363,101,224807,1,0,3:0:0:0:
363,101,224895,38,0,P|289:105|220:37,1,159.375,6|0,1:0|0:0,0:0:0:0:
100,62,225592,2,0,P|136:70|174:139,1,106.25,10|0,0:0|0:0,0:0:0:0:
172,145,226115,1,0,0:0:0:0:
154,305,226290,2,0,B|179:309|179:309|244:301,1,53.125,2|0,1:3|0:0,0:0:0:0:
0,254,226639,2,0,B|34:242|34:242|51:242,1,53.125,2|0,1:3|0:0,0:0:0:0:
58,246,226900,1,8,0:0:0:0:
65,251,226988,1,8,0:0:0:0:
133,379,227162,1,0,3:0:0:0:
249,237,227336,1,0,3:0:0:0:
496,32,227685,38,0,B|442:25|442:25|373:22,1,106.25,6|0,1:0|0:0,0:0:0:0:
208,367,228383,2,0,B|247:363|247:363|251:369|251:369|317:360,1,106.25,10|0,0:0|0:0,0:0:0:0:
48,18,229081,1,6,1:0:0:0:
53,30,229429,37,2,1:0:0:0:
41,102,229604,1,0,1:0:0:0:
74,260,229778,37,8,0:0:0:0:
82,179,229953,1,0,3:0:0:0:
21,335,230127,37,0,3:0:0:0:
504,287,230476,22,0,P|451:235|450:163,1,106.25,6|0,1:0|0:0,0:0:0:0:
450,190,230999,1,0,0:0:0:0:
297,373,231174,2,0,P|350:321|351:249,1,106.25,10|0,0:0|0:0,0:0:0:0:
351,276,231697,1,0,0:0:0:0:
208,126,231871,2,0,P|232:116|258:112,1,53.125,2|0,1:3|0:0,0:0:0:0:
93,181,232220,2,0,P|117:190|143:194,1,53.125,2|0,1:0|0:0,0:0:0:0:
386,51,232569,2,0,P|444:83|404:126,1,106.25,8|2,0:0|0:0,0:0:0:0:
266,16,233092,1,0,3:0:0:0:
266,16,233180,1,0,3:0:0:0:
266,16,233267,38,0,P|214:25|176:61,1,106.25,2|0,1:3|0:0,0:0:0:0:
174,81,233790,1,0,0:0:0:0:
276,344,233965,2,0,B|278:301|278:301|275:293|275:293|278:226,1,106.25,10|0,0:0|0:0,0:0:0:0:
286,223,234488,1,0,0:0:0:0:
102,112,234662,38,0,P|76:118|57:136,1,53.125,2|0,1:3|0:0,0:0:0:0:
223,180,235011,2,0,P|204:161|179:153,1,53.125,2|0,1:0|0:0,0:0:0:0:
17,264,235360,2,0,B|27:315|27:315|22:324|22:324|19:375,1,106.25,8|2,0:0|0:0,0:0:0:0:
481,9,236058,38,0,B|477:49|477:49|484:60|484:60|487:121,1,106.25,6|0,1:0|0:0,0:0:0:0:
128,360,236755,2,0,B|151:347|151:347|192:344,1,53.125,10|0,0:0|0:0,0:0:0:0:
5,298,237104,2,0,B|28:311|28:311|69:314,1,53.125,2|0,0:0|0:0,0:0:0:0:
268,273,237453,38,0,P|304:266|333:282,1,53.125,2|0,1:3|0:0,0:0:0:0:
454,353,237802,2,0,P|490:360|519:344,1,53.125,2|0,1:0|0:0,0:0:0:0:
441,27,238151,2,0,P|389:19|346:48,1,106.25,8|2,0:0|0:0,0:0:0:0:
166,43,238674,1,0,3:0:0:0:
166,43,238761,1,0,3:0:0:0:
166,43,238848,2,0,P|214:61|237:108,1,106.25,2|0,1:0|0:0,0:0:0:0:
234,125,239372,1,0,0:0:0:0:
26,136,239546,2,0,P|65:102|117:106,1,106.25,10|0,0:0|0:0,0:0:0:0:
147,267,240069,1,0,3:0:0:0:
147,267,240156,1,0,3:0:0:0:
147,267,240244,38,0,P|116:286|84:286,1,53.125,6|0,1:0|0:0,0:0:0:0:
280,345,240592,2,0,P|249:326|217:326,1,53.125,2|0,1:0|0:0,0:0:0:0:
385,282,240941,2,0,B|388:238|388:238|379:217|379:217|371:153,1,106.25,8|2,0:0|1:0,0:0:0:0:
0,0,241639,38,0,B|-3:32|-8:51|-8:51|1:80|1:80|1:112,1,106.25,6|0,1:0|0:0,0:0:0:0:
470,274,242337,1,10,0:0:0:0:
461,263,242685,2,0,P|440:242|346:244,1,106.25,2|6,0:0|1:0,0:0:0:0:
95,368,243383,1,2,1:0:0:0:
186,48,243732,1,8,0:0:0:0:
192,64,244081,1,2,0:0:0:0:
381,371,244430,38,0,B|382:317|382:317|389:313|389:313|392:250,1,106.25,2|0,1:0|0:0,0:0:0:0:
98,13,245127,2,0,B|99:66|99:66|106:71|106:71|109:134,1,106.25,10|0,0:0|0:0,0:0:0:0:
251,359,245825,37,6,1:0:0:0:
346,29,246174,1,2,1:0:0:0:
220,67,246523,1,10,0:0:0:0:
461,191,246872,1,2,1:0:0:0:
33,55,247220,37,14,0:0:0:0:
69,384,247569,2,0,B|72:349|72:349|70:340|70:340|86:279,1,106.25,2|0,1:0|0:0,0:0:0:0:
20,231,248092,2,0,B|19:196|19:196|10:173,2,53.125,8|0|0,1:3|0:0|0:0,0:0:0:0:
512,83,248616,37,14,3:0:0:0:
497,74,249139,37,0,3:0:0:0:
320,173,249313,1,0,3:0:0:0:
303,156,249662,38,0,B|302:137|294:119|294:119|300:89|300:89|306:68|303:39,1,106.25,0|4,1:0|1:0,0:0:0:0:
11,376,250709,38,0,B|51:385|79:352|79:352|114:343|144:362,1,127.5,10|0,0:0|0:0,0:0:0:0:
203,371,251406,2,0,B|206:340|206:340|202:330|204:303,1,42.5,2|0,1:0|0:0,0:0:0:0:
159,266,251755,2,0,B|156:235|156:235|159:225|158:198,1,42.5,2|0,1:0|0:0,0:0:0:0:
211,103,252104,2,0,P|225:182|157:224,1,170,10|4,0:0|1:0,0:0:0:0:
472,270,253499,38,0,B|487:296|487:318|487:318|463:339|460:374|460:374|471:386|482:387,1,127.5,10|0,0:0|0:0,0:0:0:0:
405,253,254197,2,0,B|403:232|406:223|406:223|415:205,1,42.5,2|0,1:0|0:0,0:0:0:0:
429,143,254546,2,0,B|447:130|456:128|456:128|476:127,1,42.5,2|0,1:0|0:0,0:0:0:0:
344,112,254895,2,0,P|357:158|291:138,1,127.5,10|0,0:0|0:0,0:0:0:0:
349,1,255592,38,0,L|353:48,1,42.5,2|0,1:0|0:0,0:0:0:0:
392,104,255941,2,0,L|396:151,1,42.5,2|0,0:0|0:0,0:0:0:0:
384,342,256290,2,0,L|388:389,1,42.5,10|0,0:0|0:0,0:0:0:0:
332,240,256639,2,0,L|336:287,1,42.5,2|0,0:0|0:0,0:0:0:0:
109,17,256988,22,0,L|104:74,1,42.5,2|0,1:0|0:0,0:0:0:0:
77,342,257337,2,0,L|72:399,1,42.5,2|0,0:0|0:0,0:0:0:0:
63,115,257685,2,0,L|58:172,1,42.5,10|0,0:0|0:0,0:0:0:0:
128,244,258034,2,0,L|123:301,1,42.5,2|0,0:0|0:0,0:0:0:0:
256,188,258383,37,2,1:0:0:0:
311,307,258732,2,0,P|297:304|282:302,2,28.3333333333333,2|2|2,0:0|0:0|0:0,0:0:0:0:
347,279,259081,2,0,B|376:269|416:326|478:230,1,127.500004863739,10|2,0:0|1:0,0:0:0:0:
272,59,259953,37,8,0:0:0:0:
206,116,260128,1,2,0:0:0:0:
296,236,260287,1,2,1:0:0:0:
152,375,260447,22,0,P|144:358|145:336,2,28.3333333333333,10|2|2,0:0|0:0|0:0,0:0:0:0:
59,294,260795,1,10,0:0:0:0:
71,255,260908,1,2,0:0:0:0:
58,216,261022,1,2,0:0:0:0:
74,180,261135,38,0,P|119:132|111:250,1,297.5,2|0,1:0|0:0,0:0:0:0:
4,147,262569,38,0,P|31:89|88:59,1,127.5,6|0,1:0|0:0,0:0:0:0:
263,151,263266,2,0,P|235:94|179:65,1,127.5,10|0,0:0|0:0,0:0:0:0:
134,194,263964,22,0,L|138:245,1,42.5,2|0,1:0|0:0,0:0:0:0:
148,307,264313,2,0,L|152:358,1,42.5,2|0,0:0|0:0,0:0:0:0:
257,267,264662,2,0,L|252:318,1,42.5,10|0,0:0|0:0,0:0:0:0:
267,155,265011,2,0,L|262:206,1,42.5,2|0,0:0|0:0,0:0:0:0:
419,309,265360,38,0,P|392:258|312:250,1,127.5,2|0,1:0|0:0,0:0:0:0:
228,178,266058,1,8,0:0:0:0:
267,155,266174,1,2,0:0:0:0:
307,173,266290,1,2,0:0:0:0:
346,159,266406,1,2,0:0:0:0:
432,208,266581,37,0,3:0:0:0:
432,208,266668,1,0,3:0:0:0:
432,208,266755,1,8,1:0:0:0:
56,80,267104,1,8,0:0:0:0:
46,104,267626,21,0,3:0:0:0:
291,57,267801,1,8,3:3:0:0:
276,362,268150,37,4,1:0:0:0:
305,348,269894,37,2,0:0:0:0:
315,331,270068,1,0,0:0:0:0:
317,307,270243,1,2,0:0:0:0:
239,269,270591,1,2,0:0:0:0:
232,296,270766,1,2,0:0:0:0:
299,228,271115,1,2,0:0:0:0:
291,202,271289,1,2,0:0:0:0:
216,153,271987,1,2,0:0:0:0:
221,128,272161,1,0,0:0:0:0:
239,109,272336,5,2,0:0:0:0:
249,34,272684,1,2,0:0:0:0:
312,80,273033,1,2,0:0:0:0:
337,89,273208,1,0,0:0:0:0:
370,69,273382,1,2,0:0:0:0:
413,130,274080,1,2,0:0:0:0:
466,67,274429,1,2,0:0:0:0:
470,80,274603,1,2,0:0:0:0:
475,94,274777,1,2,0:0:0:0:
211,24,275475,37,2,0:0:0:0:
188,99,275824,1,2,0:0:0:0:
118,50,276173,1,2,0:0:0:0:
124,32,276347,1,2,0:0:0:0:
62,107,276696,1,2,0:0:0:0:
66,127,276871,1,2,0:0:0:0:
130,184,277568,1,2,0:0:0:0:
128,199,277743,1,0,0:0:0:0:
126,222,277917,1,2,0:0:0:0:
189,254,278266,5,2,0:0:0:0:
65,266,278615,1,2,0:0:0:0:
178,331,278964,1,2,0:0:0:0:
87,341,279661,1,2,0:0:0:0:
255,260,280010,37,2,0:0:0:0:
275,330,280243,1,2,0:0:0:0:
512,383,281057,5,2,0:0:0:0:
467,313,281405,1,2,0:0:0:0:
389,361,281754,1,2,0:0:0:0:
391,340,281929,1,2,0:0:0:0:
319,264,282278,1,2,0:0:0:0:
320,288,282452,1,2,0:0:0:0:
265,373,283150,1,2,0:0:0:0:
251,374,283324,1,0,0:0:0:0:
223,350,283498,37,2,0:0:0:0:
151,371,283847,1,2,0:0:0:0:
128,288,284196,1,2,0:0:0:0:
210,269,284545,1,2,0:0:0:0:
52,269,285243,5,2,0:0:0:0:
256,101,285591,37,2,0:0:0:0:
237,169,285824,1,2,0:0:0:0:
233,185,286638,5,2,0:0:0:0:
271,266,286987,1,2,0:0:0:0:
376,271,287336,37,2,0:0:0:0:
358,345,287569,1,2,0:0:0:0:
321,203,288033,5,2,0:0:0:0:
221,283,288382,1,2,0:0:0:0:
218,303,288557,1,0,0:0:0:0:
214,327,288731,1,2,0:0:0:0:
76,123,290475,22,0,P|187:97|291:125,1,191.250007295609,14|0,0:0|0:0,0:0:0:0:
512,349,291173,2,0,P|401:375|297:347,1,191.250007295609,10|0,0:0|0:0,0:0:0:0:
318,350,291784,1,0,0:0:0:0:
311,340,291871,38,0,P|304:312|312:278,1,63.7500024318696,2|0,1:0|0:0,0:0:0:0:
306,172,292220,2,0,P|326:151|360:141,1,63.7500024318696,0|0,1:0|0:0,0:0:0:0:
200,342,292569,2,0,P|113:371|26:326,1,191.250007295609,10|0,0:0|0:0,0:0:0:0:
236,32,293266,6,0,B|327:25|327:25|318:37|318:37|426:26,1,191.250007295609,2|0,1:0|0:0,0:0:0:0:
231,46,293964,1,10,0:0:0:0:
93,230,294313,1,0,0:0:0:0:
100,255,294487,1,0,0:0:0:0:
134,82,294662,2,0,P|104:70|72:73,1,63.7500024318696,2|0,1:0|0:0,0:0:0:0:
269,175,295010,2,0,P|264:143|246:117,1,63.7500024318696,0|0,1:0|0:0,0:0:0:0:
13,207,295359,2,0,B|9:254|9:254|3:266|3:266|11:338,1,127.500004863739,10|0,0:0|0:0,0:0:0:0:
330,327,295882,1,0,3:0:0:0:
330,327,295970,1,0,3:0:0:0:
330,327,296057,38,0,B|332:254|332:254|330:237|330:237|349:132,1,191.250007295609,6|0,1:0|0:0,0:0:0:0:
345,341,296755,1,10,0:0:0:0:
285,118,297103,1,0,0:0:0:0:
318,126,297278,1,0,0:0:0:0:
181,33,297452,2,0,P|155:52|141:81,1,63.7500024318696,2|0,1:0|0:0,0:0:0:0:
67,161,297801,2,0,P|70:192|88:218,1,63.7500024318696,0|0,1:0|0:0,0:0:0:0:
439,112,298150,2,0,B|435:175|435:175|444:177|444:177|435:261,1,127.500004863739,10|0,0:0|0:0,0:0:0:0:
361,345,298673,1,0,3:0:0:0:
361,345,298760,1,0,3:0:0:0:
361,345,298848,6,0,P|355:291|334:270,1,63.7500024318696,2|0,1:0|0:0,0:0:0:0:
258,124,299196,2,0,P|264:70|285:49,1,63.7500024318696
461,244,299545,2,0,P|412:283|349:284,1,127.500004863739,10|0,0:0|0:0,0:0:0:0:
240,209,300069,1,0,3:0:0:0:
240,209,300156,1,0,3:0:0:0:
240,209,300243,2,0,P|175:194|160:201,1,63.7500024318696,2|0,1:0|0:0,0:0:0:0:
18,143,300592,38,0,P|58:131|124:93,1,95.6250036478044,0|0,1:0|0:0,0:0:0:0:
62,49,300941,2,0,P|102:61|168:99,1,95.6250036478044,10|0,0:0|0:0,0:0:0:0:
111,142,301289,2,0,P|167:112|221:122,1,95.6250036478044,0|0,1:0|0:0,0:0:0:0:
348,285,301638,6,0,P|421:273|423:172,1,191.250007295609,6|0,1:0|0:0,0:0:0:0:
324,306,302336,2,0,P|305:332|277:348,1,63.7500024318696,10|0,0:0|0:0,0:0:0:0:
71,130,302685,2,0,P|89:104|117:88,1,63.7500024318696
384,270,303034,38,0,P|439:280|441:211,1,127.500004863739,2|0,1:0|1:0,0:0:0:0:
10,0,303731,2,0,B|-2:48|-2:48|8:53|8:53|3:120,1,127.500004863739,10|0,0:0|0:0,0:0:0:0:
319,345,304429,6,0,P|290:331|258:329,1,63.7500024318696,2|0,1:0|0:0,0:0:0:0:
473,339,304778,2,0,P|444:352|412:354,1,63.7500024318696
198,260,305127,2,0,P|136:257|91:300,1,127.500004863739,10|0,0:0|0:0,0:0:0:0:
284,316,305650,1,0,3:0:0:0:
284,316,305737,1,0,3:0:0:0:
284,316,305824,38,0,P|297:287|298:255,1,63.7500024318696,2|0,1:0|0:0,0:0:0:0:
252,142,306173,2,0,P|238:113|237:81,1,63.7500024318696,0|0,1:0|0:0,0:0:0:0:
454,121,306522,2,0,P|411:174|342:170,1,127.500004863739,10|0,0:0|0:0,0:0:0:0:
128,0,307045,1,0,3:0:0:0:
128,0,307132,1,0,3:0:0:0:
128,0,307220,6,0,P|95:45|98:130,1,127.500004863739,6|0,1:0|0:0,0:0:0:0:
468,376,307917,2,0,B|469:309|469:309|460:234,1,127.500004863739,10|0,0:0|0:0,0:0:0:0:
326,191,308441,1,0,3:0:0:0:
326,191,308528,1,0,3:0:0:0:
326,191,308615,2,0,P|331:233|313:268,1,63.7500024318696,2|0,1:0|0:0,0:0:0:0:
337,356,308964,2,0,P|303:381|263:383,1,63.7500024318696,0|0,1:0|0:0,0:0:0:0:
113,274,309313,2,0,P|146:248|186:246,1,63.7500024318696,10|0,0:0|0:0,0:0:0:0:
212,188,309662,2,0,P|250:204|272:237,1,63.7500024318696,0|0,1:0|0:0,0:0:0:0:
419,376,310010,38,0,B|427:317|427:317|424:304|424:304|439:231,1,127.5,2|10,1:3|0:0,0:0:0:0:
316,264,311406,2,0,L|328:340,2,63.7500024318696,2|2|8,1:0|1:0|0:0,0:0:0:0:
38,206,312801,38,0,B|91:195|91:195|104:197|104:197|163:189,1,127.5,0|10,1:0|0:0,0:0:0:0:
145,329,314196,2,0,P|116:315|93:268,1,63.7500024318696,2|2,1:0|1:0,0:0:0:0:
184,238,314895,1,8,0:0:0:0:
264,113,315600,37,0,1:0:0:0:
271,130,316314,21,10,0:0:0:0:
378,63,317036,37,2,1:0:0:0:
377,87,317397,1,2,1:0:0:0:
376,107,317757,1,8,0:0:0:0:
275,307,318502,37,0,1:0:0:0:
301,295,318901,1,0,1:0:0:0:
328,285,319298,1,2,1:3:0:0:
395,296,319739,1,0,1:0:0:0:
415,201,320147,21,6,1:0:0:0:
308,203,320657,1,0,1:0:0:0:
358,124,321152,1,8,0:3:0:0:
307,71,321828,37,2,1:0:0:0:
446,375,322913,38,0,B|476:332|450:289|450:289|467:278|467:278|448:237|483:189|483:189|549:114|487:18|487:18|474:79|414:114,1,509.999984436036,2|2,1:0|0:0,0:0:0:0:
