osu file format v14

[General]
AudioFilename: audio.mp3
AudioLeadIn: 0
PreviewTime: 36972
Countdown: 1
SampleSet: None
StackLeniency: 0.7
Mode: 0
LetterboxInBreaks: 0
WidescreenStoryboard: 1

[Editor]
Bookmarks: 159716
DistanceSpacing: 0.9
BeatDivisor: 8
GridSize: 32
TimelineZoom: 1.2

[Metadata]
Title:Replica no yume
TitleUnicode:レプリカの夢
Artist:Yuko Hoshina
ArtistUnicode:星名優子
Creator:Parachute
Version:Rin Desu's Normal
Source:
Tags:
BeatmapID:1613155
BeatmapSetID:739637

[Difficulty]
HPDrainRate:3.5
CircleSize:4
OverallDifficulty:3.5
ApproachRate:5
SliderMultiplier:1.2
SliderTickRate:1

[Events]
//Background and Video events
0,0,"21345.jpg",0,0
//Break Periods
2,68087,77794
2,122233,131209
//Storyboard Layer 0 (Background)
//Storyboard Layer 1 (Fail)
//Storyboard Layer 2 (Pass)
//Storyboard Layer 3 (Foreground)
//Storyboard Sound Samples

[TimingPoints]
570,365.853658536585,4,2,0,88,1,0
157887,365.853658536585,4,2,0,100,1,0

[HitObjects]
54,301,570,5,0,0:0:0:0:
54,301,752,6,0,P|110:321|172:309,1,120
201,267,1301,5,0,0:0:0:0:
120,193,1667,5,0,0:0:0:0:
222,160,2033,5,0,0:0:0:0:
222,160,2216,6,0,B|278:187|278:187|310:247,1,120
304,292,2765,5,0,0:0:0:0:
386,361,3130,5,0,0:0:0:0:
468,292,3496,5,0,0:0:0:0:
434,189,3862,6,0,P|448:126|426:71,2,120
338,137,4960,6,0,P|276:160|251:213,1,120
157,258,5691,6,0,P|144:228|148:182,2,60
253,307,6423,5,0,0:0:0:0:
253,307,6606,6,0,P|212:351|142:365,1,120
103,350,7155,5,0,0:0:0:0:
157,258,7521,5,0,0:0:0:0:
103,166,7887,5,0,0:0:0:0:
103,166,8069,6,0,B|59:122|59:122|70:48,1,120
81,12,8618,5,0,0:0:0:0:
182,48,8984,5,0,0:0:0:0:
283,84,9350,5,0,0:0:0:0:
326,182,9716,6,0,P|370:144|386:62,2,120
217,182,10813,6,0,P|157:271|253:319,1,240
293,282,11728,5,0,0:0:0:0:
293,282,11911,5,0,0:0:0:0:
421,300,13740,5,0,0:0:0:0:
150,301,14655,5,0,0:0:0:0:
161,248,14838,6,0,L|144:191,1,60
109,150,15204,5,0,0:0:0:0:
267,173,15752,5,0,0:0:0:0:
333,20,16118,5,0,0:0:0:0:
322,73,16301,6,0,L|339:130,1,60
374,171,16667,5,0,0:0:0:0:
136,42,17582,5,0,0:0:0:0:
125,95,17765,6,0,L|142:152,1,60
177,193,18131,5,0,0:0:0:0:
161,299,18496,5,0,0:0:0:0:
235,376,18862,5,0,0:0:0:0:
342,370,19228,5,0,0:0:0:0:
407,284,19594,6,0,P|426:198|407:156,1,120
383,127,20143,6,0,L|323:132,1,60
265,223,20691,6,0,L|205:217,1,60
151,213,21057,5,0,0:0:0:0:
76,286,21423,5,0,0:0:0:0:
52,239,21606,6,0,P|53:181|91:129,1,120
120,88,22155,6,0,L|179:85,1,60
232,101,22521,6,0,L|302:104,1,60
343,85,22887,5,0,0:0:0:0:
433,27,23252,5,0,0:0:0:0:
426,134,23618,5,0,0:0:0:0:
480,227,23984,5,0,0:0:0:0:
460,333,24350,5,0,0:0:0:0:
411,310,24533,6,0,B|328:307|328:307|270:334,1,120
251,356,25082,6,0,L|191:357,1,60
149,323,25448,5,0,0:0:0:0:
155,53,26362,5,0,0:0:0:0:
180,100,26545,6,0,L|170:172,1,60
200,205,26911,5,0,0:0:0:0:
347,272,27460,5,0,0:0:0:0:
328,165,27826,5,0,0:0:0:0:
368,129,28009,6,0,L|426:116,1,60
479,106,28374,5,0,0:0:0:0:
217,39,29289,5,0,0:0:0:0:
164,24,29472,6,0,L|106:37,1,60
91,89,29838,5,0,0:0:0:0:
129,189,30204,5,0,0:0:0:0:
97,292,30569,5,0,0:0:0:0:
202,269,30935,5,0,0:0:0:0:
301,312,31301,6,0,P|305:246|281:194,1,120
249,155,31850,6,0,L|327:142,1,60
391,75,32399,6,0,L|331:65,1,60
278,55,32765,6,0,L|236:6,2,60
225,68,33313,6,0,P|160:132|188:222,1,180
229,227,34045,5,0,0:0:0:0:
273,257,34228,6,0,L|354:257,1,60
374,222,34594,5,0,0:0:0:0:
462,283,34960,5,0,0:0:0:0:
374,346,35326,5,0,0:0:0:0:
266,345,35691,6,0,B|147:346|147:346|27:372,1,240
66,272,36789,5,0,0:0:0:0:
91,167,37155,6,0,L|36:45,2,120
198,161,38252,5,0,0:0:0:0:
234,59,38618,6,0,L|353:45,2,120
294,148,39716,5,0,0:0:0:0:
396,183,40082,6,0,P|419:238|403:306,2,120
312,251,41179,5,0,0:0:0:0:
208,218,41545,6,0,P|205:277|243:335,2,120
294,148,42643,5,0,0:0:0:0:
193,107,43009,6,0,L|74:132,2,120
277,39,44106,5,0,0:0:0:0:
294,148,44472,6,0,L|411:172,2,120
249,246,45569,5,0,0:0:0:0:
355,263,45935,6,0,P|332:317|284:351,2,120
249,246,47032,5,0,0:0:0:0:
141,245,47398,6,0,P|156:188|200:149,2,120
197,338,48496,5,0,0:0:0:0:
88,340,48862,5,0,0:0:0:0:
88,340,50326,5,0,0:0:0:0:
88,340,51789,5,0,0:0:0:0:
256,192,52155,12,0,53984,0:0:0:0:
385,134,54716,5,0,0:0:0:0:
286,177,55082,5,0,0:0:0:0:
299,284,55448,5,0,0:0:0:0:
198,246,55813,6,0,L|139:257,1,60
84,255,56179,6,0,L|83:314,2,60
112,208,56728,5,0,0:0:0:0:
86,160,56911,6,0,P|76:84|126:52,1,120
207,86,57643,5,0,0:0:0:0:
309,51,58009,5,0,0:0:0:0:
291,157,58374,5,0,0:0:0:0:
396,134,58740,6,0,L|391:196,1,60
388,248,59106,6,0,L|452:234,2,60
340,274,59655,5,0,0:0:0:0:
290,251,59838,6,0,P|228:257|185:294,1,120
273,356,60569,5,0,0:0:0:0:
185,293,60935,5,0,0:0:0:0:
97,356,61301,5,0,0:0:0:0:
91,248,61667,6,0,L|66:176,1,60
32,153,62033,6,0,L|51:96,1,60
101,75,62399,6,0,L|167:93,1,60
196,129,62765,6,0,P|203:183|263:210,1,120
349,154,63496,5,0,0:0:0:0:
452,122,63862,5,0,0:0:0:0:
484,225,64228,5,0,0:0:0:0:
381,257,64594,5,0,0:0:0:0:
338,290,64777,5,0,0:0:0:0:
289,266,64960,6,0,L|152:273,1,120
61,282,65691,5,0,0:0:0:0:
109,185,66057,5,0,0:0:0:0:
61,88,66423,5,0,0:0:0:0:
256,192,66789,12,0,67887,0:0:0:0:
358,49,79594,5,0,0:0:0:0:
136,201,80509,5,0,0:0:0:0:
167,245,80691,6,0,L|226:253,1,60
280,261,81057,5,0,0:0:0:0:
439,287,81606,5,0,0:0:0:0:
400,186,81972,5,0,0:0:0:0:
432,142,82155,6,0,L|441:76,1,60
445,28,82521,5,0,0:0:0:0:
232,194,83435,5,0,0:0:0:0:
184,219,83618,6,0,L|118:225,1,60
79,194,83984,5,0,0:0:0:0:
99,88,84350,5,0,0:0:0:0:
204,109,84716,5,0,0:0:0:0:
224,3,85082,5,0,0:0:0:0:
329,24,85448,6,0,L|407:25,1,60
438,2,85813,5,0,0:0:0:0:
466,48,85996,6,0,P|475:76|475:106,1,60
377,151,86545,5,0,0:0:0:0:
338,188,86728,6,0,P|328:216|328:246,1,60
418,307,87277,5,0,0:0:0:0:
380,345,87460,6,0,L|320:348,1,60
238,277,88009,6,0,L|178:273,1,60
138,310,88374,6,0,L|78:313,1,60
44,270,88740,5,0,0:0:0:0:
108,183,89106,5,0,0:0:0:0:
216,183,89472,5,0,0:0:0:0:
280,270,89838,5,0,0:0:0:0:
374,217,90204,6,0,L|433:220,2,60
416,117,90935,5,0,0:0:0:0:
344,36,91301,6,0,B|260:45|260:45|213:71,2,120
289,129,92399,5,0,0:0:0:0:
235,222,92765,6,0,B|319:213|319:213|350:195,2,120
164,141,93862,5,0,0:0:0:0:
133,244,94228,6,0,P|151:304|188:360,2,120
236,223,95326,5,0,0:0:0:0:
164,142,95691,6,0,B|95:122|41:186,2,120
133,244,96789,5,0,0:0:0:0:
236,223,97155,6,0,L|334:302,2,120
282,125,98252,5,0,0:0:0:0:
212,42,98618,6,0,L|94:63,2,120
282,125,99716,5,0,0:0:0:0:
368,59,100082,6,0,P|390:123|375:177,2,120
282,125,101179,5,0,0:0:0:0:
175,107,101545,6,0,P|179:166|215:212,2,120
243,22,102643,5,0,0:0:0:0:
351,24,103009,5,0,0:0:0:0:
351,24,104472,5,0,0:0:0:0:
256,192,105935,12,0,108130,0:0:0:0:
245,266,108862,5,0,0:0:0:0:
320,188,109228,5,0,0:0:0:0:
305,80,109594,5,0,0:0:0:0:
206,123,109960,6,0,L|137:132,1,60
99,103,110326,6,0,P|75:56|80:22,2,60
110,155,110874,5,0,0:0:0:0:
90,205,111057,6,0,P|57:266|87:329,1,120
178,299,111789,5,0,0:0:0:0:
235,382,112155,5,0,0:0:0:0:
319,314,112521,5,0,0:0:0:0:
422,345,112887,6,0,L|499:337,1,60
477,284,113252,5,0,0:0:0:0:
453,235,113435,6,0,P|456:187|463:165,2,60
407,205,113984,6,0,B|349:181|275:211,1,120
222,120,114716,6,0,L|203:200,1,60
158,201,115082,6,0,L|171:259,1,60
210,297,115448,6,0,B|188:317|188:317|133:314,1,60
106,297,115813,5,0,0:0:0:0:
59,269,115996,5,0,0:0:0:0:
74,217,116179,6,0,L|60:158,1,60
48,105,116545,6,0,L|121:86,1,60
159,82,116911,6,0,P|207:114|289:98,1,120
351,42,117643,5,0,0:0:0:0:
362,149,118009,5,0,0:0:0:0:
431,229,118374,5,0,0:0:0:0:
347,297,118740,6,0,L|267:308,1,60
248,267,119106,6,0,P|188:244|107:259,1,120
55,323,119838,5,0,0:0:0:0:
26,218,120204,5,0,0:0:0:0:
55,113,120569,5,0,0:0:0:0:
256,192,120935,12,0,122033,0:0:0:0:
55,168,133009,6,0,P|37:110|60:44,1,120
146,107,133740,6,0,B|196:127|196:127|226:118|226:118|258:131|258:131|324:113|347:58|347:58|411:76|462:122|488:266|422:367,1,600
371,269,135935,6,0,B|377:221|377:221|360:157,2,90
346,317,136667,6,0,B|304:362|242:378|167:364|131:324|131:324|143:265|143:265|95:224|95:224|102:159|133:102|197:75|270:75,1,600
334,146,138862,6,0,P|293:172|251:181,2,90
359,98,139594,6,0,B|418:122|477:111|477:111|491:179|491:179|466:223|466:223|469:267|469:267|450:302|450:302|457:338|457:338|404:371|347:380|283:368|226:323,1,600
231,221,141789,6,0,P|206:148|164:114,1,120
82,64,142521,6,0,B|54:120|54:120|76:174|76:174|48:236|48:236|31:297|71:350|143:357,1,360
239,341,143984,6,0,P|265:282|266:225,1,120
365,182,144716,6,0,P|363:117|339:66,1,120
248,17,145448,6,0,B|213:13|213:13|176:28|176:28|131:27|131:27|73:55|73:55|8:59,1,240
22,166,146545,5,0,0:0:0:0:
22,166,146911,6,0,B|78:162|78:162|140:181,1,120
229,121,147643,5,0,0:0:0:0:
234,224,148009,5,0,0:0:0:0:
231,331,148374,6,0,B|168:312|168:312|135:266,1,120
234,224,149106,5,0,0:0:0:0:
326,280,149472,5,0,0:0:0:0:
326,280,149838,6,0,B|334:161|334:161|212:109,1,240
127,164,150935,5,0,0:0:0:0:
29,117,151301,6,0,B|17:178|17:178|39:231,1,120
96,323,152033,5,0,0:0:0:0:
180,256,152399,5,0,0:0:0:0:
180,256,152765,6,0,B|240:268|240:268|321:254,1,120
387,196,153496,5,0,0:0:0:0:
400,303,153862,5,0,0:0:0:0:
297,257,154228,6,0,P|331:102|491:166,1,360
485,258,155691,6,0,P|443:299|387:318,1,120
297,257,156423,5,0,0:0:0:0:
399,51,157887,2,0,P|484:194|375:347,1,360
281,343,159350,2,0,P|186:200|271:52,1,360
399,51,160813,2,0,B|498:205|498:205|379:352,1,360
283,309,162277,2,0,P|220:275|315:197,1,240
321,140,163191,6,0,L|329:80,2,60
286,97,163740,5,0,0:0:0:0:
211,175,164106,5,0,0:0:0:0:
127,107,164472,5,0,0:0:0:0:
40,172,164838,6,0,L|51:252,1,60
25,280,165204,5,0,0:0:0:0:
59,321,165387,5,0,0:0:0:0:
107,296,165569,6,0,P|137:290|191:300,1,60
209,324,165935,6,0,P|292:328|299:286,1,120
235,221,166667,5,0,0:0:0:0:
152,150,167033,5,0,0:0:0:0:
169,43,167399,5,0,0:0:0:0:
269,82,167765,6,0,L|329:85,1,60
382,90,168130,6,0,P|394:152|436:221,1,120
502,272,168862,5,0,0:0:0:0:
399,304,169228,5,0,0:0:0:0:
420,201,169594,5,0,0:0:0:0:
256,192,169960,12,0,171789,0:0:0:0:
414,82,172521,5,0,0:0:0:0:
414,82,172704,6,0,P|346:75|289:102,1,120
267,137,173252,5,0,0:0:0:0:
323,228,173618,5,0,0:0:0:0:
302,334,173984,5,0,0:0:0:0:
302,334,174167,6,0,B|245:309|245:309|218:245,1,120
204,204,174716,5,0,0:0:0:0:
156,300,175082,5,0,0:0:0:0:
50,321,175447,5,0,0:0:0:0:
19,217,175813,6,0,P|20:157|71:93,2,120
123,190,176911,6,0,P|184:221|248:207,1,120
229,106,177643,6,0,L|203:41,2,60
321,161,178374,5,0,0:0:0:0:
321,161,178557,6,0,P|373:170|435:222,1,120
436,262,179106,5,0,0:0:0:0:
330,285,179472,5,0,0:0:0:0:
224,262,179838,5,0,0:0:0:0:
224,262,180021,6,0,B|165:248|165:248|105:268,1,120
60,290,180569,5,0,0:0:0:0:
70,182,180935,5,0,0:0:0:0:
15,88,181301,6,0,P|73:72|129:90,1,120
196,172,182033,6,0,P|253:190|310:174,1,120
353,75,182765,6,0,B|444:113|432:236|364:269|364:269|321:287|321:287|289:273|289:273|253:288|253:288|197:268|197:268|118:298,1,480
