osu file format v14

[General]
AudioFilename: kaidenaura.mp3
AudioLeadIn: 2
PreviewTime: 61160
Countdown: 0
SampleSet: None
StackLeniency: 0.7
Mode: 3
LetterboxInBreaks: 0
SpecialStyle: 0
WidescreenStoryboard: 0

[Editor]
DistanceSpacing: 0.8
BeatDivisor: 4
GridSize: 8
TimelineZoom: 1.7

[Metadata]
Title:Kaiden Aura
TitleUnicode:Kaiden Aura
Artist:Yukitani
ArtistUnicode:Yukitani
Creator:booty
Version:Hard
Source:Stepmania
Tags:Stepmania
BeatmapID:1863363
BeatmapSetID:891401

[Difficulty]
HPDrainRate:5
CircleSize:4
OverallDifficulty:7
ApproachRate:10
SliderMultiplier:1.4
SliderTickRate:1

[Events]
//Background and Video events
0,0,"background.jpg",0,0
//Break Periods
//Storyboard Layer 0 (Background)
//Storyboard Layer 1 (Fail)
//Storyboard Layer 2 (Pass)
//Storyboard Layer 3 (Foreground)
//Storyboard Sound Samples

[TimingPoints]
1711,413.7931,4,1,0,15,1,0

[HitObjects]
64,192,1711,5,0,0:0:0:0:
320,192,1711,1,0,0:0:0:0:
448,192,1711,1,0,0:0:0:0:
320,192,1917,1,0,0:0:0:0:
448,192,1917,1,0,0:0:0:0:
64,192,2124,1,0,0:0:0:0:
192,192,2124,1,0,0:0:0:0:
448,192,2124,1,0,0:0:0:0:
320,192,2228,1,0,0:0:0:0:
192,192,2331,1,0,0:0:0:0:
448,192,2331,1,0,0:0:0:0:
320,192,2435,1,0,0:0:0:0:
64,192,2538,1,0,0:0:0:0:
192,192,2538,1,0,0:0:0:0:
448,192,2538,1,0,0:0:0:0:
64,192,2745,1,0,0:0:0:0:
320,192,2745,1,0,0:0:0:0:
64,192,2952,1,0,0:0:0:0:
192,192,2952,1,0,0:0:0:0:
448,192,2952,1,0,0:0:0:0:
320,192,3055,1,0,0:0:0:0:
64,192,3159,1,0,0:0:0:0:
192,192,3159,1,0,0:0:0:0:
320,192,3262,1,0,0:0:0:0:
64,192,3366,1,0,0:0:0:0:
192,192,3366,1,0,0:0:0:0:
448,192,3366,1,0,0:0:0:0:
192,192,3573,1,0,0:0:0:0:
320,192,3573,1,0,0:0:0:0:
64,192,3779,1,0,0:0:0:0:
192,192,3779,1,0,0:0:0:0:
448,192,3779,1,0,0:0:0:0:
320,192,3883,1,0,0:0:0:0:
192,192,3986,1,0,0:0:0:0:
448,192,3986,1,0,0:0:0:0:
320,192,4090,1,0,0:0:0:0:
64,192,4193,1,0,0:0:0:0:
192,192,4193,1,0,0:0:0:0:
448,192,4193,1,0,0:0:0:0:
192,192,4400,1,0,0:0:0:0:
320,192,4400,1,0,0:0:0:0:
64,192,4607,1,0,0:0:0:0:
192,192,4607,1,0,0:0:0:0:
448,192,4607,1,0,0:0:0:0:
320,192,4710,1,0,0:0:0:0:
64,192,4814,1,0,0:0:0:0:
320,192,4814,1,0,0:0:0:0:
320,192,4917,1,0,0:0:0:0:
64,192,5021,1,0,0:0:0:0:
192,192,5021,1,0,0:0:0:0:
448,192,5021,1,0,0:0:0:0:
320,192,5228,1,0,0:0:0:0:
448,192,5228,1,0,0:0:0:0:
64,192,5435,1,0,0:0:0:0:
192,192,5435,1,0,0:0:0:0:
448,192,5435,1,0,0:0:0:0:
320,192,5538,1,0,0:0:0:0:
192,192,5642,1,0,0:0:0:0:
448,192,5642,1,0,0:0:0:0:
320,192,5745,1,0,0:0:0:0:
64,192,5848,1,0,0:0:0:0:
192,192,5848,1,0,0:0:0:0:
448,192,5848,1,0,0:0:0:0:
64,192,6055,1,0,0:0:0:0:
320,192,6055,1,0,0:0:0:0:
64,192,6262,1,0,0:0:0:0:
192,192,6262,1,0,0:0:0:0:
448,192,6262,1,0,0:0:0:0:
320,192,6366,1,0,0:0:0:0:
64,192,6469,1,0,0:0:0:0:
192,192,6469,1,0,0:0:0:0:
320,192,6573,1,0,0:0:0:0:
64,192,6676,1,0,0:0:0:0:
192,192,6676,1,0,0:0:0:0:
448,192,6676,1,0,0:0:0:0:
192,192,6883,1,0,0:0:0:0:
320,192,6883,1,0,0:0:0:0:
64,192,7090,1,0,0:0:0:0:
192,192,7090,1,0,0:0:0:0:
448,192,7090,1,0,0:0:0:0:
320,192,7193,1,0,0:0:0:0:
192,192,7297,1,0,0:0:0:0:
448,192,7297,1,0,0:0:0:0:
320,192,7400,1,0,0:0:0:0:
64,192,7504,1,0,0:0:0:0:
192,192,7504,1,0,0:0:0:0:
448,192,7504,1,0,0:0:0:0:
192,192,7710,1,0,0:0:0:0:
320,192,7710,1,0,0:0:0:0:
64,192,7917,1,0,0:0:0:0:
192,192,7917,1,0,0:0:0:0:
448,192,7917,1,0,0:0:0:0:
320,192,8021,1,0,0:0:0:0:
448,192,8021,1,0,0:0:0:0:
64,192,8124,1,0,0:0:0:0:
192,192,8124,1,0,0:0:0:0:
448,192,8124,1,0,0:0:0:0:
192,192,8228,1,0,0:0:0:0:
320,192,8228,1,0,0:0:0:0:
64,192,8331,1,0,0:0:0:0:
320,192,8331,1,0,0:0:0:0:
448,192,8331,1,0,0:0:0:0:
64,192,8538,1,0,0:0:0:0:
192,192,8538,1,0,0:0:0:0:
448,192,8642,1,0,0:0:0:0:
64,192,8745,1,0,0:0:0:0:
192,192,8745,1,0,0:0:0:0:
320,192,8745,1,0,0:0:0:0:
192,192,8952,1,0,0:0:0:0:
320,192,8952,1,0,0:0:0:0:
448,192,8952,1,0,0:0:0:0:
64,192,9159,1,0,0:0:0:0:
320,192,9159,1,0,0:0:0:0:
448,192,9159,1,0,0:0:0:0:
64,192,9366,1,0,0:0:0:0:
192,192,9366,1,0,0:0:0:0:
320,192,9469,1,0,0:0:0:0:
64,192,9573,1,0,0:0:0:0:
192,192,9573,1,0,0:0:0:0:
448,192,9573,1,0,0:0:0:0:
64,192,9779,1,0,0:0:0:0:
192,192,9779,1,0,0:0:0:0:
320,192,9779,1,0,0:0:0:0:
64,192,9986,1,0,0:0:0:0:
320,192,9986,1,0,0:0:0:0:
448,192,9986,1,0,0:0:0:0:
64,192,10193,1,0,0:0:0:0:
192,192,10193,1,0,0:0:0:0:
448,192,10297,1,0,0:0:0:0:
64,192,10400,1,0,0:0:0:0:
192,192,10400,1,0,0:0:0:0:
320,192,10400,1,0,0:0:0:0:
192,192,10607,1,0,0:0:0:0:
320,192,10607,1,0,0:0:0:0:
448,192,10607,1,0,0:0:0:0:
64,192,10814,1,0,0:0:0:0:
320,192,10814,1,0,0:0:0:0:
448,192,10814,1,0,0:0:0:0:
64,192,11021,1,0,0:0:0:0:
192,192,11021,1,0,0:0:0:0:
320,192,11124,1,0,0:0:0:0:
64,192,11228,1,0,0:0:0:0:
192,192,11228,1,0,0:0:0:0:
448,192,11228,1,0,0:0:0:0:
64,192,11331,1,0,0:0:0:0:
320,192,11331,1,0,0:0:0:0:
192,192,11435,1,0,0:0:0:0:
320,192,11435,1,0,0:0:0:0:
320,192,11538,1,0,0:0:0:0:
448,192,11538,1,0,0:0:0:0:
64,192,11642,1,0,0:0:0:0:
192,192,11642,1,0,0:0:0:0:
320,192,11642,1,0,0:0:0:0:
320,192,11848,1,0,0:0:0:0:
448,192,11848,1,0,0:0:0:0:
64,192,11952,1,0,0:0:0:0:
192,192,12055,1,0,0:0:0:0:
320,192,12055,1,0,0:0:0:0:
448,192,12055,1,0,0:0:0:0:
64,192,12262,1,0,0:0:0:0:
192,192,12262,1,0,0:0:0:0:
320,192,12262,1,0,0:0:0:0:
64,192,12469,1,0,0:0:0:0:
192,192,12469,1,0,0:0:0:0:
448,192,12469,1,0,0:0:0:0:
320,192,12676,1,0,0:0:0:0:
448,192,12676,1,0,0:0:0:0:
192,192,12779,1,0,0:0:0:0:
64,192,12883,1,0,0:0:0:0:
320,192,12883,1,0,0:0:0:0:
448,192,12883,1,0,0:0:0:0:
192,192,13090,1,0,0:0:0:0:
320,192,13090,1,0,0:0:0:0:
448,192,13090,1,0,0:0:0:0:
64,192,13297,1,0,0:0:0:0:
192,192,13297,1,0,0:0:0:0:
448,192,13297,1,0,0:0:0:0:
320,192,13504,1,0,0:0:0:0:
448,192,13504,1,0,0:0:0:0:
64,192,13607,1,0,0:0:0:0:
192,192,13710,1,0,0:0:0:0:
320,192,13710,1,0,0:0:0:0:
448,192,13710,1,0,0:0:0:0:
64,192,13917,1,0,0:0:0:0:
192,192,13917,1,0,0:0:0:0:
320,192,13917,1,0,0:0:0:0:
64,192,14124,1,0,0:0:0:0:
192,192,14124,1,0,0:0:0:0:
448,192,14124,1,0,0:0:0:0:
192,192,14331,1,0,0:0:0:0:
448,192,14331,1,0,0:0:0:0:
320,192,14435,1,0,0:0:0:0:
64,192,14538,1,0,0:0:0:0:
192,192,14538,1,0,0:0:0:0:
448,192,14538,1,0,0:0:0:0:
192,192,14642,1,0,0:0:0:0:
320,192,14642,1,0,0:0:0:0:
64,192,14745,1,0,0:0:0:0:
320,192,14745,1,0,0:0:0:0:
192,192,14848,1,0,0:0:0:0:
448,192,14848,1,0,0:0:0:0:
64,192,14952,1,0,0:0:0:0:
320,192,14952,1,0,0:0:0:0:
448,192,14952,1,0,0:0:0:0:
64,192,15159,1,0,0:0:0:0:
192,192,15159,1,0,0:0:0:0:
448,192,15262,1,0,0:0:0:0:
64,192,15366,1,0,0:0:0:0:
192,192,15366,1,0,0:0:0:0:
320,192,15366,1,0,0:0:0:0:
192,192,15573,1,0,0:0:0:0:
320,192,15573,1,0,0:0:0:0:
448,192,15573,1,0,0:0:0:0:
64,192,15779,1,0,0:0:0:0:
320,192,15779,1,0,0:0:0:0:
448,192,15779,1,0,0:0:0:0:
64,192,15986,1,0,0:0:0:0:
192,192,15986,1,0,0:0:0:0:
320,192,16090,1,0,0:0:0:0:
64,192,16193,1,0,0:0:0:0:
192,192,16193,1,0,0:0:0:0:
448,192,16193,1,0,0:0:0:0:
64,192,16400,1,0,0:0:0:0:
192,192,16400,1,0,0:0:0:0:
320,192,16400,1,0,0:0:0:0:
64,192,16607,1,0,0:0:0:0:
320,192,16607,1,0,0:0:0:0:
448,192,16607,1,0,0:0:0:0:
64,192,16814,1,0,0:0:0:0:
192,192,16814,1,0,0:0:0:0:
448,192,16917,1,0,0:0:0:0:
64,192,17021,1,0,0:0:0:0:
192,192,17021,1,0,0:0:0:0:
320,192,17021,1,0,0:0:0:0:
192,192,17228,1,0,0:0:0:0:
320,192,17228,1,0,0:0:0:0:
448,192,17228,1,0,0:0:0:0:
64,192,17435,1,0,0:0:0:0:
320,192,17435,1,0,0:0:0:0:
448,192,17435,1,0,0:0:0:0:
64,192,17642,1,0,0:0:0:0:
192,192,17642,1,0,0:0:0:0:
320,192,17745,1,0,0:0:0:0:
64,192,17848,1,0,0:0:0:0:
192,192,17848,1,0,0:0:0:0:
448,192,17848,1,0,0:0:0:0:
320,192,17952,1,0,0:0:0:0:
448,192,17952,1,0,0:0:0:0:
64,192,18055,1,0,0:0:0:0:
320,192,18055,1,0,0:0:0:0:
192,192,18159,1,0,0:0:0:0:
320,192,18159,1,0,0:0:0:0:
64,192,18262,1,0,0:0:0:0:
192,192,18262,1,0,0:0:0:0:
448,192,18262,1,0,0:0:0:0:
320,192,18469,1,0,0:0:0:0:
448,192,18469,1,0,0:0:0:0:
64,192,18573,1,0,0:0:0:0:
192,192,18676,1,0,0:0:0:0:
320,192,18676,1,0,0:0:0:0:
448,192,18676,1,0,0:0:0:0:
64,192,18883,1,0,0:0:0:0:
192,192,18883,1,0,0:0:0:0:
320,192,18883,1,0,0:0:0:0:
64,192,19090,1,0,0:0:0:0:
192,192,19090,1,0,0:0:0:0:
448,192,19090,1,0,0:0:0:0:
320,192,19297,1,0,0:0:0:0:
448,192,19297,1,0,0:0:0:0:
192,192,19400,1,0,0:0:0:0:
64,192,19504,1,0,0:0:0:0:
320,192,19504,1,0,0:0:0:0:
448,192,19504,1,0,0:0:0:0:
192,192,19711,1,0,0:0:0:0:
320,192,19711,1,0,0:0:0:0:
448,192,19711,1,0,0:0:0:0:
64,192,19917,1,0,0:0:0:0:
192,192,19917,1,0,0:0:0:0:
448,192,19917,1,0,0:0:0:0:
320,192,20124,1,0,0:0:0:0:
448,192,20124,1,0,0:0:0:0:
64,192,20228,1,0,0:0:0:0:
192,192,20331,1,0,0:0:0:0:
320,192,20331,1,0,0:0:0:0:
448,192,20331,1,0,0:0:0:0:
64,192,20538,1,0,0:0:0:0:
192,192,20538,1,0,0:0:0:0:
320,192,20538,1,0,0:0:0:0:
64,192,20745,1,0,0:0:0:0:
192,192,20745,1,0,0:0:0:0:
448,192,20745,1,0,0:0:0:0:
192,192,20952,1,0,0:0:0:0:
448,192,20952,1,0,0:0:0:0:
320,192,21055,1,0,0:0:0:0:
64,192,21159,1,0,0:0:0:0:
192,192,21159,1,0,0:0:0:0:
448,192,21159,1,0,0:0:0:0:
192,192,21262,1,0,0:0:0:0:
320,192,21262,1,0,0:0:0:0:
320,192,21366,1,0,0:0:0:0:
448,192,21366,1,0,0:0:0:0:
64,192,21469,1,0,0:0:0:0:
192,192,21469,1,0,0:0:0:0:
64,192,21573,1,0,0:0:0:0:
320,192,21573,1,0,0:0:0:0:
448,192,21573,1,0,0:0:0:0:
64,192,21780,1,0,0:0:0:0:
192,192,21780,1,0,0:0:0:0:
448,192,21883,1,0,0:0:0:0:
64,192,21986,1,0,0:0:0:0:
192,192,21986,1,0,0:0:0:0:
320,192,21986,1,0,0:0:0:0:
192,192,22193,1,0,0:0:0:0:
320,192,22193,1,0,0:0:0:0:
448,192,22193,1,0,0:0:0:0:
64,192,22400,1,0,0:0:0:0:
320,192,22400,1,0,0:0:0:0:
448,192,22400,1,0,0:0:0:0:
64,192,22607,1,0,0:0:0:0:
192,192,22607,1,0,0:0:0:0:
320,192,22711,1,0,0:0:0:0:
64,192,22814,1,0,0:0:0:0:
192,192,22814,1,0,0:0:0:0:
448,192,22814,1,0,0:0:0:0:
64,192,23021,1,0,0:0:0:0:
192,192,23021,1,0,0:0:0:0:
320,192,23021,1,0,0:0:0:0:
64,192,23228,1,0,0:0:0:0:
320,192,23228,1,0,0:0:0:0:
448,192,23228,1,0,0:0:0:0:
64,192,23435,1,0,0:0:0:0:
192,192,23435,1,0,0:0:0:0:
448,192,23538,1,0,0:0:0:0:
64,192,23642,1,0,0:0:0:0:
192,192,23642,1,0,0:0:0:0:
320,192,23642,1,0,0:0:0:0:
192,192,23848,1,0,0:0:0:0:
320,192,23848,1,0,0:0:0:0:
448,192,23848,1,0,0:0:0:0:
64,192,24055,1,0,0:0:0:0:
320,192,24055,1,0,0:0:0:0:
448,192,24055,1,0,0:0:0:0:
64,192,24262,1,0,0:0:0:0:
192,192,24262,1,0,0:0:0:0:
320,192,24366,1,0,0:0:0:0:
64,192,24469,1,0,0:0:0:0:
192,192,24469,1,0,0:0:0:0:
448,192,24469,1,0,0:0:0:0:
192,192,24573,1,0,0:0:0:0:
448,192,24573,1,0,0:0:0:0:
64,192,24676,1,0,0:0:0:0:
320,192,24676,1,0,0:0:0:0:
64,192,24780,1,0,0:0:0:0:
320,192,24780,1,0,0:0:0:0:
192,192,24883,1,0,0:0:0:0:
320,192,24883,1,0,0:0:0:0:
448,192,24883,1,0,0:0:0:0:
320,192,25090,1,0,0:0:0:0:
448,192,25090,1,0,0:0:0:0:
64,192,25193,1,0,0:0:0:0:
192,192,25297,1,0,0:0:0:0:
320,192,25297,1,0,0:0:0:0:
448,192,25297,1,0,0:0:0:0:
64,192,25504,1,0,0:0:0:0:
192,192,25504,1,0,0:0:0:0:
320,192,25504,1,0,0:0:0:0:
64,192,25711,1,0,0:0:0:0:
192,192,25711,1,0,0:0:0:0:
448,192,25711,1,0,0:0:0:0:
320,192,25917,1,0,0:0:0:0:
448,192,25917,1,0,0:0:0:0:
192,192,26021,1,0,0:0:0:0:
64,192,26124,1,0,0:0:0:0:
320,192,26124,1,0,0:0:0:0:
448,192,26124,1,0,0:0:0:0:
192,192,26331,1,0,0:0:0:0:
320,192,26331,1,0,0:0:0:0:
448,192,26331,1,0,0:0:0:0:
64,192,26538,1,0,0:0:0:0:
192,192,26538,1,0,0:0:0:0:
448,192,26538,1,0,0:0:0:0:
64,192,26745,1,0,0:0:0:0:
192,192,26745,1,0,0:0:0:0:
448,192,26849,1,0,0:0:0:0:
64,192,26952,1,0,0:0:0:0:
192,192,26952,1,0,0:0:0:0:
320,192,26952,1,0,0:0:0:0:
448,192,27055,1,0,0:0:0:0:
64,192,27159,1,0,0:0:0:0:
192,192,27159,1,0,0:0:0:0:
320,192,27159,1,0,0:0:0:0:
448,192,27262,1,0,0:0:0:0:
64,192,27366,1,0,0:0:0:0:
192,192,27366,1,0,0:0:0:0:
320,192,27366,1,0,0:0:0:0:
448,192,27469,1,0,0:0:0:0:
64,192,27573,1,0,0:0:0:0:
192,192,27573,1,0,0:0:0:0:
320,192,27573,1,0,0:0:0:0:
448,192,27676,1,0,0:0:0:0:
64,192,27780,1,0,0:0:0:0:
320,192,27780,1,0,0:0:0:0:
64,192,27883,1,0,0:0:0:0:
320,192,27883,1,0,0:0:0:0:
192,192,27986,1,0,0:0:0:0:
448,192,27986,1,0,0:0:0:0:
192,192,28090,1,0,0:0:0:0:
448,192,28090,1,0,0:0:0:0:
64,192,28193,1,0,0:0:0:0:
192,192,28193,1,0,0:0:0:0:
448,192,28193,1,0,0:0:0:0:
320,192,28262,1,0,0:0:0:0:
192,192,28331,1,0,0:0:0:0:
448,192,28400,1,0,0:0:0:0:
192,192,28469,1,0,0:0:0:0:
320,192,28538,1,0,0:0:0:0:
64,192,28607,1,0,0:0:0:0:
192,192,28607,1,0,0:0:0:0:
448,192,28676,1,0,0:0:0:0:
192,192,28745,1,0,0:0:0:0:
320,192,28814,1,0,0:0:0:0:
192,192,28883,1,0,0:0:0:0:
448,192,28952,1,0,0:0:0:0:
64,192,29021,1,0,0:0:0:0:
192,192,29021,1,0,0:0:0:0:
320,192,29090,1,0,0:0:0:0:
64,192,29159,1,0,0:0:0:0:
448,192,29228,1,0,0:0:0:0:
64,192,29297,1,0,0:0:0:0:
320,192,29366,1,0,0:0:0:0:
64,192,29435,1,0,0:0:0:0:
192,192,29435,1,0,0:0:0:0:
448,192,29504,1,0,0:0:0:0:
64,192,29573,1,0,0:0:0:0:
320,192,29642,1,0,0:0:0:0:
64,192,29711,1,0,0:0:0:0:
192,192,29780,1,0,0:0:0:0:
320,192,29849,1,0,0:0:0:0:
448,192,29849,1,0,0:0:0:0:
64,192,29917,1,0,0:0:0:0:
320,192,29986,1,0,0:0:0:0:
192,192,30055,1,0,0:0:0:0:
320,192,30124,1,0,0:0:0:0:
64,192,30193,1,0,0:0:0:0:
320,192,30262,1,0,0:0:0:0:
448,192,30262,1,0,0:0:0:0:
64,192,30331,1,0,0:0:0:0:
320,192,30400,1,0,0:0:0:0:
64,192,30469,1,0,0:0:0:0:
448,192,30538,1,0,0:0:0:0:
192,192,30607,1,0,0:0:0:0:
64,192,30676,1,0,0:0:0:0:
448,192,30676,1,0,0:0:0:0:
320,192,30745,1,0,0:0:0:0:
192,192,30814,1,0,0:0:0:0:
448,192,30883,1,0,0:0:0:0:
192,192,30952,1,0,0:0:0:0:
320,192,31021,1,0,0:0:0:0:
448,192,31090,1,0,0:0:0:0:
320,192,31159,1,0,0:0:0:0:
192,192,31228,1,0,0:0:0:0:
64,192,31297,1,0,0:0:0:0:
192,192,31366,1,0,0:0:0:0:
320,192,31435,1,0,0:0:0:0:
64,192,31504,1,0,0:0:0:0:
192,192,31504,1,0,0:0:0:0:
320,192,31573,1,0,0:0:0:0:
192,192,31642,1,0,0:0:0:0:
448,192,31711,1,0,0:0:0:0:
192,192,31780,1,0,0:0:0:0:
320,192,31848,1,0,0:0:0:0:
64,192,31917,1,0,0:0:0:0:
192,192,31917,1,0,0:0:0:0:
448,192,31986,1,0,0:0:0:0:
192,192,32055,1,0,0:0:0:0:
320,192,32124,1,0,0:0:0:0:
192,192,32193,1,0,0:0:0:0:
448,192,32262,1,0,0:0:0:0:
64,192,32331,1,0,0:0:0:0:
192,192,32331,1,0,0:0:0:0:
320,192,32400,1,0,0:0:0:0:
64,192,32469,1,0,0:0:0:0:
448,192,32538,1,0,0:0:0:0:
64,192,32607,1,0,0:0:0:0:
320,192,32676,1,0,0:0:0:0:
64,192,32745,1,0,0:0:0:0:
192,192,32745,1,0,0:0:0:0:
448,192,32814,1,0,0:0:0:0:
64,192,32883,1,0,0:0:0:0:
320,192,32952,1,0,0:0:0:0:
64,192,33021,1,0,0:0:0:0:
192,192,33090,1,0,0:0:0:0:
320,192,33159,1,0,0:0:0:0:
448,192,33159,1,0,0:0:0:0:
64,192,33228,1,0,0:0:0:0:
320,192,33297,1,0,0:0:0:0:
192,192,33366,1,0,0:0:0:0:
320,192,33435,1,0,0:0:0:0:
64,192,33504,1,0,0:0:0:0:
320,192,33573,1,0,0:0:0:0:
448,192,33573,1,0,0:0:0:0:
64,192,33642,1,0,0:0:0:0:
320,192,33711,1,0,0:0:0:0:
64,192,33780,1,0,0:0:0:0:
448,192,33848,1,0,0:0:0:0:
192,192,33917,1,0,0:0:0:0:
64,192,33986,1,0,0:0:0:0:
448,192,33986,1,0,0:0:0:0:
320,192,34055,1,0,0:0:0:0:
192,192,34124,1,0,0:0:0:0:
448,192,34193,1,0,0:0:0:0:
192,192,34262,1,0,0:0:0:0:
320,192,34331,1,0,0:0:0:0:
448,192,34400,1,0,0:0:0:0:
320,192,34469,1,0,0:0:0:0:
192,192,34538,1,0,0:0:0:0:
64,192,34607,1,0,0:0:0:0:
192,192,34676,1,0,0:0:0:0:
320,192,34745,1,0,0:0:0:0:
64,192,34814,1,0,0:0:0:0:
192,192,34814,1,0,0:0:0:0:
448,192,34814,1,0,0:0:0:0:
320,192,34917,1,0,0:0:0:0:
64,192,35021,1,0,0:0:0:0:
192,192,35021,1,0,0:0:0:0:
320,192,35124,1,0,0:0:0:0:
64,192,35228,1,0,0:0:0:0:
192,192,35228,1,0,0:0:0:0:
448,192,35228,1,0,0:0:0:0:
320,192,35331,1,0,0:0:0:0:
64,192,35435,1,0,0:0:0:0:
192,192,35538,1,0,0:0:0:0:
64,192,35642,1,0,0:0:0:0:
320,192,35642,1,0,0:0:0:0:
448,192,35642,1,0,0:0:0:0:
192,192,35745,1,0,0:0:0:0:
320,192,35848,1,0,0:0:0:0:
448,192,35848,1,0,0:0:0:0:
192,192,35952,1,0,0:0:0:0:
64,192,36055,1,0,0:0:0:0:
320,192,36055,1,0,0:0:0:0:
448,192,36055,1,0,0:0:0:0:
192,192,36159,1,0,0:0:0:0:
448,192,36262,1,0,0:0:0:0:
320,192,36366,1,0,0:0:0:0:
64,192,36469,1,0,0:0:0:0:
192,192,36469,1,0,0:0:0:0:
448,192,36469,1,0,0:0:0:0:
320,192,36573,1,0,0:0:0:0:
192,192,36676,1,0,0:0:0:0:
448,192,36676,1,0,0:0:0:0:
320,192,36780,1,0,0:0:0:0:
64,192,36883,1,0,0:0:0:0:
192,192,36883,1,0,0:0:0:0:
448,192,36883,1,0,0:0:0:0:
320,192,36986,1,0,0:0:0:0:
64,192,37090,1,0,0:0:0:0:
192,192,37193,1,0,0:0:0:0:
64,192,37297,1,0,0:0:0:0:
320,192,37297,1,0,0:0:0:0:
448,192,37297,1,0,0:0:0:0:
192,192,37400,1,0,0:0:0:0:
448,192,37504,1,0,0:0:0:0:
320,192,37607,1,0,0:0:0:0:
64,192,37711,1,0,0:0:0:0:
192,192,37711,1,0,0:0:0:0:
448,192,37711,1,0,0:0:0:0:
64,192,37814,1,0,0:0:0:0:
320,192,37814,1,0,0:0:0:0:
64,192,37917,1,0,0:0:0:0:
320,192,37917,1,0,0:0:0:0:
192,192,38021,1,0,0:0:0:0:
448,192,38021,1,0,0:0:0:0:
64,192,38124,1,0,0:0:0:0:
192,192,38124,1,0,0:0:0:0:
448,192,38124,1,0,0:0:0:0:
320,192,38193,1,0,0:0:0:0:
192,192,38262,1,0,0:0:0:0:
320,192,38331,1,0,0:0:0:0:
448,192,38331,1,0,0:0:0:0:
192,192,38400,1,0,0:0:0:0:
320,192,38469,1,0,0:0:0:0:
64,192,38538,1,0,0:0:0:0:
192,192,38538,1,0,0:0:0:0:
448,192,38607,1,0,0:0:0:0:
192,192,38676,1,0,0:0:0:0:
320,192,38745,1,0,0:0:0:0:
448,192,38745,1,0,0:0:0:0:
192,192,38814,1,0,0:0:0:0:
448,192,38883,1,0,0:0:0:0:
64,192,38952,1,0,0:0:0:0:
192,192,38952,1,0,0:0:0:0:
320,192,39021,1,0,0:0:0:0:
64,192,39090,1,0,0:0:0:0:
320,192,39159,1,0,0:0:0:0:
448,192,39159,1,0,0:0:0:0:
64,192,39228,1,0,0:0:0:0:
320,192,39297,1,0,0:0:0:0:
64,192,39366,1,0,0:0:0:0:
192,192,39366,1,0,0:0:0:0:
448,192,39435,1,0,0:0:0:0:
64,192,39504,1,0,0:0:0:0:
320,192,39573,1,0,0:0:0:0:
448,192,39573,1,0,0:0:0:0:
64,192,39642,1,0,0:0:0:0:
192,192,39711,1,0,0:0:0:0:
320,192,39780,1,0,0:0:0:0:
448,192,39780,1,0,0:0:0:0:
64,192,39848,1,0,0:0:0:0:
320,192,39917,1,0,0:0:0:0:
64,192,39986,1,0,0:0:0:0:
192,192,39986,1,0,0:0:0:0:
320,192,40055,1,0,0:0:0:0:
64,192,40124,1,0,0:0:0:0:
320,192,40193,1,0,0:0:0:0:
448,192,40193,1,0,0:0:0:0:
64,192,40262,1,0,0:0:0:0:
320,192,40331,1,0,0:0:0:0:
64,192,40400,1,0,0:0:0:0:
192,192,40400,1,0,0:0:0:0:
448,192,40469,1,0,0:0:0:0:
192,192,40538,1,0,0:0:0:0:
64,192,40607,1,0,0:0:0:0:
448,192,40607,1,0,0:0:0:0:
320,192,40676,1,0,0:0:0:0:
192,192,40745,1,0,0:0:0:0:
320,192,40814,1,0,0:0:0:0:
448,192,40814,1,0,0:0:0:0:
192,192,40883,1,0,0:0:0:0:
320,192,40952,1,0,0:0:0:0:
64,192,41021,1,0,0:0:0:0:
192,192,41021,1,0,0:0:0:0:
320,192,41090,1,0,0:0:0:0:
192,192,41159,1,0,0:0:0:0:
64,192,41228,1,0,0:0:0:0:
192,192,41297,1,0,0:0:0:0:
320,192,41366,1,0,0:0:0:0:
64,192,41435,1,0,0:0:0:0:
192,192,41435,1,0,0:0:0:0:
448,192,41435,1,0,0:0:0:0:
320,192,41504,1,0,0:0:0:0:
192,192,41573,1,0,0:0:0:0:
320,192,41642,1,0,0:0:0:0:
448,192,41642,1,0,0:0:0:0:
192,192,41711,1,0,0:0:0:0:
320,192,41780,1,0,0:0:0:0:
64,192,41848,1,0,0:0:0:0:
192,192,41848,1,0,0:0:0:0:
448,192,41917,1,0,0:0:0:0:
192,192,41986,1,0,0:0:0:0:
320,192,42055,1,0,0:0:0:0:
448,192,42055,1,0,0:0:0:0:
192,192,42124,1,0,0:0:0:0:
448,192,42193,1,0,0:0:0:0:
64,192,42262,1,0,0:0:0:0:
192,192,42262,1,0,0:0:0:0:
320,192,42331,1,0,0:0:0:0:
64,192,42400,1,0,0:0:0:0:
320,192,42469,1,0,0:0:0:0:
448,192,42469,1,0,0:0:0:0:
64,192,42538,1,0,0:0:0:0:
320,192,42607,1,0,0:0:0:0:
64,192,42676,1,0,0:0:0:0:
192,192,42676,1,0,0:0:0:0:
448,192,42745,1,0,0:0:0:0:
64,192,42814,1,0,0:0:0:0:
320,192,42883,1,0,0:0:0:0:
448,192,42883,1,0,0:0:0:0:
64,192,42952,1,0,0:0:0:0:
192,192,43021,1,0,0:0:0:0:
320,192,43090,1,0,0:0:0:0:
448,192,43090,1,0,0:0:0:0:
64,192,43159,1,0,0:0:0:0:
320,192,43228,1,0,0:0:0:0:
64,192,43297,1,0,0:0:0:0:
192,192,43297,1,0,0:0:0:0:
320,192,43366,1,0,0:0:0:0:
64,192,43435,1,0,0:0:0:0:
320,192,43504,1,0,0:0:0:0:
448,192,43504,1,0,0:0:0:0:
64,192,43573,1,0,0:0:0:0:
320,192,43642,1,0,0:0:0:0:
64,192,43711,1,0,0:0:0:0:
192,192,43711,1,0,0:0:0:0:
448,192,43779,1,0,0:0:0:0:
192,192,43848,1,0,0:0:0:0:
64,192,43917,1,0,0:0:0:0:
448,192,43917,1,0,0:0:0:0:
320,192,43986,1,0,0:0:0:0:
192,192,44055,1,0,0:0:0:0:
320,192,44124,1,0,0:0:0:0:
448,192,44124,1,0,0:0:0:0:
192,192,44193,1,0,0:0:0:0:
320,192,44262,1,0,0:0:0:0:
64,192,44331,1,0,0:0:0:0:
192,192,44331,1,0,0:0:0:0:
320,192,44400,1,0,0:0:0:0:
192,192,44469,1,0,0:0:0:0:
64,192,44538,1,0,0:0:0:0:
192,192,44607,1,0,0:0:0:0:
320,192,44676,1,0,0:0:0:0:
64,192,44745,1,0,0:0:0:0:
192,192,44745,1,0,0:0:0:0:
448,192,44745,1,0,0:0:0:0:
64,192,44848,1,0,0:0:0:0:
192,192,44848,1,0,0:0:0:0:
320,192,44952,1,0,0:0:0:0:
448,192,44952,1,0,0:0:0:0:
64,192,45055,1,0,0:0:0:0:
192,192,45055,1,0,0:0:0:0:
64,192,45159,1,0,0:0:0:0:
320,192,45159,1,0,0:0:0:0:
448,192,45159,1,0,0:0:0:0:
192,192,45262,1,0,0:0:0:0:
320,192,45366,1,0,0:0:0:0:
64,192,45469,1,0,0:0:0:0:
64,192,45573,1,0,0:0:0:0:
320,192,45573,1,0,0:0:0:0:
448,192,45573,1,0,0:0:0:0:
320,192,45676,1,0,0:0:0:0:
448,192,45676,1,0,0:0:0:0:
64,192,45779,1,0,0:0:0:0:
192,192,45779,1,0,0:0:0:0:
320,192,45883,1,0,0:0:0:0:
448,192,45883,1,0,0:0:0:0:
64,192,45986,1,0,0:0:0:0:
192,192,45986,1,0,0:0:0:0:
448,192,45986,1,0,0:0:0:0:
320,192,46090,1,0,0:0:0:0:
192,192,46193,1,0,0:0:0:0:
448,192,46297,1,0,0:0:0:0:
64,192,46400,1,0,0:0:0:0:
192,192,46400,1,0,0:0:0:0:
448,192,46400,1,0,0:0:0:0:
192,192,46504,1,0,0:0:0:0:
448,192,46504,1,0,0:0:0:0:
64,192,46607,1,0,0:0:0:0:
320,192,46607,1,0,0:0:0:0:
192,192,46711,1,0,0:0:0:0:
448,192,46711,1,0,0:0:0:0:
64,192,46814,1,0,0:0:0:0:
192,192,46814,1,0,0:0:0:0:
320,192,46814,1,0,0:0:0:0:
448,192,46917,1,0,0:0:0:0:
64,192,47021,1,0,0:0:0:0:
192,192,47124,1,0,0:0:0:0:
64,192,47228,1,0,0:0:0:0:
320,192,47228,1,0,0:0:0:0:
448,192,47228,1,0,0:0:0:0:
192,192,47331,1,0,0:0:0:0:
448,192,47435,1,0,0:0:0:0:
320,192,47538,1,0,0:0:0:0:
64,192,47642,1,0,0:0:0:0:
192,192,47642,1,0,0:0:0:0:
448,192,47642,1,0,0:0:0:0:
64,192,47745,1,0,0:0:0:0:
320,192,47745,1,0,0:0:0:0:
64,192,47848,1,0,0:0:0:0:
320,192,47848,1,0,0:0:0:0:
192,192,47952,1,0,0:0:0:0:
448,192,47952,1,0,0:0:0:0:
64,192,48055,1,0,0:0:0:0:
192,192,48055,1,0,0:0:0:0:
448,192,48055,1,0,0:0:0:0:
320,192,48159,1,0,0:0:0:0:
192,192,48262,1,0,0:0:0:0:
448,192,48262,1,0,0:0:0:0:
64,192,48366,1,0,0:0:0:0:
320,192,48366,1,0,0:0:0:0:
64,192,48469,1,0,0:0:0:0:
320,192,48469,1,0,0:0:0:0:
448,192,48469,1,0,0:0:0:0:
64,192,48676,1,0,0:0:0:0:
320,192,48676,1,0,0:0:0:0:
64,192,48883,1,0,0:0:0:0:
192,192,48883,1,0,0:0:0:0:
448,192,48883,1,0,0:0:0:0:
320,192,48986,1,0,0:0:0:0:
192,192,49090,1,0,0:0:0:0:
448,192,49090,1,0,0:0:0:0:
64,192,49193,1,0,0:0:0:0:
320,192,49193,1,0,0:0:0:0:
64,192,49297,1,0,0:0:0:0:
320,192,49297,1,0,0:0:0:0:
448,192,49297,1,0,0:0:0:0:
64,192,49504,1,0,0:0:0:0:
320,192,49504,1,0,0:0:0:0:
64,192,49711,1,0,0:0:0:0:
320,192,49711,1,0,0:0:0:0:
448,192,49711,1,0,0:0:0:0:
192,192,49814,1,0,0:0:0:0:
64,192,49917,1,0,0:0:0:0:
320,192,49917,1,0,0:0:0:0:
192,192,50021,1,0,0:0:0:0:
448,192,50021,1,0,0:0:0:0:
64,192,50124,1,0,0:0:0:0:
192,192,50124,1,0,0:0:0:0:
448,192,50124,1,0,0:0:0:0:
192,192,50331,1,0,0:0:0:0:
448,192,50331,1,0,0:0:0:0:
64,192,50538,1,0,0:0:0:0:
192,192,50538,1,0,0:0:0:0:
320,192,50538,1,0,0:0:0:0:
320,192,50642,1,0,0:0:0:0:
448,192,50642,1,0,0:0:0:0:
192,192,50745,1,0,0:0:0:0:
320,192,50745,1,0,0:0:0:0:
64,192,50848,1,0,0:0:0:0:
192,192,50848,1,0,0:0:0:0:
320,192,50952,1,0,0:0:0:0:
448,192,50952,1,0,0:0:0:0:
64,192,51055,1,0,0:0:0:0:
192,192,51055,1,0,0:0:0:0:
192,192,51159,1,0,0:0:0:0:
320,192,51159,1,0,0:0:0:0:
320,192,51262,1,0,0:0:0:0:
448,192,51262,1,0,0:0:0:0:
64,192,51366,1,0,0:0:0:0:
192,192,51366,1,0,0:0:0:0:
320,192,51366,1,0,0:0:0:0:
64,192,51469,1,0,0:0:0:0:
192,192,51573,1,0,0:0:0:0:
448,192,51573,1,0,0:0:0:0:
64,192,51676,1,0,0:0:0:0:
320,192,51676,1,0,0:0:0:0:
64,192,51780,1,0,0:0:0:0:
320,192,51780,1,0,0:0:0:0:
448,192,51780,1,0,0:0:0:0:
64,192,51986,1,0,0:0:0:0:
320,192,51986,1,0,0:0:0:0:
64,192,52193,1,0,0:0:0:0:
320,192,52193,1,0,0:0:0:0:
448,192,52193,1,0,0:0:0:0:
320,192,52297,1,0,0:0:0:0:
64,192,52400,1,0,0:0:0:0:
320,192,52400,1,0,0:0:0:0:
192,192,52504,1,0,0:0:0:0:
448,192,52504,1,0,0:0:0:0:
64,192,52607,1,0,0:0:0:0:
192,192,52607,1,0,0:0:0:0:
448,192,52607,1,0,0:0:0:0:
192,192,52814,1,0,0:0:0:0:
320,192,52814,1,0,0:0:0:0:
448,192,52814,1,0,0:0:0:0:
64,192,53021,1,0,0:0:0:0:
192,192,53021,1,0,0:0:0:0:
320,192,53021,1,0,0:0:0:0:
192,192,53124,1,0,0:0:0:0:
448,192,53124,1,0,0:0:0:0:
64,192,53228,1,0,0:0:0:0:
320,192,53228,1,0,0:0:0:0:
192,192,53331,1,0,0:0:0:0:
448,192,53331,1,0,0:0:0:0:
64,192,53435,1,0,0:0:0:0:
320,192,53435,1,0,0:0:0:0:
192,192,53538,1,0,0:0:0:0:
448,192,53538,1,0,0:0:0:0:
64,192,53642,1,0,0:0:0:0:
320,192,53642,1,0,0:0:0:0:
64,192,53745,1,0,0:0:0:0:
320,192,53745,1,0,0:0:0:0:
192,192,53849,1,0,0:0:0:0:
448,192,53849,1,0,0:0:0:0:
320,192,53952,1,0,0:0:0:0:
448,192,53952,1,0,0:0:0:0:
64,192,54055,1,0,0:0:0:0:
192,192,54055,1,0,0:0:0:0:
320,192,54159,1,0,0:0:0:0:
448,192,54159,1,0,0:0:0:0:
64,192,54262,1,0,0:0:0:0:
192,192,54262,1,0,0:0:0:0:
64,192,54366,1,0,0:0:0:0:
192,192,54366,1,0,0:0:0:0:
320,192,54469,1,0,0:0:0:0:
448,192,54469,1,0,0:0:0:0:
64,192,54573,1,0,0:0:0:0:
192,192,54573,1,0,0:0:0:0:
64,192,54676,1,0,0:0:0:0:
192,192,54676,1,0,0:0:0:0:
320,192,54676,1,0,0:0:0:0:
448,192,54780,1,0,0:0:0:0:
64,192,54883,1,0,0:0:0:0:
320,192,54883,1,0,0:0:0:0:
448,192,54986,1,0,0:0:0:0:
64,192,55090,1,0,0:0:0:0:
192,192,55090,1,0,0:0:0:0:
320,192,55090,1,0,0:0:0:0:
448,192,55193,1,0,0:0:0:0:
64,192,55297,1,0,0:0:0:0:
320,192,55297,1,0,0:0:0:0:
192,192,55400,1,0,0:0:0:0:
64,192,55504,1,0,0:0:0:0:
320,192,55504,1,0,0:0:0:0:
448,192,55504,1,0,0:0:0:0:
448,192,55607,1,0,0:0:0:0:
320,192,55711,1,0,0:0:0:0:
192,192,55814,1,0,0:0:0:0:
64,192,55918,1,0,0:0:0:0:
320,192,55918,1,0,0:0:0:0:
448,192,55918,1,0,0:0:0:0:
448,192,56021,1,0,0:0:0:0:
320,192,56124,1,0,0:0:0:0:
192,192,56228,1,0,0:0:0:0:
64,192,56331,1,0,0:0:0:0:
320,192,56331,1,0,0:0:0:0:
448,192,56331,1,0,0:0:0:0:
64,192,56435,1,0,0:0:0:0:
192,192,56538,1,0,0:0:0:0:
320,192,56642,1,0,0:0:0:0:
64,192,56745,1,0,0:0:0:0:
192,192,56745,1,0,0:0:0:0:
448,192,56745,1,0,0:0:0:0:
64,192,56849,1,0,0:0:0:0:
192,192,56952,1,0,0:0:0:0:
448,192,57055,1,0,0:0:0:0:
64,192,57159,1,0,0:0:0:0:
192,192,57159,1,0,0:0:0:0:
448,192,57159,1,0,0:0:0:0:
320,192,57262,1,0,0:0:0:0:
192,192,57366,1,0,0:0:0:0:
320,192,57469,1,0,0:0:0:0:
448,192,57469,1,0,0:0:0:0:
192,192,57573,1,0,0:0:0:0:
320,192,57573,1,0,0:0:0:0:
64,192,57676,1,0,0:0:0:0:
192,192,57676,1,0,0:0:0:0:
192,192,57780,1,0,0:0:0:0:
320,192,57780,1,0,0:0:0:0:
320,192,57883,1,0,0:0:0:0:
448,192,57883,1,0,0:0:0:0:
64,192,57986,1,0,0:0:0:0:
320,192,57986,1,0,0:0:0:0:
448,192,57986,1,0,0:0:0:0:
64,192,58090,1,0,0:0:0:0:
192,192,58193,1,0,0:0:0:0:
320,192,58297,1,0,0:0:0:0:
64,192,58400,1,0,0:0:0:0:
192,192,58400,1,0,0:0:0:0:
448,192,58400,1,0,0:0:0:0:
64,192,58504,1,0,0:0:0:0:
192,192,58607,1,0,0:0:0:0:
448,192,58711,1,0,0:0:0:0:
64,192,58814,1,0,0:0:0:0:
192,192,58814,1,0,0:0:0:0:
320,192,58814,1,0,0:0:0:0:
64,192,58918,1,0,0:0:0:0:
192,192,59021,1,0,0:0:0:0:
448,192,59124,1,0,0:0:0:0:
64,192,59228,1,0,0:0:0:0:
192,192,59228,1,0,0:0:0:0:
320,192,59228,1,0,0:0:0:0:
64,192,59331,1,0,0:0:0:0:
192,192,59435,1,0,0:0:0:0:
320,192,59538,1,0,0:0:0:0:
64,192,59642,1,0,0:0:0:0:
192,192,59642,1,0,0:0:0:0:
448,192,59642,1,0,0:0:0:0:
448,192,59745,1,0,0:0:0:0:
320,192,59849,1,0,0:0:0:0:
192,192,59952,1,0,0:0:0:0:
64,192,60055,1,0,0:0:0:0:
320,192,60055,1,0,0:0:0:0:
448,192,60055,1,0,0:0:0:0:
448,192,60159,1,0,0:0:0:0:
320,192,60262,1,0,0:0:0:0:
64,192,60366,1,0,0:0:0:0:
192,192,60469,1,0,0:0:0:0:
320,192,60469,1,0,0:0:0:0:
448,192,60469,1,0,0:0:0:0:
64,192,60573,1,0,0:0:0:0:
192,192,60676,1,0,0:0:0:0:
320,192,60780,1,0,0:0:0:0:
448,192,60780,1,0,0:0:0:0:
192,192,60883,1,0,0:0:0:0:
320,192,60883,1,0,0:0:0:0:
64,192,60987,1,0,0:0:0:0:
192,192,60987,1,0,0:0:0:0:
192,192,61090,1,0,0:0:0:0:
320,192,61090,1,0,0:0:0:0:
192,192,61193,1,0,0:0:0:0:
320,192,61193,1,0,0:0:0:0:
64,192,61297,1,0,0:0:0:0:
448,192,61297,1,0,0:0:0:0:
64,192,61400,1,0,0:0:0:0:
448,192,61400,1,0,0:0:0:0:
64,192,61504,1,0,0:0:0:0:
448,192,61504,1,0,0:0:0:0:
64,192,61607,1,0,0:0:0:0:
448,192,61607,1,0,0:0:0:0:
64,192,61711,1,0,0:0:0:0:
448,192,61711,1,0,0:0:0:0:
320,192,61814,1,0,0:0:0:0:
64,192,61918,1,0,0:0:0:0:
192,192,61918,1,0,0:0:0:0:
320,192,62021,1,0,0:0:0:0:
64,192,62124,1,0,0:0:0:0:
192,192,62124,1,0,0:0:0:0:
64,192,62228,1,0,0:0:0:0:
192,192,62331,1,0,0:0:0:0:
448,192,62331,1,0,0:0:0:0:
192,192,62435,1,0,0:0:0:0:
448,192,62435,1,0,0:0:0:0:
192,192,62538,1,0,0:0:0:0:
448,192,62538,1,0,0:0:0:0:
64,192,62607,1,0,0:0:0:0:
192,192,62676,1,0,0:0:0:0:
320,192,62745,1,0,0:0:0:0:
192,192,62814,1,0,0:0:0:0:
64,192,62883,1,0,0:0:0:0:
320,192,62952,1,0,0:0:0:0:
448,192,62952,1,0,0:0:0:0:
320,192,63056,1,0,0:0:0:0:
448,192,63056,1,0,0:0:0:0:
320,192,63159,1,0,0:0:0:0:
448,192,63159,1,0,0:0:0:0:
320,192,63262,1,0,0:0:0:0:
448,192,63262,1,0,0:0:0:0:
320,192,63366,1,0,0:0:0:0:
448,192,63366,1,0,0:0:0:0:
64,192,63469,1,0,0:0:0:0:
192,192,63573,1,0,0:0:0:0:
64,192,63676,1,0,0:0:0:0:
320,192,63780,1,0,0:0:0:0:
448,192,63780,1,0,0:0:0:0:
320,192,63883,1,0,0:0:0:0:
448,192,63883,1,0,0:0:0:0:
64,192,63987,1,0,0:0:0:0:
192,192,63987,1,0,0:0:0:0:
64,192,64090,1,0,0:0:0:0:
320,192,64194,1,0,0:0:0:0:
448,192,64194,1,0,0:0:0:0:
320,192,64297,1,0,0:0:0:0:
448,192,64297,1,0,0:0:0:0:
320,192,64400,1,0,0:0:0:0:
448,192,64400,1,0,0:0:0:0:
64,192,64504,1,0,0:0:0:0:
192,192,64607,1,0,0:0:0:0:
448,192,64607,1,0,0:0:0:0:
192,192,64711,1,0,0:0:0:0:
448,192,64711,1,0,0:0:0:0:
192,192,64814,1,0,0:0:0:0:
448,192,64814,1,0,0:0:0:0:
64,192,64918,1,0,0:0:0:0:
192,192,65021,1,0,0:0:0:0:
448,192,65021,1,0,0:0:0:0:
192,192,65125,1,0,0:0:0:0:
448,192,65125,1,0,0:0:0:0:
64,192,65228,1,0,0:0:0:0:
192,192,65331,1,0,0:0:0:0:
320,192,65435,1,0,0:0:0:0:
448,192,65435,1,0,0:0:0:0:
320,192,65538,1,0,0:0:0:0:
448,192,65538,1,0,0:0:0:0:
320,192,65642,1,0,0:0:0:0:
448,192,65642,1,0,0:0:0:0:
192,192,65745,1,0,0:0:0:0:
64,192,65849,1,0,0:0:0:0:
448,192,65849,1,0,0:0:0:0:
64,192,65952,1,0,0:0:0:0:
448,192,65952,1,0,0:0:0:0:
64,192,66056,1,0,0:0:0:0:
448,192,66056,1,0,0:0:0:0:
192,192,66159,1,0,0:0:0:0:
320,192,66262,1,0,0:0:0:0:
448,192,66262,1,0,0:0:0:0:
64,192,66366,1,0,0:0:0:0:
320,192,66469,1,0,0:0:0:0:
448,192,66469,1,0,0:0:0:0:
320,192,66573,1,0,0:0:0:0:
448,192,66573,1,0,0:0:0:0:
320,192,66676,1,0,0:0:0:0:
448,192,66676,1,0,0:0:0:0:
192,192,66780,1,0,0:0:0:0:
320,192,66883,1,0,0:0:0:0:
448,192,66883,1,0,0:0:0:0:
64,192,66987,1,0,0:0:0:0:
192,192,67090,1,0,0:0:0:0:
448,192,67090,1,0,0:0:0:0:
192,192,67193,1,0,0:0:0:0:
448,192,67193,1,0,0:0:0:0:
192,192,67297,1,0,0:0:0:0:
448,192,67297,1,0,0:0:0:0:
64,192,67400,1,0,0:0:0:0:
320,192,67504,1,0,0:0:0:0:
448,192,67504,1,0,0:0:0:0:
320,192,67607,1,0,0:0:0:0:
448,192,67607,1,0,0:0:0:0:
320,192,67711,1,0,0:0:0:0:
448,192,67711,1,0,0:0:0:0:
64,192,67814,1,0,0:0:0:0:
192,192,67918,1,0,0:0:0:0:
448,192,67918,1,0,0:0:0:0:
64,192,67987,1,0,0:0:0:0:
192,192,68056,1,0,0:0:0:0:
320,192,68124,1,0,0:0:0:0:
192,192,68193,1,0,0:0:0:0:
64,192,68262,1,0,0:0:0:0:
320,192,68331,1,0,0:0:0:0:
448,192,68331,1,0,0:0:0:0:
320,192,68435,1,0,0:0:0:0:
448,192,68435,1,0,0:0:0:0:
320,192,68538,1,0,0:0:0:0:
448,192,68538,1,0,0:0:0:0:
64,192,68642,1,0,0:0:0:0:
320,192,68745,1,0,0:0:0:0:
448,192,68745,1,0,0:0:0:0:
64,192,68814,1,0,0:0:0:0:
192,192,68883,1,0,0:0:0:0:
320,192,68952,1,0,0:0:0:0:
192,192,69021,1,0,0:0:0:0:
64,192,69090,1,0,0:0:0:0:
320,192,69159,1,0,0:0:0:0:
448,192,69159,1,0,0:0:0:0:
64,192,69228,1,0,0:0:0:0:
192,192,69297,1,0,0:0:0:0:
320,192,69366,1,0,0:0:0:0:
192,192,69435,1,0,0:0:0:0:
64,192,69504,1,0,0:0:0:0:
320,192,69573,1,0,0:0:0:0:
448,192,69573,1,0,0:0:0:0:
64,192,69676,1,0,0:0:0:0:
320,192,69780,1,0,0:0:0:0:
448,192,69780,1,0,0:0:0:0:
320,192,69883,1,0,0:0:0:0:
448,192,69883,1,0,0:0:0:0:
320,192,69987,1,0,0:0:0:0:
448,192,69987,1,0,0:0:0:0:
320,192,70090,1,0,0:0:0:0:
448,192,70090,1,0,0:0:0:0:
192,192,70194,1,0,0:0:0:0:
64,192,70297,1,0,0:0:0:0:
320,192,70400,1,0,0:0:0:0:
448,192,70400,1,0,0:0:0:0:
64,192,70504,1,0,0:0:0:0:
320,192,70607,1,0,0:0:0:0:
448,192,70607,1,0,0:0:0:0:
64,192,70711,1,0,0:0:0:0:
320,192,70814,1,0,0:0:0:0:
448,192,70814,1,0,0:0:0:0:
64,192,70918,1,0,0:0:0:0:
320,192,71021,1,0,0:0:0:0:
448,192,71021,1,0,0:0:0:0:
192,192,71125,1,0,0:0:0:0:
64,192,71228,1,0,0:0:0:0:
448,192,71228,1,0,0:0:0:0:
320,192,71331,1,0,0:0:0:0:
320,192,71435,1,0,0:0:0:0:
448,192,71435,1,0,0:0:0:0:
64,192,71538,1,0,0:0:0:0:
64,192,71642,1,0,0:0:0:0:
192,192,71642,1,0,0:0:0:0:
448,192,71745,1,0,0:0:0:0:
320,192,71849,1,0,0:0:0:0:
448,192,71849,1,0,0:0:0:0:
192,192,71952,1,0,0:0:0:0:
64,192,72056,1,0,0:0:0:0:
192,192,72056,1,0,0:0:0:0:
320,192,72159,1,0,0:0:0:0:
320,192,72262,1,0,0:0:0:0:
448,192,72262,1,0,0:0:0:0:
64,192,72366,1,0,0:0:0:0:
64,192,72469,1,0,0:0:0:0:
192,192,72469,1,0,0:0:0:0:
448,192,72573,1,0,0:0:0:0:
320,192,72676,1,0,0:0:0:0:
448,192,72676,1,0,0:0:0:0:
192,192,72780,1,0,0:0:0:0:
64,192,72883,1,0,0:0:0:0:
192,192,72883,1,0,0:0:0:0:
320,192,72987,1,0,0:0:0:0:
192,192,73090,1,0,0:0:0:0:
448,192,73090,1,0,0:0:0:0:
64,192,73193,1,0,0:0:0:0:
320,192,73193,1,0,0:0:0:0:
320,192,73297,1,0,0:0:0:0:
192,192,73400,1,0,0:0:0:0:
448,192,73400,1,0,0:0:0:0:
64,192,73504,1,0,0:0:0:0:
320,192,73504,1,0,0:0:0:0:
192,192,73607,1,0,0:0:0:0:
448,192,73607,1,0,0:0:0:0:
320,192,73711,1,0,0:0:0:0:
448,192,73711,1,0,0:0:0:0:
64,192,73814,1,0,0:0:0:0:
192,192,73814,1,0,0:0:0:0:
192,192,73918,1,0,0:0:0:0:
448,192,73918,1,0,0:0:0:0:
64,192,74021,1,0,0:0:0:0:
320,192,74021,1,0,0:0:0:0:
64,192,74124,1,0,0:0:0:0:
192,192,74124,1,0,0:0:0:0:
320,192,74124,1,0,0:0:0:0:
448,192,74124,1,0,0:0:0:0:
64,192,74968,1,0,0:0:0:0:
192,192,74968,1,0,0:0:0:0:
320,192,75037,1,0,0:0:0:0:
192,192,75106,1,0,0:0:0:0:
320,192,75175,1,0,0:0:0:0:
448,192,75175,1,0,0:0:0:0:
192,192,75244,1,0,0:0:0:0:
320,192,75313,1,0,0:0:0:0:
64,192,75382,1,0,0:0:0:0:
192,192,75382,1,0,0:0:0:0:
448,192,75451,1,0,0:0:0:0:
192,192,75520,1,0,0:0:0:0:
320,192,75589,1,0,0:0:0:0:
448,192,75589,1,0,0:0:0:0:
192,192,75658,1,0,0:0:0:0:
448,192,75727,1,0,0:0:0:0:
64,192,75796,1,0,0:0:0:0:
320,192,75796,1,0,0:0:0:0:
448,192,75865,1,0,0:0:0:0:
64,192,75934,1,0,0:0:0:0:
320,192,76003,1,0,0:0:0:0:
448,192,76003,1,0,0:0:0:0:
64,192,76072,1,0,0:0:0:0:
448,192,76141,1,0,0:0:0:0:
192,192,76210,1,0,0:0:0:0:
320,192,76210,1,0,0:0:0:0:
64,192,76279,1,0,0:0:0:0:
320,192,76348,1,0,0:0:0:0:
64,192,76417,1,0,0:0:0:0:
192,192,76417,1,0,0:0:0:0:
320,192,76486,1,0,0:0:0:0:
64,192,76555,1,0,0:0:0:0:
320,192,76624,1,0,0:0:0:0:
448,192,76624,1,0,0:0:0:0:
192,192,76693,1,0,0:0:0:0:
448,192,76762,1,0,0:0:0:0:
64,192,76831,1,0,0:0:0:0:
192,192,76831,1,0,0:0:0:0:
448,192,76900,1,0,0:0:0:0:
192,192,76968,1,0,0:0:0:0:
320,192,77037,1,0,0:0:0:0:
448,192,77037,1,0,0:0:0:0:
64,192,77106,1,0,0:0:0:0:
320,192,77175,1,0,0:0:0:0:
64,192,77244,1,0,0:0:0:0:
192,192,77244,1,0,0:0:0:0:
320,192,77313,1,0,0:0:0:0:
64,192,77382,1,0,0:0:0:0:
192,192,77451,1,0,0:0:0:0:
448,192,77451,1,0,0:0:0:0:
64,192,77520,1,0,0:0:0:0:
448,192,77589,1,0,0:0:0:0:
64,192,77658,1,0,0:0:0:0:
192,192,77658,1,0,0:0:0:0:
448,192,77727,1,0,0:0:0:0:
192,192,77796,1,0,0:0:0:0:
64,192,77865,1,0,0:0:0:0:
320,192,77865,1,0,0:0:0:0:
448,192,77865,1,0,0:0:0:0:
192,192,77934,1,0,0:0:0:0:
320,192,78003,1,0,0:0:0:0:
64,192,78072,1,0,0:0:0:0:
192,192,78072,1,0,0:0:0:0:
320,192,78141,1,0,0:0:0:0:
448,192,78210,1,0,0:0:0:0:
64,192,78279,1,0,0:0:0:0:
192,192,78279,1,0,0:0:0:0:
320,192,78348,1,0,0:0:0:0:
192,192,78417,1,0,0:0:0:0:
320,192,78486,1,0,0:0:0:0:
448,192,78486,1,0,0:0:0:0:
192,192,78555,1,0,0:0:0:0:
320,192,78624,1,0,0:0:0:0:
64,192,78693,1,0,0:0:0:0:
192,192,78693,1,0,0:0:0:0:
448,192,78762,1,0,0:0:0:0:
192,192,78831,1,0,0:0:0:0:
320,192,78900,1,0,0:0:0:0:
448,192,78900,1,0,0:0:0:0:
192,192,78969,1,0,0:0:0:0:
448,192,79038,1,0,0:0:0:0:
64,192,79107,1,0,0:0:0:0:
320,192,79107,1,0,0:0:0:0:
448,192,79175,1,0,0:0:0:0:
64,192,79244,1,0,0:0:0:0:
320,192,79313,1,0,0:0:0:0:
448,192,79313,1,0,0:0:0:0:
64,192,79382,1,0,0:0:0:0:
448,192,79451,1,0,0:0:0:0:
192,192,79520,1,0,0:0:0:0:
320,192,79520,1,0,0:0:0:0:
64,192,79589,1,0,0:0:0:0:
320,192,79658,1,0,0:0:0:0:
64,192,79727,1,0,0:0:0:0:
192,192,79727,1,0,0:0:0:0:
320,192,79796,1,0,0:0:0:0:
64,192,79865,1,0,0:0:0:0:
320,192,79934,1,0,0:0:0:0:
448,192,79934,1,0,0:0:0:0:
192,192,80003,1,0,0:0:0:0:
448,192,80072,1,0,0:0:0:0:
64,192,80141,1,0,0:0:0:0:
192,192,80141,1,0,0:0:0:0:
448,192,80210,1,0,0:0:0:0:
192,192,80279,1,0,0:0:0:0:
320,192,80348,1,0,0:0:0:0:
448,192,80348,1,0,0:0:0:0:
64,192,80417,1,0,0:0:0:0:
320,192,80486,1,0,0:0:0:0:
64,192,80555,1,0,0:0:0:0:
192,192,80555,1,0,0:0:0:0:
320,192,80624,1,0,0:0:0:0:
64,192,80693,1,0,0:0:0:0:
192,192,80762,1,0,0:0:0:0:
448,192,80762,1,0,0:0:0:0:
64,192,80831,1,0,0:0:0:0:
448,192,80900,1,0,0:0:0:0:
64,192,80969,1,0,0:0:0:0:
192,192,80969,1,0,0:0:0:0:
448,192,81038,1,0,0:0:0:0:
192,192,81107,1,0,0:0:0:0:
64,192,81176,1,0,0:0:0:0:
320,192,81176,1,0,0:0:0:0:
448,192,81176,1,0,0:0:0:0:
192,192,81245,1,0,0:0:0:0:
320,192,81314,1,0,0:0:0:0:
64,192,81382,1,0,0:0:0:0:
192,192,81382,1,0,0:0:0:0:
320,192,81451,1,0,0:0:0:0:
64,192,81520,1,0,0:0:0:0:
320,192,81589,1,0,0:0:0:0:
448,192,81589,1,0,0:0:0:0:
192,192,81658,1,0,0:0:0:0:
320,192,81727,1,0,0:0:0:0:
64,192,81796,1,0,0:0:0:0:
192,192,81796,1,0,0:0:0:0:
320,192,81865,1,0,0:0:0:0:
192,192,81934,1,0,0:0:0:0:
320,192,82003,1,0,0:0:0:0:
448,192,82003,1,0,0:0:0:0:
64,192,82072,1,0,0:0:0:0:
320,192,82141,1,0,0:0:0:0:
64,192,82210,1,0,0:0:0:0:
192,192,82210,1,0,0:0:0:0:
320,192,82279,1,0,0:0:0:0:
64,192,82348,1,0,0:0:0:0:
192,192,82417,1,0,0:0:0:0:
448,192,82417,1,0,0:0:0:0:
64,192,82486,1,0,0:0:0:0:
448,192,82555,1,0,0:0:0:0:
64,192,82624,1,0,0:0:0:0:
192,192,82624,1,0,0:0:0:0:
448,192,82693,1,0,0:0:0:0:
64,192,82762,1,0,0:0:0:0:
192,192,82831,1,0,0:0:0:0:
320,192,82831,1,0,0:0:0:0:
448,192,82900,1,0,0:0:0:0:
192,192,82969,1,0,0:0:0:0:
320,192,83038,1,0,0:0:0:0:
448,192,83038,1,0,0:0:0:0:
192,192,83107,1,0,0:0:0:0:
448,192,83176,1,0,0:0:0:0:
64,192,83245,1,0,0:0:0:0:
192,192,83245,1,0,0:0:0:0:
320,192,83314,1,0,0:0:0:0:
64,192,83383,1,0,0:0:0:0:
320,192,83452,1,0,0:0:0:0:
448,192,83452,1,0,0:0:0:0:
64,192,83521,1,0,0:0:0:0:
320,192,83589,1,0,0:0:0:0:
64,192,83658,1,0,0:0:0:0:
192,192,83658,1,0,0:0:0:0:
448,192,83727,1,0,0:0:0:0:
192,192,83796,1,0,0:0:0:0:
320,192,83865,1,0,0:0:0:0:
448,192,83865,1,0,0:0:0:0:
192,192,83934,1,0,0:0:0:0:
448,192,84003,1,0,0:0:0:0:
64,192,84072,1,0,0:0:0:0:
320,192,84072,1,0,0:0:0:0:
448,192,84141,1,0,0:0:0:0:
64,192,84210,1,0,0:0:0:0:
320,192,84279,1,0,0:0:0:0:
448,192,84279,1,0,0:0:0:0:
64,192,84348,1,0,0:0:0:0:
320,192,84417,1,0,0:0:0:0:
64,192,84486,1,0,0:0:0:0:
192,192,84486,1,0,0:0:0:0:
448,192,84486,1,0,0:0:0:0:
320,192,84555,1,0,0:0:0:0:
192,192,84624,1,0,0:0:0:0:
320,192,84693,1,0,0:0:0:0:
448,192,84693,1,0,0:0:0:0:
192,192,84762,1,0,0:0:0:0:
64,192,84831,1,0,0:0:0:0:
320,192,84900,1,0,0:0:0:0:
448,192,84900,1,0,0:0:0:0:
192,192,84969,1,0,0:0:0:0:
320,192,85038,1,0,0:0:0:0:
64,192,85107,1,0,0:0:0:0:
192,192,85107,1,0,0:0:0:0:
320,192,85176,1,0,0:0:0:0:
192,192,85245,1,0,0:0:0:0:
320,192,85314,1,0,0:0:0:0:
448,192,85314,1,0,0:0:0:0:
64,192,85383,1,0,0:0:0:0:
320,192,85452,1,0,0:0:0:0:
64,192,85521,1,0,0:0:0:0:
192,192,85521,1,0,0:0:0:0:
320,192,85590,1,0,0:0:0:0:
64,192,85659,1,0,0:0:0:0:
192,192,85728,1,0,0:0:0:0:
448,192,85728,1,0,0:0:0:0:
64,192,85796,1,0,0:0:0:0:
448,192,85865,1,0,0:0:0:0:
64,192,85934,1,0,0:0:0:0:
192,192,85934,1,0,0:0:0:0:
448,192,86003,1,0,0:0:0:0:
64,192,86072,1,0,0:0:0:0:
192,192,86141,1,0,0:0:0:0:
320,192,86141,1,0,0:0:0:0:
448,192,86210,1,0,0:0:0:0:
192,192,86279,1,0,0:0:0:0:
320,192,86348,1,0,0:0:0:0:
448,192,86348,1,0,0:0:0:0:
192,192,86417,1,0,0:0:0:0:
448,192,86486,1,0,0:0:0:0:
64,192,86555,1,0,0:0:0:0:
192,192,86555,1,0,0:0:0:0:
320,192,86624,1,0,0:0:0:0:
64,192,86693,1,0,0:0:0:0:
320,192,86762,1,0,0:0:0:0:
448,192,86762,1,0,0:0:0:0:
64,192,86831,1,0,0:0:0:0:
320,192,86900,1,0,0:0:0:0:
64,192,86969,1,0,0:0:0:0:
192,192,86969,1,0,0:0:0:0:
448,192,87038,1,0,0:0:0:0:
192,192,87107,1,0,0:0:0:0:
320,192,87176,1,0,0:0:0:0:
448,192,87176,1,0,0:0:0:0:
192,192,87245,1,0,0:0:0:0:
448,192,87314,1,0,0:0:0:0:
64,192,87383,1,0,0:0:0:0:
320,192,87383,1,0,0:0:0:0:
448,192,87452,1,0,0:0:0:0:
64,192,87521,1,0,0:0:0:0:
320,192,87590,1,0,0:0:0:0:
448,192,87590,1,0,0:0:0:0:
64,192,87659,1,0,0:0:0:0:
320,192,87728,1,0,0:0:0:0:
64,192,87797,1,0,0:0:0:0:
192,192,87797,1,0,0:0:0:0:
448,192,87797,1,0,0:0:0:0:
320,192,87866,1,0,0:0:0:0:
448,192,87934,1,0,0:0:0:0:
320,192,88003,1,0,0:0:0:0:
192,192,88072,1,0,0:0:0:0:
64,192,88141,1,0,0:0:0:0:
320,192,88210,1,0,0:0:0:0:
448,192,88210,1,0,0:0:0:0:
64,192,88262,1,0,0:0:0:0:
192,192,88262,1,0,0:0:0:0:
320,192,88314,1,0,0:0:0:0:
448,192,88314,1,0,0:0:0:0:
64,192,88365,1,0,0:0:0:0:
192,192,88365,1,0,0:0:0:0:
320,192,88417,1,0,0:0:0:0:
448,192,88417,1,0,0:0:0:0:
64,192,88624,1,0,0:0:0:0:
320,192,88624,1,0,0:0:0:0:
448,192,88624,1,0,0:0:0:0:
64,192,88727,1,0,0:0:0:0:
320,192,88727,1,0,0:0:0:0:
448,192,88727,1,0,0:0:0:0:
320,192,89037,1,0,0:0:0:0:
448,192,89037,1,0,0:0:0:0:
64,192,89089,1,0,0:0:0:0:
192,192,89089,1,0,0:0:0:0:
320,192,89141,1,0,0:0:0:0:
448,192,89141,1,0,0:0:0:0:
64,192,89193,1,0,0:0:0:0:
192,192,89193,1,0,0:0:0:0:
320,192,89244,1,0,0:0:0:0:
448,192,89244,1,0,0:0:0:0:
64,192,89451,1,0,0:0:0:0:
192,192,89451,1,0,0:0:0:0:
320,192,89451,1,0,0:0:0:0:
64,192,89555,1,0,0:0:0:0:
192,192,89555,1,0,0:0:0:0:
320,192,89555,1,0,0:0:0:0:
320,192,89865,1,0,0:0:0:0:
448,192,89865,1,0,0:0:0:0:
64,192,89917,1,0,0:0:0:0:
192,192,89917,1,0,0:0:0:0:
320,192,89968,1,0,0:0:0:0:
448,192,89968,1,0,0:0:0:0:
64,192,90020,1,0,0:0:0:0:
192,192,90020,1,0,0:0:0:0:
320,192,90072,1,0,0:0:0:0:
448,192,90072,1,0,0:0:0:0:
64,192,90279,1,0,0:0:0:0:
192,192,90279,1,0,0:0:0:0:
448,192,90279,1,0,0:0:0:0:
64,192,90382,1,0,0:0:0:0:
192,192,90382,1,0,0:0:0:0:
448,192,90382,1,0,0:0:0:0:
64,192,90693,1,0,0:0:0:0:
192,192,90693,1,0,0:0:0:0:
320,192,90693,1,0,0:0:0:0:
448,192,90693,1,0,0:0:0:0:
64,192,90899,1,0,0:0:0:0:
192,192,90899,1,0,0:0:0:0:
320,192,90899,1,0,0:0:0:0:
192,192,91003,1,0,0:0:0:0:
320,192,91003,1,0,0:0:0:0:
448,192,91003,1,0,0:0:0:0:
64,192,91106,1,0,0:0:0:0:
320,192,91106,1,0,0:0:0:0:
448,192,91106,1,0,0:0:0:0:
64,192,91313,1,0,0:0:0:0:
192,192,91313,1,0,0:0:0:0:
64,192,91417,1,0,0:0:0:0:
192,192,91417,1,0,0:0:0:0:
320,192,91417,1,0,0:0:0:0:
320,192,91520,1,0,0:0:0:0:
448,192,91520,1,0,0:0:0:0:
64,192,91572,1,0,0:0:0:0:
192,192,91572,1,0,0:0:0:0:
320,192,91624,1,0,0:0:0:0:
448,192,91624,1,0,0:0:0:0:
64,192,91675,1,0,0:0:0:0:
192,192,91675,1,0,0:0:0:0:
320,192,91727,1,0,0:0:0:0:
448,192,91727,1,0,0:0:0:0:
64,192,91934,1,0,0:0:0:0:
192,192,91934,1,0,0:0:0:0:
320,192,91934,1,0,0:0:0:0:
64,192,92037,1,0,0:0:0:0:
320,192,92037,1,0,0:0:0:0:
448,192,92037,1,0,0:0:0:0:
320,192,92348,1,0,0:0:0:0:
448,192,92348,1,0,0:0:0:0:
64,192,92399,1,0,0:0:0:0:
192,192,92399,1,0,0:0:0:0:
320,192,92451,1,0,0:0:0:0:
448,192,92451,1,0,0:0:0:0:
64,192,92503,1,0,0:0:0:0:
192,192,92503,1,0,0:0:0:0:
320,192,92555,1,0,0:0:0:0:
448,192,92555,1,0,0:0:0:0:
64,192,92762,1,0,0:0:0:0:
320,192,92762,1,0,0:0:0:0:
448,192,92762,1,0,0:0:0:0:
192,192,92865,1,0,0:0:0:0:
320,192,92865,1,0,0:0:0:0:
448,192,92865,1,0,0:0:0:0:
320,192,93175,1,0,0:0:0:0:
448,192,93175,1,0,0:0:0:0:
64,192,93227,1,0,0:0:0:0:
192,192,93227,1,0,0:0:0:0:
320,192,93279,1,0,0:0:0:0:
448,192,93279,1,0,0:0:0:0:
64,192,93331,1,0,0:0:0:0:
192,192,93331,1,0,0:0:0:0:
320,192,93382,1,0,0:0:0:0:
448,192,93382,1,0,0:0:0:0:
192,192,93589,1,0,0:0:0:0:
320,192,93589,1,0,0:0:0:0:
448,192,93589,1,0,0:0:0:0:
64,192,93693,1,0,0:0:0:0:
320,192,93693,1,0,0:0:0:0:
448,192,93693,1,0,0:0:0:0:
64,192,94003,1,0,0:0:0:0:
320,192,94003,1,0,0:0:0:0:
448,192,94003,1,0,0:0:0:0:
320,192,94106,1,0,0:0:0:0:
448,192,94106,1,0,0:0:0:0:
192,192,94210,1,0,0:0:0:0:
320,192,94210,1,0,0:0:0:0:
448,192,94210,1,0,0:0:0:0:
320,192,94313,1,0,0:0:0:0:
448,192,94313,1,0,0:0:0:0:
64,192,94417,1,0,0:0:0:0:
320,192,94417,1,0,0:0:0:0:
448,192,94417,1,0,0:0:0:0:
64,192,94520,1,0,0:0:0:0:
192,192,94520,1,0,0:0:0:0:
64,192,94624,1,0,0:0:0:0:
192,192,94624,1,0,0:0:0:0:
448,192,94624,1,0,0:0:0:0:
64,192,94727,1,0,0:0:0:0:
192,192,94727,1,0,0:0:0:0:
320,192,94831,1,0,0:0:0:0:
448,192,94831,1,0,0:0:0:0:
64,192,94882,1,0,0:0:0:0:
192,192,94882,1,0,0:0:0:0:
320,192,94934,1,0,0:0:0:0:
448,192,94934,1,0,0:0:0:0:
64,192,94986,1,0,0:0:0:0:
192,192,94986,1,0,0:0:0:0:
320,192,95038,1,0,0:0:0:0:
448,192,95038,1,0,0:0:0:0:
192,192,95244,1,0,0:0:0:0:
320,192,95244,1,0,0:0:0:0:
448,192,95244,1,0,0:0:0:0:
64,192,95348,1,0,0:0:0:0:
192,192,95348,1,0,0:0:0:0:
448,192,95348,1,0,0:0:0:0:
320,192,95658,1,0,0:0:0:0:
448,192,95658,1,0,0:0:0:0:
64,192,95710,1,0,0:0:0:0:
192,192,95710,1,0,0:0:0:0:
320,192,95762,1,0,0:0:0:0:
448,192,95762,1,0,0:0:0:0:
64,192,95813,1,0,0:0:0:0:
192,192,95813,1,0,0:0:0:0:
320,192,95865,1,0,0:0:0:0:
448,192,95865,1,0,0:0:0:0:
64,192,96072,1,0,0:0:0:0:
320,192,96072,1,0,0:0:0:0:
448,192,96072,1,0,0:0:0:0:
64,192,96176,1,0,0:0:0:0:
192,192,96176,1,0,0:0:0:0:
448,192,96176,1,0,0:0:0:0:
320,192,96486,1,0,0:0:0:0:
448,192,96486,1,0,0:0:0:0:
64,192,96538,1,0,0:0:0:0:
192,192,96538,1,0,0:0:0:0:
320,192,96589,1,0,0:0:0:0:
448,192,96589,1,0,0:0:0:0:
64,192,96641,1,0,0:0:0:0:
192,192,96641,1,0,0:0:0:0:
320,192,96693,1,0,0:0:0:0:
448,192,96693,1,0,0:0:0:0:
64,192,96900,1,0,0:0:0:0:
192,192,96900,1,0,0:0:0:0:
448,192,96900,1,0,0:0:0:0:
64,192,97003,1,0,0:0:0:0:
320,192,97003,1,0,0:0:0:0:
448,192,97003,1,0,0:0:0:0:
64,192,97314,1,0,0:0:0:0:
192,192,97314,1,0,0:0:0:0:
320,192,97314,1,0,0:0:0:0:
448,192,97314,1,0,0:0:0:0:
320,192,97520,1,0,0:0:0:0:
448,192,97520,1,0,0:0:0:0:
64,192,97572,1,0,0:0:0:0:
192,192,97572,1,0,0:0:0:0:
320,192,97624,1,0,0:0:0:0:
448,192,97624,1,0,0:0:0:0:
64,192,97676,1,0,0:0:0:0:
192,192,97676,1,0,0:0:0:0:
320,192,97727,1,0,0:0:0:0:
448,192,97727,1,0,0:0:0:0:
320,192,97934,1,0,0:0:0:0:
448,192,97934,1,0,0:0:0:0:
64,192,97986,1,0,0:0:0:0:
192,192,97986,1,0,0:0:0:0:
320,192,98038,1,0,0:0:0:0:
448,192,98038,1,0,0:0:0:0:
64,192,98089,1,0,0:0:0:0:
192,192,98089,1,0,0:0:0:0:
320,192,98141,1,0,0:0:0:0:
448,192,98141,1,0,0:0:0:0:
64,192,98193,1,0,0:0:0:0:
192,192,98193,1,0,0:0:0:0:
320,192,98245,1,0,0:0:0:0:
448,192,98245,1,0,0:0:0:0:
64,192,98296,1,0,0:0:0:0:
192,192,98296,1,0,0:0:0:0:
320,192,98348,1,0,0:0:0:0:
448,192,98348,1,0,0:0:0:0:
64,192,98555,1,0,0:0:0:0:
192,192,98555,1,0,0:0:0:0:
320,192,98555,1,0,0:0:0:0:
192,192,98658,1,0,0:0:0:0:
320,192,98658,1,0,0:0:0:0:
448,192,98658,1,0,0:0:0:0:
320,192,98969,1,0,0:0:0:0:
448,192,98969,1,0,0:0:0:0:
64,192,99020,1,0,0:0:0:0:
192,192,99020,1,0,0:0:0:0:
320,192,99072,1,0,0:0:0:0:
448,192,99072,1,0,0:0:0:0:
64,192,99124,1,0,0:0:0:0:
192,192,99124,1,0,0:0:0:0:
320,192,99176,1,0,0:0:0:0:
448,192,99176,1,0,0:0:0:0:
64,192,99383,1,0,0:0:0:0:
320,192,99383,1,0,0:0:0:0:
448,192,99383,1,0,0:0:0:0:
192,192,99486,1,0,0:0:0:0:
320,192,99486,1,0,0:0:0:0:
448,192,99486,1,0,0:0:0:0:
320,192,99796,1,0,0:0:0:0:
448,192,99796,1,0,0:0:0:0:
64,192,99848,1,0,0:0:0:0:
192,192,99848,1,0,0:0:0:0:
320,192,99900,1,0,0:0:0:0:
448,192,99900,1,0,0:0:0:0:
64,192,99952,1,0,0:0:0:0:
192,192,99952,1,0,0:0:0:0:
320,192,100003,1,0,0:0:0:0:
448,192,100003,1,0,0:0:0:0:
64,192,100210,1,0,0:0:0:0:
320,192,100210,1,0,0:0:0:0:
448,192,100210,1,0,0:0:0:0:
192,192,100314,1,0,0:0:0:0:
64,0,100314,128,0,104969:1:0:0:0:
448,0,100314,128,0,104969:1:0:0:0:
