osu file format v14

[General]
AudioFilename: audio.mp3
AudioLeadIn: 1521
PreviewTime: 56691
Countdown: 0
SampleSet: Soft
StackLeniency: 0.6
Mode: 0
LetterboxInBreaks: 0
WidescreenStoryboard: 0

[Editor]
DistanceSpacing: 0.95
BeatDivisor: 2
GridSize: 32
TimelineZoom: 0.5999998

[Metadata]
Title:Hello Alone (TV size)
TitleUnicode:Hello Alone (TV size)
Artist:Yukinoshita Yukino (CV.Hayami Saori) & Yuigahama Yui (CV.Toyama Nao)
ArtistUnicode:雪ノ下雪乃(CV.早見沙織)&由比ヶ浜結衣(CV.東山奈央)
Creator:Pata-Mon
Version:KwaN's Easy
Source:やはり俺の青春ラブコメはまちがっている。
Tags:IamKwaN My Angel Azusa Sahuang Hayami Touyama Yahari Ore no Seishun Love Comedy wa Machigatteiru oregairu my teen romantic comedy snafu Anime ED ending tv size
BeatmapID:1304658
BeatmapSetID:558287

[Difficulty]
HPDrainRate:2
CircleSize:3
OverallDifficulty:2
ApproachRate:3
SliderMultiplier:0.9
SliderTickRate:1

[Events]
//Background and Video events
Video,60,"video.flv"
0,0,"BG.png",0,0
//Break Periods
//Storyboard Layer 0 (Background)
//Storyboard Layer 1 (Fail)
//Storyboard Layer 2 (Pass)
//Storyboard Layer 3 (Foreground)
//Storyboard Sound Samples

[TimingPoints]
-515,413.793103448276,4,2,88,60,1,0
3002,-100,4,2,88,40,0,0
3209,-100,4,2,88,60,0,0
7760,-100,4,2,88,40,0,0
11485,-100,4,2,90,40,0,0
11691,-100,4,2,88,40,0,0
18105,-100,4,2,90,40,0,0
18312,-100,4,2,88,40,0,0
19760,-100,4,2,90,40,0,0
19967,-100,4,2,88,40,0,0
21002,-100,4,2,88,50,0,0
24726,-100,4,2,89,50,0,0
24933,-100,4,2,88,40,0,0
25347,-100,4,2,88,50,0,0
27209,-100,4,2,89,50,0,0
27312,-100,4,2,88,50,0,0
28036,-100,4,2,88,50,0,0
29691,-100,4,2,89,50,0,0
29898,-100,4,2,88,50,0,0
31347,-100,4,2,89,50,0,0
31553,-100,4,2,88,50,0,0
36312,-100,4,2,89,50,0,0
36519,-100,4,2,88,50,0,0
38588,-100,4,2,90,50,0,0
38795,-100,4,2,88,50,0,0
44588,-100,4,2,89,50,0,0
44795,-100,4,2,88,50,0,0
54105,-100,4,2,88,60,0,0
54519,-100,4,2,89,60,0,0
54726,-100,4,2,88,60,0,0
57416,-100,4,2,88,70,0,1
59485,-100,4,2,89,70,0,1
59691,-100,4,2,88,70,0,1
61967,-100,4,2,89,70,0,1
62174,-100,4,2,88,70,0,1
70450,-100,4,2,88,70,0,0
70657,-100,4,2,88,70,0,1
72726,-100,4,2,89,70,0,1
72933,-100,4,2,88,70,0,1
75209,-100,4,2,89,70,0,1
75416,-100,4,2,88,70,0,1
80588,-100,4,2,88,60,0,1
80795,-100,4,2,88,70,0,1
82243,-100,4,2,88,60,0,1
82450,-100,4,2,88,70,0,1
83898,-100,4,2,88,40,0,0
86381,-100,4,2,88,30,0,0
86795,-100,4,2,88,20,0,0
87209,-100,4,2,88,5,0,0

[Colours]
Combo1 : 192,192,223
Combo2 : 255,159,159
Combo3 : 127,127,159
Combo4 : 255,223,159

[HitObjects]
456,69,1140,6,0,L|367:62,1,90,4|0,0:0|0:0,0:0:0:0:
297,12,1967,2,0,B|317:50|313:100|313:100|288:136,1,135,4|0,0:0|0:0,0:0:0:0:
209,172,3002,2,0,L|216:306,1,135,4|8,0:3|0:0,0:0:0:0:
279,364,4036,1,8,0:0:0:0:
356,327,4450,6,0,P|388:327|422:335,2,67.5,12|8|8,0:0|0:0|0:0,0:0:0:0:
279,364,5485,2,0,B|243:365|214:348|214:348|175:344|145:357,1,135,8|4,0:0|0:0,0:0:0:0:
33,228,6933,1,8,0:0:0:0:
134,101,7760,6,0,P|69:95|25:143,2,135,4|4|4,0:0|0:3|0:3,0:0:0:0:
185,170,9416,2,0,L|191:33,2,135,4|4|8,0:3|0:3|0:0,0:0:0:0:
210,251,11071,6,0,B|248:271|298:267|298:267|334:242,1,135,4|2,0:3|0:0,0:0:0:0:
409,201,12105,2,0,L|456:198,1,45,2|4,0:0|0:3,0:0:0:0:
510,133,12726,2,0,P|510:70|501:-2,2,135,4|4|8,0:3|0:3|0:0,0:0:0:0:
453,198,14381,6,0,P|391:171|327:181,2,135,4|4|4,0:3|0:3|0:3,0:0:0:0:
503,267,16036,2,0,L|510:133,2,135,4|4|8,0:3|0:3|0:0,0:0:0:0:
463,343,17691,6,0,B|425:363|375:359|375:359|339:334,1,135,4|2,0:3|0:0,0:0:0:0:
353,249,18726,2,0,B|306:240|273:277,1,90,2|4,0:0|0:3,0:3:0:0:
254,316,19347,2,0,B|209:310|209:310|169:326|169:326|122:321,1,135,4|4,0:0|0:3,0:0:0:0:
66,205,20588,2,0,P|60:160|73:117,1,90,8|4,0:0|0:0,0:0:0:0:
96,36,21416,6,0,L|141:33,1,45,8|4,0:0|0:3,0:0:0:0:
212,80,22036,2,0,B|256:90|256:90|300:80,1,90,8|4,0:0|0:0,0:0:0:0:
371,33,22864,2,0,P|435:33|470:90,1,135,4|8,0:3|0:0,0:0:0:0:
479,173,23898,1,4,0:3:0:0:
462,257,24312,6,0,B|417:251|417:251|377:267|377:267|330:262,1,135,4|4,0:0|0:3,0:0:0:0:
300,182,25347,2,0,B|256:172|256:172|212:182,1,90,4|4,0:3|0:0,0:0:0:0:
181,262,26174,2,0,P|139:278|94:273,1,90,8|8,0:0|0:0,0:0:0:0:
61,246,26795,2,0,L|69:358,1,112.5,8|8,0:0|0:0,0:0:0:0:
181,262,28036,6,0,L|188:167,2,90,4|4|8,0:0|0:3|0:0,0:0:0:0:
248,314,29278,2,0,P|314:320|381:310,2,135,4|4|8,0:3|0:3|0:0,0:0:0:0:
181,266,30933,6,0,L|173:132,2,135,4|4|8,0:3|0:3|0:0,0:0:0:0:
189,351,32588,2,0,P|145:346|99:347,1,90,4|8,0:3|0:0,0:0:0:0:
57,355,33209,2,0,L|65:221,1,135,4|8,0:3|0:0,0:0:0:0:
111,148,34243,5,4,0:3:0:0:
88,65,34657,2,0,P|44:66|-1:60,2,90,8|4|8,0:0|0:3|0:0,0:0:0:0:
170,86,35898,2,0,P|236:86|277:138,2,135,4|4|8,0:3|0:3|0:0,0:0:0:0:
111,148,37553,6,0,L|116:237,1,90,4|10,0:0|0:0,0:0:0:0:
132,277,38174,2,0,B|170:257|220:261|220:261|256:286,1,135,2|8,0:0|0:0,0:0:0:0:
329,330,39209,2,0,B|376:327|376:327|415:345|415:345|462:342,1,135,8|4,0:0|0:0,0:0:0:0:
509,223,40450,2,0,P|511:179|493:137,1,90,8|4,0:0|0:0,0:0:0:0:
430,79,41278,6,0,L|384:85,1,45,8|4,0:0|0:3,0:0:0:0:
308,121,41898,2,0,B|298:165|298:165|308:209,1,90,8|4,0:0|0:0,0:0:0:0:
378,257,42726,2,0,L|243:265,1,135,8|4,0:0|0:3,0:0:0:0:
179,322,43760,1,0,0:0:0:0:
159,238,44174,6,0,P|161:173|152:101,2,135,4|4|0,0:0|0:0|0:3,0:0:0:0:
154,280,45622,2,0,B|116:300|66:296|66:296|30:271,1,135,4|4,0:0|0:3,0:0:0:0:
9,187,46657,1,4,0:3:0:0:
2,101,47071,2,0,P|43:90|79:59,1,90,8|4,0:0|0:3,0:0:0:0:
152,103,47898,6,0,P|142:146|138:205,2,90,4|4|8,0:0|0:3|0:0,0:0:0:0:
163,61,48933,2,0,B|201:41|251:45|251:45|287:70,1,135,4|8,0:0|0:0,0:0:0:0:
354,123,49967,2,0,L|350:212,1,90,4|8,0:3|0:0,0:0:0:0:
337,297,50795,6,0,P|291:292|249:304,1,90,4|4,0:0|0:3,0:0:0:0:
222,337,51416,2,0,L|86:325,1,135,4|8,0:3|0:0,0:0:0:0:
46,316,52243,2,0,P|84:260|81:194,1,135,4|8,0:0|0:0,0:0:0:0:
20,136,53278,2,0,P|56:111|103:112,1,90,4|8,0:3|0:0,0:0:0:0:
184,128,54105,6,0,B|222:148|272:144|272:144|308:119,1,135,4|4,0:0|0:0,0:0:0:0:
369,58,55140,1,8,0:0:0:0:
393,139,55553,2,0,L|385:277,1,135,4|8,0:0|0:0,0:0:0:0:
346,350,56588,1,8,0:0:0:0:
177,321,57416,6,0,P|132:312|85:313,1,90,4|8,0:0|0:0,0:0:0:0:
79,227,58243,2,0,P|123:227|168:218,1,90,4|8,0:3|0:0,0:0:0:0:
229,158,59071,2,0,L|226:22,2,135,4|0|8,0:3|0:0|0:0,0:0:0:0:
302,201,60726,6,0,P|345:198|385:223,1,90,4|8,0:3|0:0,0:0:0:0:
432,291,61553,2,0,L|443:156,2,135,4|0|8,0:3|0:0|0:0,0:0:0:0:
363,341,63209,2,0,P|318:342|275:331,1,90,4|8,0:3|0:0,0:0:0:0:
213,271,64036,6,0,L|222:180,2,90,4|8|4,0:0|0:0|0:3,0:0:0:0:
128,287,65278,2,0,L|119:196,1,90,8|4,0:0|0:3,0:0:0:0:
114,112,66105,1,8,0:0:0:0:
186,65,66519,2,0,P|229:58|273:69,1,90,4|8,0:3|0:0,0:0:0:0:
349,109,67347,6,0,P|392:115|436:104,2,90,4|8|4,0:0|0:0|0:3,0:0:0:0:
273,70,68588,1,8,0:0:0:0:
224,140,69002,2,0,L|229:191,2,45,4|8|8,0:3|0:0|0:0,0:0:0:0:
158,84,69829,2,0,P|114:78|70:94,1,90,4|8,0:3|0:0,0:0:0:0:
24,164,70657,6,0,L|30:254,1,90,4|8,0:0|0:0,0:0:0:0:
116,253,71485,2,0,L|122:163,1,90,4|8,0:3|0:0,0:0:0:0:
158,84,72312,2,0,B|196:64|246:68|246:68|282:93,2,135,4|0|8,0:3|0:0|0:0,0:0:0:0:
122,163,73967,6,0,L|116:253,1,90,4|8,0:3|0:0,0:0:0:0:
181,308,74795,2,0,P|117:289|57:317,2,135,4|0|8,0:3|0:0|0:0,0:0:0:0:
260,339,76450,2,0,P|304:341|349:337,1,90,4|8,0:3|0:0,0:0:0:0:
411,277,77277,6,0,P|433:315|432:361,2,90,4|8|4,0:0|0:0|0:3,0:0:0:0:
350,215,78519,2,0,P|349:170|371:131,1,90,8|4,0:0|0:3,0:0:0:0:
420,62,79346,1,8,0:0:0:0:
335,51,79760,2,0,L|243:47,1,90,4|8,0:3|0:0,0:0:0:0:
169,86,80588,6,0,L|77:90,2,90,4|8|4,0:0|0:0|0:3,0:0:0:0:
241,131,81829,2,0,P|264:171|264:216,1,90,8|4,0:0|0:0,0:0:0:0:
199,269,82657,2,0,P|176:309|176:354,1,90,8|4,0:0|0:3,0:0:0:0:
255,381,83485,2,0,P|278:341|278:296,1,90,8|4,0:0|0:0,0:0:0:0:
256,192,84105,12,0,87209,0:0:0:0:
