osu file format v14

[General]
AudioFilename: audio.mp3
AudioLeadIn: 1521
PreviewTime: 56691
Countdown: 0
SampleSet: Soft
StackLeniency: 0.2
Mode: 0
LetterboxInBreaks: 0
WidescreenStoryboard: 0

[Editor]
Bookmarks: 7760,27622,47485,57416,70657,83898
DistanceSpacing: 2.2
BeatDivisor: 4
GridSize: 16
TimelineZoom: 1.5

[Metadata]
Title:Hello Alone (TV size)
TitleUnicode:Hello Alone (TV size)
Artist:Yukinoshita Yukino (CV.Hayami Saori) & Yuigahama Yui (CV.Toyama Nao)
ArtistUnicode:雪ノ下雪乃(CV.早見沙織)&由比ヶ浜結衣(CV.東山奈央)
Creator:Pata-Mon
Version:sahuang's Insane
Source:やはり俺の青春ラブコメはまちがっている。
Tags:IamKwaN My Angel Azusa Sahuang Hayami Touyama Yahari Ore no Seishun Love Comedy wa Machigatteiru oregairu my teen romantic comedy snafu Anime ED ending tv size
BeatmapID:1183492
BeatmapSetID:558287

[Difficulty]
HPDrainRate:5.5
CircleSize:4.2
OverallDifficulty:7.5
ApproachRate:8.3
SliderMultiplier:1.45
SliderTickRate:1

[Events]
//Background and Video events
Video,60,"video.flv"
0,0,"BG.png",0,0
//Break Periods
//Storyboard Layer 0 (Background)
//Storyboard Layer 1 (Fail)
//Storyboard Layer 2 (Pass)
//Storyboard Layer 3 (Foreground)
//Storyboard Sound Samples

[TimingPoints]
-515,413.793103448276,4,2,1,50,1,0
1140,-117.647058823529,4,2,1,45,0,0
4450,-90.9090909090909,4,2,1,55,0,0
7760,-100,4,2,1,50,0,0
27312,-66.6666666666667,4,2,1,70,0,0
27622,-66.6666666666667,4,2,1,10,0,0
28036,-90.9090909090909,4,2,1,55,0,0
39209,-76.9230769230769,4,2,1,55,0,0
40864,-100,4,2,1,55,0,0
45622,-76.9230769230769,4,2,1,55,0,0
47485,-111.111111111111,4,2,1,45,0,0
48933,-90.9090909090908,4,2,1,45,0,0
50795,-100,4,2,1,45,0,0
52243,-76.9230769230769,4,2,1,45,0,0
54105,-83.3333333333333,4,2,1,45,0,0
57416,-80,4,2,1,65,0,1
70450,-80,4,2,1,50,0,0
70657,-80,4,2,1,65,0,1
83898,-100,4,2,1,50,0,0
87209,-100,4,2,1,5,0,0

[Colours]
Combo1 : 192,192,223
Combo2 : 255,159,159
Combo3 : 127,127,159
Combo4 : 255,223,159

[HitObjects]
61,263,519,5,2,0:0:0:0:
61,263,622,1,2,0:0:0:0:
61,263,726,2,0,P|109:241|189:259,1,108.75,8|0,0:0|0:0,0:0:0:0:
173,255,1140,6,0,L|176:178,1,61.6250011754036,6|0,0:0|0:0,0:0:0:0:
270,114,1553,2,0,L|273:212,1,92.4375017631054,0|0,0:0|0:0,0:0:0:0:
274,220,1967,1,2,0:0:0:0:
368,298,2174,1,8,0:0:0:0:
254,346,2381,1,2,0:0:0:0:
379,290,2588,6,0,B|420:275|469:294|469:294|453:255,1,123.250002350807,2|8,0:0|0:0,0:0:0:0:
479,191,3105,1,0,0:0:0:0:
480,178,3209,2,0,L|487:140,1,30.8125005877018,2|0,0:0|0:0,0:0:0:0:
423,101,3416,2,0,L|418:71,1,30.8125005877018,2|0,0:0|0:0,0:0:0:0:
361,18,3622,1,8,0:0:0:0:
324,148,3829,1,8,0:0:0:0:
187,157,4036,1,8,0:0:0:0:
187,157,4140,1,2,0:0:0:0:
187,157,4243,1,2,0:0:0:0:
187,157,4347,1,0,0:0:0:0:
187,157,4450,6,0,P|141:155|98:169,1,79.7500024337769,12|2,0:0|0:0,0:0:0:0:
115,247,4760,2,0,P|161:249|204:235,1,79.7500024337769,12|2,0:0|0:0,0:0:0:0:
285,250,5071,2,0,B|293:293|293:293|284:371,1,119.625003650665,12|0,0:0|0:0,0:0:0:0:
368,360,5485,2,0,B|376:284,1,39.8750012168885,12|0,0:0|0:0,0:0:0:0:
431,260,5691,1,2,0:0:0:0:
431,242,5795,1,2,0:0:0:0:
431,224,5898,1,2,0:0:0:0:
431,207,6002,1,0,0:0:0:0:
431,189,6105,6,0,L|421:97,1,79.7500024337769,6|0,0:0|0:0,0:0:0:0:
270,4,6519,2,0,L|260:96,1,79.7500024337769,2|8,0:0|0:0,0:0:0:0:
282,160,6829,1,0,0:0:0:0:
282,160,6933,1,8,0:0:0:0:
167,33,7140,1,2,0:0:0:0:
135,171,7347,1,8,0:0:0:0:
135,188,7450,1,8,0:0:0:0:
136,206,7553,2,0,L|146:258,1,39.8750012168885,2|0,0:0|0:0,0:0:0:0:
132,324,7760,6,0,L|205:329,1,72.5,6|0,0:0|0:0,0:0:0:0:
309,367,8071,1,0,0:0:0:0:
319,356,8174,2,0,P|320:319|311:285,1,72.5,8|2,0:0|0:0,0:0:0:0:
256,220,8485,1,0,0:0:0:0:
256,220,8588,1,0,0:0:0:0:
414,290,8795,1,0,0:0:0:0:
238,331,9002,1,2,0:0:0:0:
368,187,9209,1,0,0:0:0:0:
368,187,9312,1,0,0:0:0:0:
368,187,9416,6,0,P|377:130|338:59,1,108.75,2|2,0:0|0:0,0:0:0:0:
351,72,9829,1,8,0:0:0:0:
256,220,10036,1,2,0:0:0:0:
256,220,10140,1,0,0:0:0:0:
256,220,10243,2,0,L|185:233,1,72.5,0|2,0:0|0:0,0:0:0:0:
291,141,10657,1,8,0:0:0:0:
113,289,10864,1,0,0:0:0:0:
113,289,10967,1,2,0:0:0:0:
113,289,11071,6,0,L|104:198,2,72.5,2|0|8,0:0|0:0|0:0,0:0:0:0:
24,146,11691,2,0,P|84:112|156:123,1,145,2|0,0:0|0:0,0:0:0:0:
28,246,12312,1,2,0:0:0:0:
7,56,12519,1,0,0:0:0:0:
156,123,12726,6,0,L|262:119,1,72.5,2|0,0:0|0:0,0:0:0:0:
302,159,13036,1,2,0:0:0:0:
314,168,13140,2,0,L|420:164,1,72.5,8|2,0:0|0:0,0:0:0:0:
286,42,13553,1,0,0:0:0:0:
286,42,13657,1,2,0:0:0:0:
286,42,13760,1,2,0:0:0:0:
386,165,13967,2,0,P|392:204|391:249,1,72.5,8|2,0:0|0:0,0:0:0:0:
215,357,14381,6,0,P|209:318|210:273,1,72.5,2|0,0:0|0:0,0:0:0:0:
244,209,14691,1,2,0:0:0:0:
244,209,14795,1,8,0:0:0:0:
132,330,15002,1,2,0:0:0:0:
132,330,15105,1,0,0:0:0:0:
132,330,15209,1,0,0:0:0:0:
105,204,15416,1,0,0:0:0:0:
105,204,15520,1,8,0:0:0:0:
105,204,15622,2,0,L|110:123,1,72.5,2|0,0:0|0:0,0:0:0:0:
294,24,16036,6,0,L|299:105,1,72.5,2|0,0:0|0:0,0:0:0:0:
335,173,16347,1,2,0:0:0:0:
343,184,16450,2,0,P|305:179|248:188,1,72.5,8|2,0:0|0:0,0:0:0:0:
154,269,16864,1,0,0:0:0:0:
242,384,17071,1,2,0:0:0:0:
357,296,17278,1,8,0:0:0:0:
277,190,17485,1,2,0:0:0:0:
277,190,17588,1,2,0:0:0:0:
277,190,17691,5,2,0:0:0:0:
464,210,17898,1,0,0:0:0:0:
391,28,18105,1,8,0:0:0:0:
262,193,18312,2,0,B|217:202|217:202|110:183,1,145,2|2,0:0|0:0,0:0:0:0:
269,122,18933,1,8,0:0:0:0:
269,139,19036,1,8,0:0:0:0:
268,157,19140,2,0,L|259:208,1,36.25,2|0,0:0|0:0,0:0:0:0:
235,271,19347,5,6,0:0:0:0:
46,166,19553,1,2,0:0:0:0:
46,166,19657,1,2,0:0:0:0:
46,166,19760,1,2,0:0:0:0:
71,320,19967,1,6,0:0:0:0:
71,320,20071,1,0,0:0:0:0:
71,320,20174,2,0,L|147:321,1,72.5,0|2,0:0|0:0,0:0:0:0:
321,354,20588,1,8,0:0:0:0:
321,354,20691,1,8,0:0:0:0:
321,354,20795,1,2,0:0:0:0:
321,354,21002,6,0,P|373:334|429:335,1,108.75,6|0,0:0|0:0,0:0:0:0:
436,343,21416,1,8,0:0:0:0:
502,136,21622,2,0,P|450:156|394:155,1,108.75,6|0,0:0|0:0,0:0:0:0:
387,147,22036,1,8,0:0:0:0:
299,68,22243,1,8,0:0:0:0:
152,105,22450,6,0,L|158:263,1,145,6|8,0:0|0:0,0:0:0:0:
117,323,22967,1,0,0:0:0:0:
107,333,23071,2,0,L|62:342,2,36.25,2|2|2,0:0|0:0|0:0,0:0:0:0:
289,335,23485,2,0,L|390:339,1,72.5,8|2,0:0|0:0,0:0:0:0:
430,289,23795,1,2,0:0:0:0:
428,275,23898,2,0,P|421:232|400:194,1,72.5,8|2,0:0|0:0,0:0:0:0:
336,161,24209,1,0,0:0:0:0:
336,161,24312,5,6,0:0:0:0:
327,273,24519,1,2,0:0:0:0:
480,154,24726,1,8,0:0:0:0:
250,106,24933,2,0,B|238:147|238:147|250:260,1,145,6|8,0:0|0:0,0:0:0:0:
416,206,25553,1,8,0:0:0:0:
250,106,25760,6,0,L|93:123,1,145,6|8,0:0|0:0,0:0:0:0:
27,253,26381,1,8,0:0:0:0:
27,253,26485,1,8,0:0:0:0:
27,253,26588,1,2,0:0:0:0:
27,253,26691,1,0,0:0:0:0:
27,253,26795,2,0,L|20:200,1,36.25,8|0,0:0|0:0,0:0:0:0:
101,157,27002,2,0,L|105:121,1,36.25,8|0,0:0|0:0,0:0:0:0:
29,85,27209,1,0,0:0:0:0:
37,74,27312,6,0,L|206:80,1,163.125006222725,8|0,0:0|0:0,0:0:0:0:
339,245,28036,6,0,L|324:159,1,79.7500024337769,6|0,0:0|0:0,0:0:0:0:
477,192,28450,1,2,0:0:0:0:
388,320,28657,1,2,0:0:0:0:
388,320,28760,1,0,0:0:0:0:
388,320,28864,2,0,P|341:334|296:326,1,79.7500024337769,8|0,0:0|0:0,0:0:0:0:
248,177,29278,6,0,P|295:163|340:171,1,79.7500024337769,2|2,0:0|0:0,0:0:0:0:
204,271,29691,1,8,0:0:0:0:
143,140,29898,1,2,0:0:0:0:
143,140,30002,1,0,0:0:0:0:
143,140,30105,2,0,L|43:165,1,79.7500024337769,0|2,0:0|0:0,0:0:0:0:
151,50,30519,2,0,L|251:75,1,79.7500024337769,8|0,0:0|0:0,0:0:0:0:
65,159,30933,5,2,0:0:0:0:
41,17,31140,1,0,0:0:0:0:
228,69,31347,1,8,0:0:0:0:
204,211,31554,1,0,0:0:0:0:
204,211,31657,1,0,0:0:0:0:
204,211,31760,2,0,P|209:259|245:300,1,79.7500024337769,2|2,0:0|0:0,0:0:0:0:
402,282,32174,1,8,0:0:0:0:
322,127,32381,1,0,0:0:0:0:
322,127,32484,1,2,0:0:0:0:
322,127,32588,6,0,L|333:30,1,79.7500024337769,2|0,0:0|0:0,0:0:0:0:
418,17,32898,1,2,0:0:0:0:
423,32,33002,2,0,P|467:24|508:36,1,79.7500024337769,8|2,0:0|0:0,0:0:0:0:
461,115,33312,1,0,0:0:0:0:
461,115,33416,1,0,0:0:0:0:
505,250,33622,1,2,0:0:0:0:
362,232,33829,1,8,0:0:0:0:
362,232,33933,1,0,0:0:0:0:
362,232,34036,1,0,0:0:0:0:
362,232,34243,6,0,L|273:247,1,79.7500024337769,2|0,0:0|0:0,0:0:0:0:
434,298,34657,1,8,0:0:0:0:
411,141,34864,1,0,0:0:0:0:
434,298,35071,1,2,0:0:0:0:
283,245,35278,1,2,0:0:0:0:
434,298,35485,2,0,L|441:382,1,79.7500024337769,8|0,0:0|0:0,0:0:0:0:
283,245,35898,6,0,L|290:161,1,79.7500024337769,2|2,0:0|0:0,0:0:0:0:
270,86,36209,1,0,0:0:0:0:
270,86,36312,1,8,0:0:0:0:
283,245,36519,2,0,P|200:259|117:253,1,159.500004867554,2|2,0:0|0:0,0:0:0:0:
34,163,37140,1,8,0:0:0:0:
53,332,37347,1,0,0:0:0:0:
197,213,37553,6,0,L|191:133,1,79.7500024337769,6|0,0:0|0:0,0:0:0:0:
415,266,37967,1,8,0:0:0:0:
298,310,38174,1,0,0:0:0:0:
321,176,38381,2,0,L|315:94,1,79.7500024337769,2|2,0:0|0:0,0:0:0:0:
204,220,38795,1,8,0:0:0:0:
204,220,38898,1,8,0:0:0:0:
204,220,39002,1,2,0:0:0:0:
204,220,39209,6,0,L|213:324,1,94.2499956855776,6|8,0:0|0:0,0:0:0:0:
175,384,39519,1,0,0:0:0:0:
175,384,39622,1,2,0:0:0:0:
316,245,39829,1,6,0:0:0:0:
108,193,40036,1,0,0:0:0:0:
293,356,40243,1,2,0:0:0:0:
383,161,40450,1,8,0:0:0:0:
383,161,40553,1,8,0:0:0:0:
383,161,40657,1,2,0:0:0:0:
383,161,40864,5,6,0:0:0:0:
438,84,41071,1,0,0:0:0:0:
383,8,41278,1,8,0:0:0:0:
293,37,41485,2,0,L|214:44,1,72.5,6|0,0:0|0:0,0:0:0:0:
293,131,41898,1,8,0:0:0:0:
293,131,42002,1,8,0:0:0:0:
293,131,42105,1,2,0:0:0:0:
293,131,42312,6,0,L|135:145,1,145,6|8,0:0|0:0,0:0:0:0:
3,96,42933,1,8,0:0:0:0:
93,220,43140,1,8,0:0:0:0:
93,220,43243,1,8,0:0:0:0:
93,220,43347,1,8,0:0:0:0:
93,67,43553,1,2,0:0:0:0:
3,190,43760,1,8,0:0:0:0:
3,190,43864,1,8,0:0:0:0:
3,190,43967,1,2,0:0:0:0:
3,190,44174,6,0,P|-3:267|17:341,1,145,6|8,0:0|0:0,0:0:0:0:
163,301,44795,2,0,P|169:224|149:150,1,145,6|8,0:0|0:0,0:0:0:0:
266,46,45416,1,8,0:0:0:0:
266,46,45622,6,0,B|336:57|395:32|395:32|350:82,1,188.499991371155,6|8,0:0|0:0,0:0:0:0:
315,229,46243,1,8,0:0:0:0:
412,172,46450,1,8,0:0:0:0:
412,172,46553,1,8,0:0:0:0:
412,172,46657,1,8,0:0:0:0:
356,74,46864,1,2,0:0:0:0:
258,131,47071,1,8,0:0:0:0:
258,131,47174,1,8,0:0:0:0:
258,131,47278,1,2,0:0:0:0:
258,131,47485,6,0,L|210:130,2,32.624999004364,0|0|2,0:0|0:0|0:0,0:0:0:0:
83,242,47898,2,0,P|137:248|163:256,1,65.2499980087281,6|0,0:0|0:0,0:0:0:0:
272,335,48312,1,6,0:0:0:0:
272,335,48416,1,8,0:0:0:0:
272,335,48519,1,2,0:0:0:0:
229,202,48726,1,8,0:0:0:0:
376,292,48933,6,0,P|434:274|416:182,1,159.500004867554,6|2,0:0|0:0,0:0:0:0:
286,69,49553,2,0,L|296:159,1,79.7500024337769,8|0,0:0|0:0,0:0:0:0:
174,56,49967,1,2,0:0:0:0:
378,32,50174,1,2,0:0:0:0:
162,179,50381,1,8,0:0:0:0:
366,155,50588,1,2,0:0:0:0:
174,56,50795,6,0,L|29:76,1,145,6|8,0:0|0:0,0:0:0:0:
222,135,51416,2,0,L|367:155,1,145,0|2,0:0|0:0,0:0:0:0:
488,268,52036,1,8,0:0:0:0:
227,322,52243,6,0,P|218:230|223:125,1,188.499991371155,6|2,0:0|0:0,0:0:0:0:
321,327,52864,2,0,L|213:321,1,94.2499956855776,8|0,0:0|0:0,0:0:0:0:
418,332,53278,1,2,0:0:0:0:
418,332,53381,1,8,0:0:0:0:
418,332,53485,1,2,0:0:0:0:
144,207,53691,1,8,0:0:0:0:
144,207,53795,1,8,0:0:0:0:
144,207,53898,1,2,0:0:0:0:
144,207,54105,6,0,L|265:196,1,86.9999973449708,6|8,0:0|0:0,0:0:0:0:
381,287,54519,1,2,0:0:0:0:
249,152,54726,2,0,L|109:164,1,130.499996017456,6|0,0:0|0:0,0:0:0:0:
40,170,55140,1,8,0:0:0:0:
198,43,55347,1,8,0:0:0:0:
166,276,55553,6,0,P|184:321|270:331,1,130.499996017456,6|0,0:0|0:0,0:0:0:0:
327,298,55967,1,2,0:0:0:0:
59,261,56174,1,2,0:0:0:0:
349,203,56381,1,2,0:0:0:0:
139,381,56588,1,2,0:0:0:0:
97,132,56795,1,0,0:0:0:0:
349,203,57002,2,0,L|390:199,5,28.9999991149903,0|0|0|0|0|0,0:0|0:0|0:0|0:0|0:0|0:0,0:0:0:0:
392,197,57416,6,0,L|381:80,1,90.625,6|0,0:0|0:0,0:0:0:0:
235,139,57829,1,8,0:0:0:0:
498,183,58036,1,2,0:0:0:0:
498,183,58140,1,8,0:0:0:0:
498,183,58243,2,0,L|487:300,1,90.625,2|2,0:0|0:0,0:0:0:0:
324,350,58657,1,8,0:0:0:0:
382,197,58864,1,0,0:0:0:0:
183,285,59071,6,0,B|138:299|138:299|17:283,1,135.9375,2|0,0:0|0:0,0:0:0:0:
32,283,59485,1,8,0:0:0:0:
235,139,59691,1,2,0:0:0:0:
253,139,59795,1,8,0:0:0:0:
271,139,59898,1,2,0:0:0:0:
289,140,60002,1,8,0:0:0:0:
307,140,60105,1,2,0:0:0:0:
183,285,60312,1,8,0:0:0:0:
101,92,60519,1,2,0:0:0:0:
325,141,60726,6,0,P|335:189|333:243,1,90.625,2|2,0:0|0:0,0:0:0:0:
91,181,61140,2,0,P|91:135|100:91,1,90.625,8|2,0:0|0:0,0:0:0:0:
225,202,61553,1,2,0:0:0:0:
225,202,61657,1,8,0:0:0:0:
225,202,61760,1,2,0:0:0:0:
246,34,61967,1,8,0:0:0:0:
91,181,62174,1,2,0:0:0:0:
325,141,62381,6,0,B|387:156|447:131|447:131|513:159,1,181.25,2|8,0:0|0:0,0:0:0:0:
378,9,63002,1,2,0:0:0:0:
443,233,63209,1,2,0:0:0:0:
443,251,63313,1,8,0:0:0:0:
443,269,63416,1,2,0:0:0:0:
442,287,63520,1,0,0:0:0:0:
442,305,63623,1,8,0:0:0:0:
325,141,63830,1,2,0:0:0:0:
298,341,64036,6,0,L|183:352,1,90.625,6|2,0:0|0:0,0:0:0:0:
10,203,64450,2,0,L|125:214,1,90.625,8|2,0:0|0:0,0:0:0:0:
295,62,64864,2,0,L|180:73,1,90.625,2|2,0:0|0:0,0:0:0:0:
10,203,65278,1,8,0:0:0:0:
212,248,65485,1,2,0:0:0:0:
212,248,65588,1,0,0:0:0:0:
212,248,65691,6,0,B|260:240|260:240|309:251,1,90.625,2|2,0:0|0:0,0:0:0:0:
406,239,66002,1,0,0:0:0:0:
420,227,66105,2,0,L|425:126,1,90.625,8|2,0:0|0:0,0:0:0:0:
341,70,66416,1,8,0:0:0:0:
329,84,66519,2,0,L|228:89,1,90.625,2|2,0:0|0:0,0:0:0:0:
115,192,66933,1,8,0:0:0:0:
255,13,67140,1,2,0:0:0:0:
91,85,67347,6,0,P|41:84|2:59,2,90.625,6|2|8,0:0|0:0|0:0,0:0:0:0:
238,256,67967,1,2,0:0:0:0:
238,238,68071,1,8,0:0:0:0:
238,220,68174,1,2,0:0:0:0:
237,202,68278,1,8,0:0:0:0:
237,184,68381,1,2,0:0:0:0:
65,8,68588,1,8,0:0:0:0:
306,90,68795,1,0,0:0:0:0:
79,196,69002,6,0,L|88:249,1,45.3125,6|0,0:0|0:0,0:0:0:0:
146,362,69209,2,0,L|155:309,1,45.3125,8|0,0:0|0:0,0:0:0:0:
248,267,69416,1,8,0:0:0:0:
266,267,69519,1,0,0:0:0:0:
284,266,69623,1,2,0:0:0:0:
302,266,69726,1,2,0:0:0:0:
312,281,69829,5,2,0:0:0:0:
330,281,69933,1,8,0:0:0:0:
348,280,70037,1,8,0:0:0:0:
366,280,70140,1,0,0:0:0:0:
384,280,70243,2,0,L|443:267,3,45.3125,8|8|2|2,0:0|0:0|0:0|0:0,0:0:0:0:
371,173,70657,6,0,B|351:122|377:63|377:63|354:90|311:90,1,181.25,6|8,0:0|0:0,0:0:0:0:
170,38,71278,1,2,0:0:0:0:
245,213,71485,1,2,0:0:0:0:
245,213,71588,1,8,0:0:0:0:
245,213,71691,1,2,0:0:0:0:
319,10,71898,1,8,0:0:0:0:
449,125,72105,1,2,0:0:0:0:
207,128,72312,6,0,L|109:141,1,90.625,2|2,0:0|0:0,0:0:0:0:
39,209,72622,1,0,0:0:0:0:
36,226,72726,2,0,B|38:272|38:272|58:322,1,90.625,8|2,0:0|0:0,0:0:0:0:
143,370,73036,1,8,0:0:0:0:
151,354,73140,2,0,L|153:301,2,45.3125,2|8|2,0:0|0:0|0:0,0:0:0:0:
106,176,73553,1,8,0:0:0:0:
274,291,73760,1,2,0:0:0:0:
291,64,73967,6,0,L|301:159,1,90.625,2|2,0:0|0:0,0:0:0:0:
97,267,74381,2,0,L|107:172,1,90.625,8|2,0:0|0:0,0:0:0:0:
291,64,74795,1,2,0:0:0:0:
291,64,74898,1,8,0:0:0:0:
291,64,75002,1,2,0:0:0:0:
117,97,75209,1,8,0:0:0:0:
300,154,75416,6,0,B|349:171|415:132|415:132|393:171|398:216,1,181.25,2|2,0:0|0:0,0:0:0:0:
474,55,76036,1,8,0:0:0:0:
398,278,76243,1,2,0:0:0:0:
380,278,76346,1,8,0:0:0:0:
362,277,76450,1,2,0:0:0:0:
344,277,76553,1,8,0:0:0:0:
326,277,76657,6,0,L|279:302,1,45.3125,2|0,0:0|0:0,0:0:0:0:
204,268,76864,2,0,L|205:222,1,45.3125,8|0,0:0|0:0,0:0:0:0:
278,174,77071,2,0,L|316:198,1,45.3125,2|0,0:0|0:0,0:0:0:0:
285,298,77278,6,0,L|296:394,1,90.625,6|2,0:0|0:0,0:0:0:0:
479,256,77691,2,0,L|490:160,1,90.625,8|2,0:0|0:0,0:0:0:0:
317,16,78105,2,0,L|328:112,1,90.625,2|2,0:0|0:0,0:0:0:0:
479,256,78519,1,8,0:0:0:0:
234,154,78726,1,2,0:0:0:0:
479,94,78933,5,2,0:0:0:0:
240,161,79140,1,2,0:0:0:0:
240,161,79243,1,0,0:0:0:0:
240,161,79347,1,8,0:0:0:0:
374,318,79553,1,2,0:0:0:0:
374,300,79656,1,8,0:0:0:0:
375,282,79760,1,2,0:0:0:0:
375,264,79863,1,8,0:0:0:0:
375,246,79967,1,2,0:0:0:0:
150,176,80174,2,0,L|240:161,1,90.625,8|2,0:0|0:0,0:0:0:0:
61,91,80588,5,6,0:0:0:0:
159,284,80795,1,2,0:0:0:0:
336,89,81002,1,8,0:0:0:0:
78,175,81209,1,2,0:0:0:0:
96,175,81312,1,8,0:0:0:0:
114,176,81416,1,2,0:0:0:0:
132,176,81519,1,8,0:0:0:0:
150,176,81623,1,2,0:0:0:0:
390,295,81829,2,0,L|397:183,1,90.625,8|2,0:0|0:0,0:0:0:0:
271,56,82243,5,6,0:0:0:0:
197,294,82450,1,8,0:0:0:0:
197,294,82553,1,0,0:0:0:0:
197,294,82657,1,8,0:0:0:0:
395,204,82864,2,0,L|336:202,1,45.3125,2|8,0:0|0:0,0:0:0:0:
227,165,83071,5,2,0:0:0:0:
200,165,83174,1,8,0:0:0:0:
173,163,83278,1,2,0:0:0:0:
146,163,83381,1,0,0:0:0:0:
118,163,83485,5,8,0:0:0:0:
85,180,83588,1,8,0:0:0:0:
66,210,83691,1,8,0:0:0:0:
63,246,83795,1,8,0:0:0:0:
74,280,83898,5,6,0:0:0:0:
256,192,84002,12,0,87209,0:0:0:0:
