osu file format v14

[General]
AudioFilename: audio.mp3
AudioLeadIn: 1521
PreviewTime: 56691
Countdown: 0
SampleSet: Soft
StackLeniency: 0.6
Mode: 0
LetterboxInBreaks: 0
WidescreenStoryboard: 0

[Editor]
Bookmarks: 7760,27622,47485,57416,70657,83898
DistanceSpacing: 1.3
BeatDivisor: 2
GridSize: 32
TimelineZoom: 1.5

[Metadata]
Title:Hello Alone (TV size)
TitleUnicode:Hello Alone (TV size)
Artist:Yukinoshita Yukino (CV.Hayami Saori) & Yuigahama Yui (CV.Toyama Nao)
ArtistUnicode:雪ノ下雪乃(CV.早見沙織)&由比ヶ浜結衣(CV.東山奈央)
Creator:Pata-Mon
Version:Normal
Source:やはり俺の青春ラブコメはまちがっている。
Tags:IamKwaN My Angel Azusa Sahuang Hayami Touyama Yahari Ore no Seishun Love Comedy wa Machigatteiru oregairu my teen romantic comedy snafu Anime ED ending tv size
BeatmapID:1285134
BeatmapSetID:558287

[Difficulty]
HPDrainRate:4
CircleSize:3.5
OverallDifficulty:4
ApproachRate:5
SliderMultiplier:1.2
SliderTickRate:1

[Events]
//Background and Video events
Video,60,"video.flv"
0,0,"BG.png",0,0
//Break Periods
//Storyboard Layer 0 (Background)
//Storyboard Layer 1 (Fail)
//Storyboard Layer 2 (Pass)
//Storyboard Layer 3 (Foreground)
//Storyboard Sound Samples

[TimingPoints]
-515,413.793103448276,4,2,1,50,1,0
1140,-100,4,2,1,80,0,0
7760,-100,4,2,1,60,0,0
21002,-100,4,2,1,70,0,0
57416,-100,4,2,1,80,0,1
70450,-100,4,2,1,80,0,0
70657,-100,4,2,1,80,0,1
83898,-100,4,2,1,80,0,0
84002,-100,4,2,1,40,0,0
87209,-100,4,2,1,5,0,0

[Colours]
Combo1 : 192,192,223
Combo2 : 255,159,159
Combo3 : 127,127,159
Combo4 : 255,223,159

[HitObjects]
136,224,519,6,0,L|136:164,1,60,2|8,0:0|0:0,0:0:0:0:
242,49,1140,6,0,P|307:50|394:73,1,120,6|0,0:0|0:0,0:0:0:0:
452,187,1967,2,0,P|489:185|523:178,2,60,2|8|2,0:0|0:0|0:0,0:0:0:0:
385,144,2588,2,0,P|320:145|233:168,1,120,2|8,0:0|0:0,0:0:0:0:
202,201,3209,2,0,P|164:199|131:192,1,60,2|0,0:0|0:0,0:0:0:0:
100,130,3622,2,0,P|66:207|150:273,1,120,2|8,0:0|0:0,0:0:0:0:
221,295,4450,6,0,P|274:292|334:300,2,90,12|12|12,0:0|0:0|0:0,0:0:0:0:
147,322,5278,1,2,0:0:0:0:
147,322,5485,2,0,L|64:320,2,60,12|2|2,0:0|0:0|0:0,0:0:0:0:
158,245,6105,2,0,P|157:195|149:125,1,120,6|2,0:0|0:0,0:0:0:0:
287,52,6933,1,8,0:0:0:0:
287,52,7140,2,0,L|371:58,2,60,2|8|2,0:0|0:0|0:0,0:0:0:0:
266,127,7760,6,0,P|259:186|257:246,1,120,6|8,0:0|0:0,0:0:0:0:
262,324,8381,1,2,0:0:0:0:
414,358,8795,2,0,P|436:359|517:353,2,60,2|2|0,0:0|0:0|0:0,0:0:0:0:
410,280,9416,2,0,P|411:230|418:160,1,120,2|8,0:0|0:0,0:0:0:0:
379,92,10036,2,0,P|328:86|251:87,1,120,2|2,0:0|0:0,0:0:0:0:
197,133,10657,2,0,P|171:137|103:137,1,60,8|0,0:0|0:0,0:0:0:0:
82,83,11071,6,0,P|89:136|90:236,1,120,2|8,0:0|0:0,0:0:0:0:
82,279,11691,1,2,0:0:0:0:
235,248,12105,2,0,L|347:251,1,60,2|2,0:0|0:0,0:0:0:0:
436,318,12726,2,0,P|426:265|467:174,1,120,2|8,0:0|0:0,0:0:0:0:
493,142,13347,1,2,0:0:0:0:
380,34,13760,2,0,L|289:33,2,60,2|8|2,0:0|0:0|0:0,0:0:0:0:
399,110,14381,6,0,P|378:167|304:192,1,120,2|8,0:0|0:0,0:0:0:0:
250,178,15002,1,2,0:0:0:0:
172,42,15416,2,0,P|129:36|81:42,2,60,2|2|0,0:0|0:0|0:0,0:0:0:0:
222,101,16036,2,0,P|273:98|369:52,1,120,2|8,0:0|0:0,0:0:0:0:
390,17,16657,2,0,P|441:19|537:66,1,120,2|2,0:0|0:0,0:0:0:0:
512,122,17278,2,0,L|504:190,1,60,8|2,0:0|0:0,0:0:0:0:
444,231,17691,6,0,P|392:233|297:280,1,120,2|8,0:0|0:0,0:0:0:0:
276,315,18312,1,2,0:0:0:0:
125,272,18726,2,0,P|90:269|41:274,2,60,2|8|2,0:0|0:0|0:0,0:0:0:0:
175,211,19347,2,0,P|186:177|191:115,2,90,6|2|6,0:0|0:0|0:0,0:0:0:0:
100,348,20381,1,2,0:0:0:0:
100,348,20588,2,0,L|179:341,1,60,8|2,0:0|0:0,0:0:0:0:
218,290,21002,6,0,P|274:288|339:302,1,120,6|8,0:0|0:0,0:0:0:0:
409,273,21622,2,0,P|423:230|424:144,1,120,6|8,0:0|0:0,0:0:0:0:
386,87,22243,1,8,0:0:0:0:
312,113,22450,2,0,P|251:118|151:104,1,120,6|8,0:0|0:0,0:0:0:0:
116,94,23071,2,0,P|79:96|32:110,1,60,2|2,0:0|0:0,0:0:0:0:
12,165,23485,2,0,L|21:246,1,60,8|2,0:0|0:0,0:0:0:0:
25,302,23898,1,8,0:0:0:0:
163,373,24312,6,0,P|200:371|247:357,2,60,6|2|8,0:0|0:0|0:0,0:0:0:0:
109,315,24933,2,0,L|124:194,1,120,6|8,0:0|0:0,0:0:0:0:
135,118,25553,1,8,0:0:0:0:
205,84,25760,2,0,P|254:74|375:72,1,120,6|8,0:0|0:0,0:0:0:0:
399,90,26381,2,0,P|437:84|482:68,2,60,8|2|8,0:0|0:0|0:0,0:0:0:0:
343,145,27002,2,0,P|337:197|348:251,1,90,8|8,0:0|0:0,0:0:0:0:
70,249,28036,6,0,P|62:189|70:130,1,120,6|2,0:0|0:0,0:0:0:0:
102,58,28657,1,2,0:0:0:0:
177,79,28864,2,0,L|244:73,1,60,8|0,0:0|0:0,0:0:0:0:
295,21,29278,2,0,P|351:16|431:35,1,120,2|8,0:0|0:0,0:0:0:0:
477,71,29898,1,2,0:0:0:0:
436,221,30312,2,0,L|445:309,2,60,2|8|0,0:0|0:0|0:0,0:0:0:0:
363,191,30933,6,0,P|307:186|227:205,1,120,2|8,0:0|0:0,0:0:0:0:
179,240,31553,1,0,0:0:0:0:
179,240,31760,2,0,L|89:237,2,60,2|2|8,0:0|0:0|0:0,0:0:0:0:
190,83,32588,2,0,L|100:80,2,60,2|0|8,0:0|0:0|0:0,0:0:0:0:
258,121,33209,2,0,P|313:121|375:98,1,120,2|2,0:0|0:0,0:0:0:0:
427,42,33829,2,0,L|494:48,1,60,8|0,0:0|0:0,0:0:0:0:
512,122,34243,6,0,P|510:181|497:249,1,120,2|8,0:0|0:0,0:0:0:0:
465,311,34864,1,0,0:0:0:0:
465,311,35071,2,0,L|398:305,1,60,2|2,0:0|0:0,0:0:0:0:
344,255,35485,2,0,L|277:261,1,60,8|0,0:0|0:0,0:0:0:0:
239,324,35898,2,0,P|169:348|97:324,1,120,2|8,0:0|0:0,0:0:0:0:
63,291,36519,1,2,0:0:0:0:
85,136,36933,2,0,P|83:106|75:52,2,60,2|8|0,0:0|0:0|0:0,0:0:0:0:
158,161,37553,6,0,P|208:159|276:143,1,120,6|8,0:0|0:0,0:0:0:0:
340,98,38174,1,0,0:0:0:0:
340,98,38381,2,0,L|421:100,2,60,2|2|8,0:0|0:0|0:0,0:0:0:0:
340,254,39209,2,0,L|421:256,2,60,6|8|2,0:0|0:0|0:0,0:0:0:0:
281,202,39829,2,0,P|237:198|136:233,1,120,6|2,0:0|0:0,0:0:0:0:
103,266,40450,1,8,0:0:0:0:
22,132,40864,6,0,P|24:58|37:0,1,120,6|8,0:0|0:0,0:0:0:0:
108,36,41485,2,0,P|182:34|240:21,1,120,6|8,0:0|0:0,0:0:0:0:
301,0,42105,1,2,0:0:0:0:
352,58,42312,2,0,P|362:116|363:176,1,120,6|8,0:0|0:0,0:0:0:0:
323,245,42933,2,0,L|227:251,1,60,8|2,0:0|0:0,0:0:0:0:
199,294,43347,2,0,L|103:288,1,60,8|2,0:0|0:0,0:0:0:0:
61,284,43760,1,8,0:0:0:0:
75,128,44174,6,0,L|219:137,1,120,6|8,0:0|0:0,0:0:0:0:
244,196,44795,2,0,L|388:187,1,120,6|8,0:0|0:0,0:0:0:0:
442,183,45416,1,8,0:0:0:0:
479,114,45622,2,0,P|473:54|441:-4,1,120,6|8,0:0|0:0,0:0:0:0:
372,29,46243,2,0,L|276:35,1,60,8|2,0:0|0:0,0:0:0:0:
248,78,46657,2,0,L|152:72,1,60,8|2,0:0|0:0,0:0:0:0:
110,68,47071,1,8,0:0:0:0:
18,194,47485,6,0,P|10:236|11:289,1,60,2|2,0:0|0:0,0:0:0:0:
73,296,47898,2,0,P|81:338|80:391,1,60,6|0,0:0|0:0,0:0:0:0:
155,382,48312,2,0,P|212:379|301:351,1,120,6|8,0:0|0:0,0:0:0:0:
318,299,48933,2,0,P|375:302|464:330,1,120,6|2,0:0|0:0,0:0:0:0:
477,251,49553,2,0,P|483:222|485:177,1,60,8|0,0:0|0:0,0:0:0:0:
451,121,49967,2,0,P|514:119|554:154,2,60,2|2|8,0:0|0:0|0:0,0:0:0:0:
380,156,50588,1,2,0:0:0:0:
310,121,50795,6,0,P|269:115|168:122,1,120,6|8,0:0|0:0,0:0:0:0:
131,169,51416,2,0,L|44:166,1,60,2|2,0:0|0:0,0:0:0:0:
3,128,51829,2,0,P|-2:96|0:57,1,60,2|8,0:0|0:0,0:0:0:0:
50,9,52243,2,0,L|224:15,1,120,6|2,0:0|0:0,0:0:0:0:
248,20,52864,1,8,0:0:0:0:
198,167,53278,2,0,L|111:164,1,60,2|2,0:0|0:0,0:0:0:0:
62,162,53691,1,8,0:0:0:0:
84,316,54105,6,0,L|171:319,2,60,6|8|2,0:0|0:0|0:0,0:0:0:0:
20,270,54726,2,0,P|2:200|4:128,1,120,6|8,0:0|0:0,0:0:0:0:
9,74,55347,1,8,0:0:0:0:
82,49,55553,2,0,P|153:60|253:57,1,120,6|2,0:0|0:0,0:0:0:0:
266,18,56174,2,0,P|296:11|367:13,2,60,2|2|2,0:0|0:0|0:0,0:0:0:0:
185,321,57416,6,0,P|237:329|330:323,1,120,6|8,0:0|0:0,0:0:0:0:
378,301,58036,1,2,0:0:0:0:
452,327,58243,2,0,P|483:329|549:317,2,60,2|2|8,0:0|0:0|0:0,0:0:0:0:
364,197,59071,2,0,P|375:114|374:55,1,120,2|8,0:0|0:0,0:0:0:0:
317,25,59691,2,0,L|227:28,1,60,2|2,0:0|0:0,0:0:0:0:
187,63,60105,1,2,0:0:0:0:
187,63,60312,2,0,L|97:60,1,60,8|2,0:0|0:0,0:0:0:0:
71,6,60726,6,0,P|83:60|78:140,1,120,2|8,0:0|0:0,0:0:0:0:
11,264,61553,2,0,P|152:263|212:209,1,120,2|8,0:0|0:0,0:0:0:0:
195,232,62174,1,2,0:0:0:0:
195,232,62381,2,0,L|336:244,1,120,2|8,0:0|0:0,0:0:0:0:
392,252,63002,1,2,0:0:0:0:
428,321,63209,2,0,P|435:354|432:390,2,60,2|2|8,0:0|0:0|0:0,0:0:0:0:
356,183,64036,6,0,P|349:150|350:46,1,120,6|8,0:0|0:0,0:0:0:0:
504,70,64864,2,0,P|511:103|510:207,1,120,2|8,0:0|0:0,0:0:0:0:
482,261,65485,2,0,L|394:266,1,60,2|2,0:0|0:0,0:0:0:0:
353,227,65898,1,2,0:0:0:0:
353,227,66105,2,0,L|265:222,1,60,8|2,0:0|0:0,0:0:0:0:
253,291,66519,2,0,P|217:310|98:311,1,120,2|8,0:0|0:0,0:0:0:0:
66,292,67140,1,2,0:0:0:0:
78,214,67347,6,0,L|91:61,2,120,6|8|2,0:0|0:0|0:0,0:0:0:0:
231,240,68588,2,0,L|237:163,1,60,8|0,0:0|0:0,0:0:0:0:
244,102,69002,2,0,P|276:92|325:92,1,60,6|8,0:0|0:0,0:0:0:0:
356,146,69416,2,0,P|388:156|437:156,1,60,8|2,0:0|0:0,0:0:0:0:
487,127,69829,1,2,0:0:0:0:
487,127,70036,2,0,L|495:203,2,60,8|8|2,0:0|0:0|0:0,0:0:0:0:
474,49,70657,6,0,P|417:27|327:28,1,120,6|8,0:0|0:0,0:0:0:0:
250,136,71485,2,0,P|217:142|167:140,1,60,2|2,0:0|0:0,0:0:0:0:
136,86,71898,2,0,P|103:80|53:82,1,60,8|0,0:0|0:0,0:0:0:0:
13,125,72312,2,0,P|22:188|17:286,1,120,2|8,0:0|0:0,0:0:0:0:
0,320,72933,2,0,P|33:326|83:324,1,60,2|2,0:0|0:0,0:0:0:0:
123,281,73347,1,2,0:0:0:0:
123,281,73553,2,0,P|156:275|206:277,1,60,8|2,0:0|0:0,0:0:0:0:
244,323,73967,6,0,P|224:267|230:179,1,120,2|8,0:0|0:0,0:0:0:0:
262,56,74795,2,0,P|318:76|406:70,1,120,2|8,0:0|0:0,0:0:0:0:
452,47,75416,1,2,0:0:0:0:
452,47,75622,2,0,P|472:103|466:191,1,120,2|8,0:0|0:0,0:0:0:0:
444,236,76243,1,2,0:0:0:0:
394,295,76450,2,0,L|395:359,2,60,2|2|8,0:0|0:0|0:0,0:0:0:0:
259,217,77278,6,0,P|199:213|139:218,1,120,6|8,0:0|0:0,0:0:0:0:
139,374,78105,2,0,P|199:378|259:373,1,120,2|8,0:0|0:0,0:0:0:0:
332,347,78726,2,0,L|337:247,1,60,2|2,0:0|0:0,0:0:0:0:
391,232,79140,1,2,0:0:0:0:
391,232,79347,2,0,L|386:132,1,60,8|2,0:0|0:0,0:0:0:0:
333,116,79760,2,0,P|288:107|187:114,1,120,2|8,0:0|0:0,0:0:0:0:
138,127,80381,1,2,0:0:0:0:
154,203,80588,6,0,P|157:263|149:349,2,120,6|8|2,0:0|0:0|0:0,0:0:0:0:
91,60,81829,2,0,L|202:53,1,60,8|0,0:0|0:0,0:0:0:0:
206,111,82243,2,0,L|317:118,2,60,6|8|8,0:0|0:0|0:0,0:0:0:0:
133,140,82864,1,2,0:0:0:0:
133,140,83071,2,0,P|135:179|151:223,1,60,2|2,0:0|0:0,0:0:0:0:
203,245,83485,2,0,P|201:284|185:328,1,60,8|8,0:0|0:0,0:0:0:0:
157,372,83898,5,6,0:0:0:0:
256,192,84002,12,0,87209,0:0:0:0:
