osu file format v14

[General]
AudioFilename: audio.mp3
AudioLeadIn: 1521
PreviewTime: 56691
Countdown: 0
SampleSet: Soft
StackLeniency: 0.5
Mode: 0
LetterboxInBreaks: 0
WidescreenStoryboard: 0

[Editor]
Bookmarks: 7760,27622,47485,57416,70657,83898
DistanceSpacing: 1.3
BeatDivisor: 4
GridSize: 32
TimelineZoom: 1.5

[Metadata]
Title:Hello Alone (TV size)
TitleUnicode:Hello Alone (TV size)
Artist:Yukinoshita Yukino (CV.Hayami Saori) & Yuigahama Yui (CV.Toyama Nao)
ArtistUnicode:雪ノ下雪乃(CV.早見沙織)&由比ヶ浜結衣(CV.東山奈央)
Creator:Pata-Mon
Version:Hard
Source:やはり俺の青春ラブコメはまちがっている。
Tags:IamKwaN My Angel Azusa Sahuang Hayami Touyama Yahari Ore no Seishun Love Comedy wa Machigatteiru oregairu my teen romantic comedy snafu Anime ED ending tv size
BeatmapID:1181646
BeatmapSetID:558287

[Difficulty]
HPDrainRate:5
CircleSize:3.8
OverallDifficulty:6
ApproachRate:7.5
SliderMultiplier:1.5
SliderTickRate:1

[Events]
//Background and Video events
Video,60,"video.flv"
0,0,"BG.png",0,0
//Break Periods
//Storyboard Layer 0 (Background)
//Storyboard Layer 1 (Fail)
//Storyboard Layer 2 (Pass)
//Storyboard Layer 3 (Foreground)
//Storyboard Sound Samples

[TimingPoints]
-515,413.793103448276,4,2,1,50,1,0
1140,-125,4,2,1,60,0,0
4450,-100,4,2,1,60,0,0
7760,-100,4,2,1,40,0,0
20588,-100,4,2,1,50,0,0
28036,-100,4,2,1,50,0,0
38795,-100,4,2,1,60,0,0
39209,-100,4,2,1,50,0,0
40450,-100,4,2,1,60,0,0
40864,-100,4,2,1,50,0,0
41898,-100,4,2,1,60,0,0
42312,-100,4,2,1,50,0,0
43140,-100,4,2,1,30,0,0
43347,-100,4,2,1,50,0,0
43760,-100,4,2,1,60,0,0
44174,-100,4,2,1,50,0,0
47071,-100,4,2,1,60,0,0
47485,-100,4,2,1,50,0,0
53691,-100,4,2,1,30,0,0
53898,-100,4,2,1,50,0,0
55967,-100,4,2,1,60,0,0
57416,-83.3333333333333,4,2,1,60,0,1
69002,-83.3333333333333,4,2,1,70,0,1
70036,-83.3333333333333,4,2,1,40,0,1
70243,-83.3333333333333,4,2,1,70,0,1
70450,-83.3333333333333,4,2,1,70,0,0
70657,-83.3333333333333,4,2,1,60,0,1
82243,-83.3333333333333,4,2,1,70,0,1
83278,-83.3333333333333,4,2,1,40,0,1
83485,-83.3333333333333,4,2,1,70,0,1
83898,-100,4,2,1,70,0,0
84002,-100,4,2,1,40,0,0
87209,-100,4,2,1,5,0,0

[Colours]
Combo1 : 192,192,223
Combo2 : 255,159,159
Combo3 : 127,127,159
Combo4 : 255,223,159

[HitObjects]
253,24,519,5,2,0:0:0:0:
257,28,622,1,2,0:0:0:0:
261,32,726,1,8,0:0:0:0:
261,32,1140,6,0,P|262:108|279:181,1,120,6|0,0:0|0:0,0:0:0:0:
437,62,1967,2,0,P|436:106|426:159,1,60,2|8,0:0|0:0,0:0:0:0:
402,200,2381,1,2,0:0:0:0:
501,290,2588,6,0,P|518:227|439:184,1,120,2|8,0:0|0:0,0:0:0:0:
402,200,3209,2,0,P|368:195|317:176,1,60,2|0,0:0|0:0,0:0:0:0:
214,155,3622,2,0,P|248:150|299:131,1,60,2|8,0:0|0:0,0:0:0:0:
329,80,4036,2,0,L|317:34,2,30,8|2|2,0:0|0:0|0:0,0:0:0:0:
343,188,4450,6,0,P|330:240|293:283,1,75,12|2,0:0|0:0,0:0:0:0:
272,273,4760,2,0,P|239:255|202:248,1,75,12|2,0:0|0:0,0:0:0:0:
154,257,5071,2,0,P|136:224|129:187,1,75,12|2,0:0|0:0,0:0:0:0:
170,98,5485,1,12,0:0:0:0:
92,39,5691,2,0,P|55:44|-12:69,1,75,2|2,0:0|0:0,0:0:0:0:
170,98,6105,6,0,P|207:93|274:68,1,75,6|0,0:0|0:0,0:0:0:0:
310,10,6519,2,0,P|347:15|414:40,2,75,2|0|8,0:0|0:0|0:0,0:0:0:0:
243,82,7140,1,2,0:0:0:0:
311,154,7347,1,8,0:0:0:0:
315,150,7450,1,8,0:0:0:0:
319,146,7553,1,2,0:0:0:0:
310,10,7760,6,0,P|337:112|263:178,1,150,6|8,0:0|0:0,0:0:0:0:
225,177,8381,1,2,0:0:0:0:
225,177,8795,1,0,0:0:0:0:
229,181,8898,1,8,0:0:0:0:
233,185,9002,2,0,P|277:182|310:166,1,75,2|0,0:0|0:0,0:0:0:0:
404,92,9416,6,0,P|402:170|428:268,1,150,2|8,0:0|0:0,0:0:0:0:
484,311,10036,2,0,P|414:293|270:317,1,150,2|2,0:0|0:0,0:0:0:0:
242,321,10657,2,0,L|133:306,1,75,8|0,0:0|0:0,0:0:0:0:
40,258,11071,5,2,0:0:0:0:
78,348,11278,2,0,L|71:384,2,37.5,0|2|8,0:0|0:0|0:0,0:0:0:0:
168,311,11691,2,0,P|183:229|179:121,1,150,2|0,0:0|0:0,0:0:0:0:
173,114,12209,1,8,0:0:0:0:
169,110,12312,1,2,0:0:0:0:
169,110,12726,6,0,P|249:124|340:119,1,150,2|8,0:0|0:0,0:0:0:0:
387,54,13347,1,2,0:0:0:0:
387,54,13760,1,2,0:0:0:0:
317,122,13967,1,8,0:0:0:0:
293,28,14174,1,2,0:0:0:0:
411,148,14381,6,0,P|332:218|232:170,1,150,2|8,0:0|0:0,0:0:0:0:
223,148,15002,1,2,0:0:0:0:
223,148,15416,1,0,0:0:0:0:
219,152,15519,1,8,0:0:0:0:
215,156,15622,1,2,0:0:0:0:
294,216,15829,1,0,0:0:0:0:
124,193,16036,6,0,P|103:257|121:384,1,150,2|8,0:0|0:0,0:0:0:0:
275,362,16657,2,0,P|296:298|278:171,1,150,2|2,0:0|0:0,0:0:0:0:
223,148,17278,1,8,0:0:0:0:
273,64,17485,1,2,0:0:0:0:
277,60,17588,1,2,0:0:0:0:
281,56,17691,6,0,P|345:47|444:61,1,150,2|8,0:0|0:0,0:0:0:0:
512,110,18312,1,2,0:0:0:0:
512,110,18726,1,2,0:0:0:0:
429,57,18933,2,0,L|359:54,2,37.5,8|8|2,0:0|0:0|0:0,0:0:0:0:
456,190,19347,6,0,L|316:184,2,112.5,6|2|6,0:0|0:0|0:0,0:0:0:0:
456,190,20381,1,2,0:0:0:0:
501,276,20588,1,8,0:0:0:0:
497,280,20691,1,8,0:0:0:0:
493,284,20795,1,2,0:0:0:0:
343,278,21002,6,0,L|511:285,1,150,6|8,0:0|0:0,0:0:0:0:
264,192,21622,2,0,L|430:169,1,150,6|8,0:0|0:0,0:0:0:0:
195,261,22243,1,8,0:0:0:0:
172,122,22450,6,0,L|332:71,1,150,6|8,0:0|0:0,0:0:0:0:
412,70,23071,2,0,P|423:56|432:27,2,37.5,2|2|2,0:0|0:0|0:0,0:0:0:0:
404,167,23485,2,0,P|408:214|426:262,1,75,8|2,0:0|0:0,0:0:0:0:
452,273,23795,1,2,0:0:0:0:
448,277,23898,2,0,L|356:286,1,75,8|2,0:0|0:0,0:0:0:0:
241,198,24312,6,0,L|333:207,2,75,6|2|8,0:0|0:0|0:0,0:0:0:0:
118,111,24933,2,0,L|302:96,1,150,6|8,0:0|0:0,0:0:0:0:
52,182,25553,1,8,0:0:0:0:
20,44,25760,6,0,L|199:-3,1,150,6|8,0:0|0:0,0:0:0:0:
263,5,26381,2,0,L|307:16,2,37.5,8|8|2,0:0|0:0|0:0,0:0:0:0:
215,90,26795,1,8,0:0:0:0:
300,138,27002,2,0,P|363:120|412:66,1,75,8|0,0:0|0:0,0:0:0:0:
401,77,27312,2,0,L|403:152,1,75,8|0,0:0|0:0,0:0:0:0:
403,152,28036,6,0,L|405:227,1,75,6|0,0:0|0:0,0:0:0:0:
323,281,28450,2,0,P|283:293|235:293,1,75,2|2,0:0|0:0,0:0:0:0:
153,282,28864,1,8,0:0:0:0:
212,204,29071,1,0,0:0:0:0:
72,122,29278,6,0,P|105:119|160:143,1,75,2|2,0:0|0:0,0:0:0:0:
212,204,29692,1,8,0:0:0:0:
240,111,29898,2,0,P|344:92|403:164,1,150,2|2,0:0|0:0,0:0:0:0:
401,208,30519,1,8,0:0:0:0:
307,182,30726,1,0,0:0:0:0:
470,139,30933,6,0,P|496:230|414:305,1,150,2|8,0:0|0:0,0:0:0:0:
393,332,31553,2,0,P|356:322|319:322,1,75,0|2,0:0|0:0,0:0:0:0:
235,371,31967,1,2,0:0:0:0:
151,322,32174,2,0,P|113:322|77:332,1,75,8|0,0:0|0:0,0:0:0:0:
235,273,32588,6,0,P|223:199|175:108,1,150,2|8,0:0|0:0,0:0:0:0:
104,88,33209,2,0,P|181:82|258:38,1,150,2|2,0:0|0:0,0:0:0:0:
335,13,33829,2,0,P|335:48|352:111,1,75,8|0,0:0|0:0,0:0:0:0:
501,31,34243,5,2,0:0:0:0:
505,35,34450,1,0,0:0:0:0:
438,106,34657,2,0,P|425:139|430:211,1,75,8|0,0:0|0:0,0:0:0:0:
496,243,35071,2,0,P|508:276|504:348,2,75,2|2|8,0:0|0:0|0:0,0:0:0:0:
422,178,35691,1,0,0:0:0:0:
512,41,35898,6,0,P|509:78|496:113,1,75,2|2,0:0|0:0,0:0:0:0:
422,178,36312,1,8,0:0:0:0:
338,127,36519,2,0,P|281:113|168:129,1,150,2|2,0:0|0:0,0:0:0:0:
109,176,37140,2,0,L|116:263,1,75,8|0,0:0|0:0,0:0:0:0:
12,143,37553,6,0,L|26:317,1,150,6|8,0:0|0:0,0:0:0:0:
105,348,38174,2,0,P|173:329|211:269,1,75,0|2,0:0|0:0,0:0:0:0:
212,236,38588,1,2,0:0:0:0:
295,185,38795,1,8,0:0:0:0:
299,181,38898,1,8,0:0:0:0:
303,177,39002,1,2,0:0:0:0:
192,67,39209,6,0,P|209:132|238:163,2,75,6|8|2,0:0|0:0|0:0,0:0:0:0:
303,177,39829,2,0,P|380:153|428:102,1,150,6|2,0:0|0:0,0:0:0:0:
472,17,40450,1,8,0:0:0:0:
476,21,40554,1,8,0:0:0:0:
480,25,40657,1,2,0:0:0:0:
507,158,40864,6,0,P|497:233|464:266,1,75,6|0,0:0|0:0,0:0:0:0:
441,310,41278,1,8,0:0:0:0:
397,180,41485,2,0,P|343:166|237:176,1,150,6|8,0:0|0:0,0:0:0:0:
208,198,42002,1,8,0:0:0:0:
204,202,42105,1,2,0:0:0:0:
56,209,42312,6,0,P|131:217|204:202,1,150,6|8,0:0|0:0,0:0:0:0:
264,125,42933,1,8,0:0:0:0:
361,138,43140,2,0,L|409:144,2,37.5,8|8|8,0:0|0:0|0:0,0:0:0:0:
264,125,43553,1,2,0:0:0:0:
301,215,43760,1,8,0:0:0:0:
305,219,43864,1,8,0:0:0:0:
309,223,43967,1,2,0:0:0:0:
324,48,44174,6,0,L|372:54,2,37.5,6|8|2,0:0|0:0|0:0,0:0:0:0:
264,125,44588,1,8,0:0:0:0:
398,143,44795,2,0,P|455:28|412:-31,1,150,6|8,0:0|0:0,0:0:0:0:
361,53,45416,1,8,0:0:0:0:
322,204,45622,6,0,P|353:291|445:329,1,150,6|8,0:0|0:0,0:0:0:0:
496,317,46243,2,0,L|516:213,1,75,8|2,0:0|0:0,0:0:0:0:
469,154,46657,1,8,0:0:0:0:
487,59,46864,1,2,0:0:0:0:
395,91,47071,2,0,L|343:81,2,37.5,8|8|2,0:0|0:0|0:0,0:0:0:0:
469,154,47485,6,0,L|521:164,2,37.5,0|8|2,0:0|0:0|0:0,0:0:0:0:
303,173,47898,2,0,L|407:193,1,75,6|0,0:0|0:0,0:0:0:0:
137,192,48312,2,0,L|241:212,1,75,6|2,0:0|0:0,0:0:0:0:
45,225,48726,1,8,0:0:0:0:
164,343,48933,6,0,P|204:278|211:206,1,150,6|2,0:0|0:0,0:0:0:0:
172,116,49553,2,0,L|186:11,1,75,8|0,0:0|0:0,0:0:0:0:
279,53,49967,2,0,L|265:158,1,75,2|2,0:0|0:0,0:0:0:0:
211,206,50381,1,8,0:0:0:0:
250,295,50588,1,2,0:0:0:0:
382,226,50795,6,0,L|285:215,1,75,6|2,0:0|0:0,0:0:0:0:
211,206,51209,1,8,0:0:0:0:
137,270,51416,2,0,P|97:279|50:275,1,75,0|2,0:0|0:0,0:0:0:0:
0,203,51829,2,0,L|12:86,1,75,2|8,0:0|0:0,0:0:0:0:
37,1,52243,6,0,P|75:57|197:40,1,150,6|2,0:0|0:0,0:0:0:0:
239,24,52864,2,0,L|327:33,1,75,8|0,0:0|0:0,0:0:0:0:
395,86,53278,2,0,L|439:81,2,37.5,2|8|2,0:0|0:0|0:0,0:0:0:0:
308,130,53691,1,8,0:0:0:0:
304,134,53795,1,8,0:0:0:0:
300,138,53898,1,2,0:0:0:0:
398,257,54105,6,0,P|396:207|377:168,1,75,6|8,0:0|0:0,0:0:0:0:
300,138,54519,1,2,0:0:0:0:
451,110,54726,2,0,P|483:178|488:291,1,150,6|8,0:0|0:0,0:0:0:0:
450,340,55347,1,8,0:0:0:0:
321,260,55553,6,0,P|382:256|436:285,1,75,6|0,0:0|0:0,0:0:0:0:
265,340,55967,1,2,0:0:0:0:
223,252,56174,1,2,0:0:0:0:
181,164,56381,1,2,0:0:0:0:
139,76,56588,1,2,0:0:0:0:
237,84,56795,5,0,0:0:0:0:
181,164,57002,2,0,P|117:171|59:132,1,75,0|0,0:0|0:0,0:0:0:0:
237,84,57416,6,0,P|332:80|459:109,1,179.999994506836,6|8,0:0|0:0,0:0:0:0:
509,149,58036,1,2,0:0:0:0:
505,153,58140,1,8,0:0:0:0:
501,157,58243,2,0,L|495:275,1,89.9999972534181,2|2,0:0|0:0,0:0:0:0:
397,290,58657,2,0,L|391:172,1,89.9999972534181,8|0,0:0|0:0,0:0:0:0:
292,158,59071,6,0,P|240:158|172:190,1,89.9999972534181,2|2,0:0|0:0,0:0:0:0:
118,236,59485,1,8,0:0:0:0:
50,152,59691,2,0,L|63:17,1,89.9999972534181,2|2,0:0|0:0,0:0:0:0:
96,22,60002,1,8,0:0:0:0:
100,26,60105,2,0,P|145:38|214:31,1,89.9999972534181,2|8,0:0|0:0,0:0:0:0:
291,4,60519,1,2,0:0:0:0:
315,183,60726,6,0,P|279:146|270:80,1,89.9999972534181,2|2,0:0|0:0,0:0:0:0:
291,4,61140,2,0,P|345:22|406:15,1,89.9999972534181,8|2,0:0|0:0,0:0:0:0:
429,4,61450,1,8,0:0:0:0:
433,8,61553,2,0,L|428:112,1,89.9999972534181,2|2,0:0|0:0,0:0:0:0:
417,205,61967,1,8,0:0:0:0:
332,272,62174,6,0,P|285:282|200:261,1,89.9999972534181,2|2,0:0|0:0,0:0:0:0:
149,224,62588,1,2,0:0:0:0:
55,278,62795,1,8,0:0:0:0:
55,170,63002,1,2,0:0:0:0:
59,166,63105,1,0,0:0:0:0:
63,162,63209,2,0,L|63:34,2,89.9999972534181,2|2|8,0:0|0:0|0:0,0:0:0:0:
149,224,63829,1,2,0:0:0:0:
255,103,64036,6,0,P|195:108|145:126,1,89.9999972534181,6|2,0:0|0:0,0:0:0:0:
149,224,64450,2,0,P|209:229|259:247,1,89.9999972534181,8|2,0:0|0:0,0:0:0:0:
267,282,64760,1,8,0:0:0:0:
271,286,64864,2,0,L|395:271,1,89.9999972534181,2|2,0:0|0:0,0:0:0:0:
467,260,65278,1,8,0:0:0:0:
401,175,65485,2,0,P|390:109|448:29,1,89.9999972534181,2|2,0:0|0:0,0:0:0:0:
478,18,65898,5,2,0:0:0:0:
496,125,66105,1,8,0:0:0:0:
395,88,66312,1,2,0:0:0:0:
391,84,66416,1,8,0:0:0:0:
387,80,66519,2,0,P|336:77|269:100,1,89.9999972534181,2|2,0:0|0:0,0:0:0:0:
206,143,66933,1,8,0:0:0:0:
111,92,67140,1,2,0:0:0:0:
210,251,67347,6,0,L|214:359,2,89.9999972534181,6|2|8,0:0|0:0|0:0,0:0:0:0:
206,143,67967,1,2,0:0:0:0:
210,139,68071,1,8,0:0:0:0:
214,135,68174,2,0,P|184:126|138:128,2,44.999998626709,2|8|2,0:0|0:0|0:0,0:0:0:0:
304,197,68588,2,0,P|350:186|402:150,1,89.9999972534181,8|0,0:0|0:0,0:0:0:0:
481,3,69002,5,6,0:0:0:0:
481,111,69209,1,8,0:0:0:0:
481,219,69416,1,8,0:0:0:0:
386,165,69622,1,2,0:0:0:0:
382,169,69726,1,2,0:0:0:0:
378,173,69829,2,0,L|332:171,3,44.999998626709,2|8|8|0,0:0|0:0|0:0|0:0,0:0:0:0:
297,212,70243,2,0,L|251:210,3,44.999998626709,8|8|2|2,0:0|0:0|0:0|0:0,0:0:0:0:
208,178,70657,6,0,P|211:227|187:297,1,89.9999972534181,6|0,0:0|0:0,0:0:0:0:
130,349,71071,2,0,L|22:334,1,89.9999972534181,8|2,0:0|0:0,0:0:0:0:
15,293,71381,1,8,0:0:0:0:
15,293,71485,1,2,0:0:0:0:
87,213,71691,1,2,0:0:0:0:
124,111,71898,2,0,P|121:62|92:-10,1,89.9999972534181,8|0,0:0|0:0,0:0:0:0:
2,42,72312,6,0,P|5:91|34:163,1,89.9999972534181,2|2,0:0|0:0,0:0:0:0:
87,213,72726,1,8,0:0:0:0:
193,194,72933,2,0,P|244:197|300:218,1,89.9999972534181,2|2,0:0|0:0,0:0:0:0:
319,247,73243,1,8,0:0:0:0:
323,251,73347,1,2,0:0:0:0:
415,195,73553,2,0,P|427:161|427:87,1,89.9999972534181,8|2,0:0|0:0,0:0:0:0:
323,251,73967,6,0,P|324:295|339:338,1,89.9999972534181,2|2,0:0|0:0,0:0:0:0:
431,282,74381,2,0,P|430:238|415:195,1,89.9999972534181,8|2,0:0|0:0,0:0:0:0:
375,158,74691,1,8,0:0:0:0:
371,154,74795,2,0,P|294:147|231:195,1,89.9999972534181,2|2,0:0|0:0,0:0:0:0:
216,235,75209,1,8,0:0:0:0:
149,150,75416,6,0,P|104:142|61:153,1,89.9999972534181,2|2,0:0|0:0,0:0:0:0:
0,241,75829,1,2,0:0:0:0:
108,251,76036,1,8,0:0:0:0:
62,153,76243,1,2,0:0:0:0:
66,149,76347,1,8,0:0:0:0:
70,145,76450,2,0,L|80:81,2,44.999998626709,2|8|2,0:0|0:0|0:0,0:0:0:0:
108,251,76864,2,0,P|177:275|256:241,1,89.9999972534181,8|2,0:0|0:0,0:0:0:0:
190,78,77278,6,0,L|170:206,1,89.9999972534181,6|2,0:0|0:0,0:0:0:0:
277,205,77691,2,0,L|297:77,1,89.9999972534181,8|2,0:0|0:0,0:0:0:0:
299,61,78002,1,8,0:0:0:0:
303,57,78105,2,0,P|352:77|438:65,1,89.9999972534181,2|2,0:0|0:0,0:0:0:0:
492,48,78519,1,8,0:0:0:0:
468,153,78726,2,0,L|475:253,1,89.9999972534181,2|2,0:0|0:0,0:0:0:0:
482,351,79140,5,2,0:0:0:0:
383,307,79347,1,8,0:0:0:0:
292,372,79553,1,2,0:0:0:0:
288,376,79657,1,8,0:0:0:0:
284,380,79760,2,0,P|228:376|170:343,1,89.9999972534181,2|2,0:0|0:0,0:0:0:0:
128,280,80174,1,8,0:0:0:0:
90,381,80381,1,2,0:0:0:0:
234,261,80588,6,0,P|246:225|243:151,2,89.9999972534181,6|2|8,0:0|0:0|0:0,0:0:0:0:
128,280,81209,1,2,0:0:0:0:
124,284,81312,1,8,0:0:0:0:
120,288,81416,2,0,L|46:278,2,44.999998626709,2|8|2,0:0|0:0|0:0,0:0:0:0:
197,363,81829,2,0,P|280:359|326:319,1,89.9999972534181,8|0,0:0|0:0,0:0:0:0:
291,169,82243,5,6,0:0:0:0:
234,261,82450,1,8,0:0:0:0:
342,265,82657,1,8,0:0:0:0:
291,169,82864,1,2,0:0:0:0:
287,165,82967,1,8,0:0:0:0:
283,161,83071,2,0,L|292:91,3,44.999998626709,2|8|2|0,0:0|0:0|0:0|0:0,0:0:0:0:
245,84,83485,2,0,L|254:14,3,44.999998626709,8|8|8|8,0:0|0:0|0:0|0:0,0:0:0:0:
207,7,83898,5,6,0:0:0:0:
256,192,84002,12,0,87209,0:0:0:0:
