osu file format v14

[General]
AudioFilename: audio.mp3
AudioLeadIn: 1521
PreviewTime: 56691
Countdown: 0
SampleSet: Soft
StackLeniency: 0.4
Mode: 0
LetterboxInBreaks: 0
WidescreenStoryboard: 0

[Editor]
Bookmarks: 7760,27622,47485,57416,70657,83898
DistanceSpacing: 1.5
BeatDivisor: 4
GridSize: 32
TimelineZoom: 1.5

[Metadata]
Title:Hello Alone (TV size)
TitleUnicode:Hello Alone (TV size)
Artist:Yukinoshita Yukino (CV.Hayami Saori) & Yuigahama Yui (CV.Toyama Nao)
ArtistUnicode:雪ノ下雪乃(CV.早見沙織)&由比ヶ浜結衣(CV.東山奈央)
Creator:Pata-Mon
Version:Bye
Source:やはり俺の青春ラブコメはまちがっている。
Tags:IamKwaN My Angel Azusa Sahuang Hayami Touyama Yahari Ore no Seishun Love Comedy wa Machigatteiru oregairu my teen romantic comedy snafu Anime ED ending tv size
BeatmapID:1181002
BeatmapSetID:558287

[Difficulty]
HPDrainRate:6
CircleSize:4.5
OverallDifficulty:8
ApproachRate:9
SliderMultiplier:1.8
SliderTickRate:1

[Events]
//Background and Video events
Video,60,"video.flv"
0,0,"BG.png",0,0
//Break Periods
//Storyboard Layer 0 (Background)
//Storyboard Layer 1 (Fail)
//Storyboard Layer 2 (Pass)
//Storyboard Layer 3 (Foreground)
//Storyboard Sound Samples

[TimingPoints]
-515,413.793103448276,4,2,1,50,1,0
1140,-125,4,2,1,60,0,0
3829,-125,4,2,1,30,0,0
4036,-125,4,2,1,60,0,0
4450,-100,4,2,1,60,0,0
6726,-100,4,2,1,30,0,0
6933,-100,4,2,1,40,0,0
20588,-100,4,2,1,50,0,0
28036,-100,4,2,1,50,0,0
33519,-100,4,2,1,30,0,0
33622,-100,4,2,1,50,0,0
38795,-100,4,2,1,60,0,0
39209,-100,4,2,1,50,0,0
40450,-100,4,2,1,60,0,0
40864,-100,4,2,1,50,0,0
43140,-100,4,2,1,30,0,0
43347,-100,4,2,1,50,0,0
46450,-100,4,2,1,30,0,0
46657,-100,4,2,1,50,0,0
49967,-100,4,2,1,30,0,0
50174,-100,4,2,1,50,0,0
53691,-100,4,2,1,30,0,0
53898,-100,4,2,1,50,0,0
54312,-100,4,2,1,60,0,0
54726,-100,4,2,1,50,0,0
55967,-100,4,2,1,60,0,0
57416,-83.3333333333333,4,2,1,60,0,1
69002,-83.3333333333333,4,2,1,70,0,1
70036,-83.3333333333333,4,2,1,40,0,1
70243,-83.3333333333333,4,2,1,70,0,1
70450,-83.3333333333333,4,2,1,70,0,0
70657,-83.3333333333333,4,2,1,60,0,1
82243,-83.3333333333333,4,2,1,70,0,1
83278,-83.3333333333333,4,2,1,40,0,1
83485,-83.3333333333333,4,2,1,70,0,1
83898,-100,4,2,1,70,0,0
84002,-100,4,2,1,40,0,0
87209,-100,4,2,1,5,0,0

[Colours]
Combo1 : 192,192,223
Combo2 : 255,159,159
Combo3 : 127,127,159
Combo4 : 255,223,159

[HitObjects]
247,142,519,5,2,0:0:0:0:
250,145,622,1,2,0:0:0:0:
253,148,726,2,0,P|270:214|328:189,1,135,8|0,0:0|0:0,0:0:0:0:
388,96,1140,6,0,B|367:161|415:164|392:236,1,144,6|0,0:0|0:0,0:0:0:0:
163,351,1967,1,2,0:0:0:0:
146,244,2174,1,8,0:0:0:0:
184,142,2381,1,2,0:0:0:0:
363,302,2588,6,0,P|320:305|271:290,1,72,2|0,0:0|0:0,0:0:0:0:
163,351,3002,2,0,L|182:303,1,36,8|0,0:0|0:0,0:0:0:0:
146,244,3209,2,0,L|186:211,1,36,2|0,0:0|0:0,0:0:0:0:
184,142,3416,2,0,L|235:134,1,36,2|0,0:0|0:0,0:0:0:0:
373,114,3622,5,8,0:0:0:0:
305,199,3829,2,0,L|303:224,2,24,8|8|8,0:0|0:0|0:0,0:0:0:0:
294,127,4036,1,8,0:0:0:0:
297,124,4140,1,2,0:0:0:0:
300,121,4243,1,2,0:0:0:0:
134,135,4450,6,0,P|91:230|105:295,1,90,12|2,0:0|0:0,0:0:0:0:
215,99,4760,2,0,P|133:136|93:210,1,90,12|2,0:0|0:0,0:0:0:0:
300,121,5071,2,0,P|221:99|140:130,1,90,12|2,0:0|0:0,0:0:0:0:
226,234,5485,1,12,0:0:0:0:
93,213,5691,2,0,P|96:267|107:297,1,45,2|2,0:0|0:0,0:0:0:0:
226,234,5898,1,2,0:0:0:0:
36,151,6105,6,0,P|26:286|79:380,1,180,6|2,0:0|0:0,0:0:0:0:
226,234,6726,2,0,L|265:244,2,30,8|8|8,0:0|0:0|0:0,0:0:0:0:
194,298,6933,1,8,0:0:0:0:
36,151,7140,1,2,0:0:0:0:
258,170,7347,1,8,0:0:0:0:
226,234,7450,1,8,0:0:0:0:
194,298,7553,1,2,0:0:0:0:
449,118,7760,6,0,P|393:115|315:125,1,135,6|2,0:0|0:0,0:0:0:0:
258,170,8174,1,8,0:0:0:0:
426,364,8381,2,0,B|445:278|406:271|424:184,1,180,2|0,0:0|0:0,0:0:0:0:
449,118,8898,1,8,0:0:0:0:
421,95,9002,2,0,P|385:87|314:92,1,90,2|0,0:0|0:0,0:0:0:0:
146,149,9416,6,0,P|214:153|290:132,1,135,2|2,0:0|0:0,0:0:0:0:
332,89,9829,1,8,0:0:0:0:
87,58,10036,2,0,P|44:184|146:257,1,180,2|2,0:0|0:0,0:0:0:0:
332,89,10657,2,0,P|339:125|345:192,1,90,8|0,0:0|0:0,0:0:0:0:
339,250,10967,1,2,0:0:0:0:
336,253,11071,6,0,L|171:260,1,135,2|2,0:0|0:0,0:0:0:0:
128,264,11485,1,8,0:0:0:0:
332,89,11691,2,0,P|412:141|373:231,1,180,2|0,0:0|0:0,0:0:0:0:
336,253,12209,1,8,0:0:0:0:
301,245,12312,1,2,0:0:0:0:
135,46,12726,6,0,P|216:45|296:60,1,135,2|2,0:0|0:0,0:0:0:0:
332,89,13140,1,8,0:0:0:0:
141,241,13347,2,0,L|245:231,1,90,2|0,0:0|0:0,0:0:0:0:
302,225,13657,1,2,0:0:0:0:
305,228,13760,1,2,0:0:0:0:
135,46,13967,1,8,0:0:0:0:
17,129,14174,1,2,0:0:0:0:
14,132,14278,1,2,0:0:0:0:
11,135,14381,6,0,P|15:214|41:290,1,135,2|2,0:0|0:0,0:0:0:0:
70,328,14795,1,8,0:0:0:0:
280,238,15002,2,0,P|191:241|91:269,1,180,2|0,0:0|0:0,0:0:0:0:
70,328,15519,1,8,0:0:0:0:
89,359,15622,2,0,P|129:366|192:366,1,90,2|0,0:0|0:0,0:0:0:0:
409,169,16036,6,0,P|348:158|254:158,1,135,2|2,0:0|0:0,0:0:0:0:
204,172,16450,1,8,0:0:0:0:
457,311,16657,2,0,L|460:196,1,90,2|0,0:0|0:0,0:0:0:0:
469,76,17071,1,2,0:0:0:0:
237,247,17278,1,8,0:0:0:0:
261,46,17485,1,2,0:0:0:0:
264,43,17588,1,2,0:0:0:0:
267,40,17691,6,0,P|369:44|425:58,1,135,2|2,0:0|0:0,0:0:0:0:
469,76,18105,1,8,0:0:0:0:
327,250,18312,2,0,L|238:247,1,90,2|0,0:0|0:0,0:0:0:0:
164,246,18622,1,2,0:0:0:0:
161,249,18726,1,2,0:0:0:0:
389,199,18933,1,8,0:0:0:0:
397,234,19036,1,8,0:0:0:0:
405,269,19140,1,2,0:0:0:0:
161,249,19347,5,6,0:0:0:0:
244,125,19553,1,2,0:0:0:0:
247,128,19657,1,2,0:0:0:0:
250,131,19760,1,2,0:0:0:0:
211,344,19967,2,0,P|149:356|67:302,1,90,6|0,0:0|0:0,0:0:0:0:
68,303,20278,1,2,0:0:0:0:
65,300,20381,1,2,0:0:0:0:
250,131,20588,1,8,0:0:0:0:
237,202,20691,1,8,0:0:0:0:
224,273,20795,1,2,0:0:0:0:
426,112,21002,6,0,P|332:108|250:131,1,180,6|8,0:0|0:0,0:0:0:0:
48,292,21622,2,0,P|142:296|224:273,1,180,6|8,0:0|0:0,0:0:0:0:
282,45,22243,1,8,0:0:0:0:
450,208,22450,6,0,P|435:376|381:448,1,180,6|8,0:0|0:0,0:0:0:0:
356,159,23071,1,2,0:0:0:0:
359,156,23174,1,2,0:0:0:0:
362,153,23278,1,2,0:0:0:0:
431,382,23485,1,8,0:0:0:0:
362,153,23691,1,2,0:0:0:0:
388,127,23795,1,2,0:0:0:0:
414,101,23898,1,8,0:0:0:0:
284,231,24105,1,2,0:0:0:0:
440,75,24312,6,0,L|367:76,1,45,6|2,0:0|0:0,0:0:0:0:
442,190,24519,1,2,0:0:0:0:
256,101,24726,1,8,0:0:0:0:
392,353,24933,2,0,P|442:271|442:190,1,180,6|8,0:0|0:0,0:0:0:0:
256,101,25553,1,8,0:0:0:0:
113,279,25760,6,0,P|207:265|284:231,1,180,6|8,0:0|0:0,0:0:0:0:
357,2,26381,1,8,0:0:0:0:
297,42,26485,1,8,0:0:0:0:
256,101,26588,1,2,0:0:0:0:
442,190,26795,1,8,0:0:0:0:
297,42,27002,2,0,P|236:32|184:101,1,90,8|0,0:0|0:0,0:0:0:0:
256,191,27312,2,0,L|256:101,1,90,8|0,0:0|0:0,0:0:0:0:
256,101,28036,6,0,L|256:191,1,90,6|0,0:0|0:0,0:0:0:0:
256,264,28347,1,2,0:0:0:0:
259,267,28450,1,2,0:0:0:0:
375,181,28657,1,2,0:0:0:0:
149,101,28864,2,0,L|149:191,1,90,8|0,0:0|0:0,0:0:0:0:
375,181,29278,5,2,0:0:0:0:
283,43,29485,1,2,0:0:0:0:
259,267,29691,1,8,0:0:0:0:
481,204,29898,2,0,P|395:75|310:95,1,180,2|2,0:0|0:0,0:0:0:0:
259,267,30519,2,0,P|321:259|376:220,1,90,8|0,0:0|0:0,0:0:0:0:
375,181,30829,1,2,0:0:0:0:
378,184,30933,6,0,P|412:224|405:285,1,90,2|0,0:0|0:0,0:0:0:0:
368,316,31243,1,2,0:0:0:0:
365,319,31347,1,8,0:0:0:0:
190,224,31553,2,0,L|280:224,1,90,0|2,0:0|0:0,0:0:0:0:
98,311,31967,1,2,0:0:0:0:
140,112,32174,2,0,L|230:112,1,90,8|0,0:0|0:0,0:0:0:0:
101,171,32485,1,2,0:0:0:0:
104,174,32588,6,0,P|69:102|110:47,1,90,2|0,0:0|0:0,0:0:0:0:
95,29,32898,1,2,0:0:0:0:
98,26,33002,1,8,0:0:0:0:
220,188,33209,2,0,P|219:261|195:358,1,135,2|8,0:0|0:0,0:0:0:0:
171,384,33622,1,2,0:0:0:0:
27,170,33829,2,0,P|70:158|114:156,1,90,8|0,0:0|0:0,0:0:0:0:
324,219,34243,6,0,P|368:217|412:205,1,90,2|0,0:0|0:0,0:0:0:0:
220,188,34657,2,0,P|248:297|385:309,1,180,8|2,0:0|0:0,0:0:0:0:
412,205,35278,1,2,0:0:0:0:
191,84,35485,2,0,P|126:134|116:217,1,90,8|0,0:0|0:0,0:0:0:0:
107,210,35795,1,2,0:0:0:0:
110,213,35898,5,2,0:0:0:0:
263,92,36105,1,2,0:0:0:0:
59,62,36312,1,8,0:0:0:0:
288,197,36519,2,0,P|369:69|317:-2,1,180,2|2,0:0|0:0,0:0:0:0:
110,213,37140,2,0,P|112:275|125:341,1,90,8|0,0:0|0:0,0:0:0:0:
171,175,37450,1,2,0:0:0:0:
174,172,37553,6,0,P|198:96|145:46,1,135,6|0,0:0|0:0,0:0:0:0:
129,116,37967,1,8,0:0:0:0:
367,136,38174,1,0,0:0:0:0:
153,239,38381,1,2,0:0:0:0:
343,259,38588,1,2,0:0:0:0:
177,362,38795,1,8,0:0:0:0:
248,372,38898,1,8,0:0:0:0:
319,382,39002,1,2,0:0:0:0:
199,111,39209,5,6,0:0:0:0:
177,362,39416,1,8,0:0:0:0:
343,172,39622,1,2,0:0:0:0:
97,228,39829,2,0,P|257:255|329:196,1,180,6|2,0:0|0:0,0:0:0:0:
307,15,40450,1,8,0:0:0:0:
253,63,40553,1,8,0:0:0:0:
199,111,40657,1,2,0:0:0:0:
422,114,40864,6,0,P|396:63|350:19,1,90,6|0,0:0|0:0,0:0:0:0:
145,159,41278,1,8,0:0:0:0:
342,208,41485,2,0,P|341:159|317:96,1,90,6|0,0:0|0:0,0:0:0:0:
145,159,41898,1,2,0:0:0:0:
154,194,42002,1,2,0:0:0:0:
163,229,42105,1,2,0:0:0:0:
399,59,42312,6,0,P|309:30|251:72,1,135,6|0,0:0|0:0,0:0:0:0:
219,89,42726,1,8,0:0:0:0:
313,280,42933,1,8,0:0:0:0:
329,120,43140,1,8,0:0:0:0:
326,117,43243,1,8,0:0:0:0:
323,114,43347,1,8,0:0:0:0:
203,249,43553,1,2,0:0:0:0:
403,163,43760,1,2,0:0:0:0:
408,127,43864,1,2,0:0:0:0:
413,91,43967,1,2,0:0:0:0:
203,249,44174,6,0,L|216:317,2,45,6|8|2,0:0|0:0|0:0,0:0:0:0:
217,41,44588,1,8,0:0:0:0:
385,202,44795,2,0,P|325:222|249:193,1,90,6|0,0:0|0:0,0:0:0:0:
103,114,45209,1,8,0:0:0:0:
323,114,45416,1,8,0:0:0:0:
156,309,45622,6,0,P|115:237|107:171,1,135,6|0,0:0|0:0,0:0:0:0:
103,114,46036,1,8,0:0:0:0:
323,114,46243,1,8,0:0:0:0:
213,224,46450,1,8,0:0:0:0:
210,221,46553,1,8,0:0:0:0:
207,218,46657,1,8,0:0:0:0:
213,4,46864,1,2,0:0:0:0:
395,114,47071,1,2,0:0:0:0:
359,114,47174,1,2,0:0:0:0:
323,114,47278,1,2,0:0:0:0:
467,114,47485,6,0,L|512:114,2,45,0|8|2,0:0|0:0|0:0,0:0:0:0:
259,260,47898,2,0,P|322:257|376:241,1,90,6|0,0:0|0:0,0:0:0:0:
206,211,48209,1,2,0:0:0:0:
203,208,48312,2,0,L|158:208,2,45,6|8|2,0:0|0:0|0:0,0:0:0:0:
408,208,48726,1,8,0:0:0:0:
139,101,48933,6,0,P|52:186|109:305,1,180,6|2,0:0|0:0,0:0:0:0:
313,260,49553,1,8,0:0:0:0:
158,208,49760,1,0,0:0:0:0:
283,349,49967,1,2,0:0:0:0:
286,352,50071,1,8,0:0:0:0:
289,355,50174,1,2,0:0:0:0:
188,119,50381,1,8,0:0:0:0:
128,297,50588,1,2,0:0:0:0:
343,171,50795,5,6,0:0:0:0:
158,208,51002,1,2,0:0:0:0:
283,349,51209,1,8,0:0:0:0:
239,137,51416,2,0,L|229:92,2,45,0|8|2,0:0|0:0|0:0,0:0:0:0:
364,278,51829,1,2,0:0:0:0:
179,315,52036,1,8,0:0:0:0:
409,179,52243,6,0,P|469:249|450:345,1,180,6|2,0:0|0:0,0:0:0:0:
310,134,52864,2,0,P|388:72|451:78,1,90,8|0,0:0|0:0,0:0:0:0:
447,77,53174,1,2,0:0:0:0:
450,80,53278,2,0,L|495:80,2,45,2|8|2,0:0|0:0|0:0,0:0:0:0:
254,8,53691,1,8,0:0:0:0:
251,11,53795,1,8,0:0:0:0:
248,14,53898,1,2,0:0:0:0:
409,179,54105,5,6,0:0:0:0:
248,14,54312,1,8,0:0:0:0:
230,84,54416,1,8,0:0:0:0:
212,154,54519,1,2,0:0:0:0:
450,79,54726,2,0,P|400:71|335:100,1,90,6|0,0:0|0:0,0:0:0:0:
194,224,55140,1,8,0:0:0:0:
409,179,55347,1,8,0:0:0:0:
102,168,55553,6,0,P|100:277|146:320,1,135,6|0,0:0|0:0,0:0:0:0:
164,344,55967,1,2,0:0:0:0:
419,344,56174,1,2,0:0:0:0:
194,224,56381,1,2,0:0:0:0:
449,224,56588,1,2,0:0:0:0:
452,227,56795,5,0,0:0:0:0:
505,320,57002,2,0,L|505:350,5,30,0|0|0|0|0|0,0:0|0:0|0:0|0:0|0:0|0:0,0:0:0:0:
424,353,57416,6,0,P|372:351|316:330,1,107.999996704102,6|0,0:0|0:0,0:0:0:0:
174,151,57829,1,8,0:0:0:0:
353,175,58036,2,0,L|406:171,1,53.9999983520508,2|8,0:0|0:0,0:0:0:0:
267,238,58243,2,0,L|214:242,2,53.9999983520508,2|8|2,0:0|0:0|0:0,0:0:0:0:
476,274,58657,2,0,L|346:283,1,107.999996704102,8|0,0:0|0:0,0:0:0:0:
272,133,59071,5,2,0:0:0:0:
320,344,59278,1,2,0:0:0:0:
479,197,59485,1,8,0:0:0:0:
258,239,59691,2,0,L|182:233,1,53.9999983520508,2|8,0:0|0:0,0:0:0:0:
320,344,59898,2,0,L|396:350,1,53.9999983520508,2|8,0:0|0:0,0:0:0:0:
354,160,60105,1,2,0:0:0:0:
209,346,60312,1,8,0:0:0:0:
344,179,60519,1,2,0:0:0:0:
119,167,60726,6,0,P|98:258|154:331,1,107.999996704102,2|2,0:0|0:0,0:0:0:0:
334,198,61140,2,0,P|355:107|299:34,1,107.999996704102,8|2,0:0|0:0,0:0:0:0:
309,27,61450,1,8,0:0:0:0:
269,11,61553,2,0,L|215:6,2,53.9999983520508,2|8|2,0:0|0:0|0:0,0:0:0:0:
464,150,61967,1,8,0:0:0:0:
249,130,62174,2,0,L|195:125,1,53.9999983520508,2|0,0:0|0:0,0:0:0:0:
334,198,62381,6,0,P|355:149|351:95,1,107.999996704102,2|2,0:0|0:0,0:0:0:0:
187,284,62795,1,8,0:0:0:0:
388,203,63002,2,0,L|334:198,1,53.9999983520508,2|0,0:0|0:0,0:0:0:0:
195,125,63209,2,0,L|249:130,1,53.9999983520508,2|8,0:0|0:0,0:0:0:0:
187,284,63416,1,2,0:0:0:0:
95,68,63622,1,8,0:0:0:0:
249,130,63829,1,2,0:0:0:0:
33,222,64036,6,0,P|15:110|29:48,1,107.999996704102,6|2,0:0|0:0,0:0:0:0:
230,25,64450,2,0,P|248:137|234:199,1,107.999996704102,8|2,0:0|0:0,0:0:0:0:
218,206,64760,1,8,0:0:0:0:
247,238,64864,2,0,L|307:230,2,53.9999983520508,2|8|2,0:0|0:0|0:0,0:0:0:0:
61,249,65278,1,8,0:0:0:0:
230,323,65485,2,0,L|350:307,1,107.999996704102,2|2,0:0|0:0,0:0:0:0:
168,175,65898,5,2,0:0:0:0:
85,382,66105,1,8,0:0:0:0:
247,238,66312,2,0,L|307:230,1,53.9999983520508,2|8,0:0|0:0,0:0:0:0:
168,175,66519,2,0,L|108:183,1,53.9999983520508,2|8,0:0|0:0,0:0:0:0:
166,310,66726,1,2,0:0:0:0:
249,103,66933,1,8,0:0:0:0:
182,296,67140,1,2,0:0:0:0:
108,50,67347,5,6,0:0:0:0:
198,282,67553,1,2,0:0:0:0:
354,87,67760,2,0,P|300:87|248:104,1,107.999996704102,8|2,0:0|0:0,0:0:0:0:
413,143,68071,1,8,0:0:0:0:
452,161,68174,2,0,L|529:155,2,53.9999983520508,2|8|2,0:0|0:0|0:0,0:0:0:0:
234,27,68588,2,0,P|287:14|340:11,1,107.999996704102,8|0,0:0|0:0,0:0:0:0:
324,264,69002,6,0,L|314:360,1,53.9999983520508,6|0,0:0|0:0,0:0:0:0:
143,146,69209,2,0,L|133:50,1,53.9999983520508,8|0,0:0|0:0,0:0:0:0:
234,205,69416,2,0,L|224:301,1,53.9999983520508,8|0,0:0|0:0,0:0:0:0:
101,216,69622,5,2,0:0:0:0:
143,146,69726,1,2,0:0:0:0:
217,115,69829,2,0,P|246:114|284:126,1,53.9999983520508,2|8,0:0|0:0,0:0:0:0:
228,259,70036,2,0,L|173:256,2,35.9999989013672,8|8|8,0:0|0:0|0:0,0:0:0:0:
310,260,70243,5,8,0:0:0:0:
379,216,70347,1,8,0:0:0:0:
414,143,70450,1,2,0:0:0:0:
404,63,70553,1,2,0:0:0:0:
353,0,70657,6,0,P|299:2|201:35,1,107.999996704102,6|0,0:0|0:0,0:0:0:0:
273,231,71071,2,0,P|327:229|425:196,1,107.999996704102,8|2,0:0|0:0,0:0:0:0:
207,185,71381,1,8,0:0:0:0:
179,218,71485,2,0,L|185:287,1,53.9999983520508,2|8,0:0|0:0,0:0:0:0:
265,335,71691,1,2,0:0:0:0:
287,120,71898,1,8,0:0:0:0:
274,315,72105,1,2,0:0:0:0:
396,111,72312,5,2,0:0:0:0:
180,105,72519,1,2,0:0:0:0:
283,295,72726,1,8,0:0:0:0:
287,120,72933,2,0,L|288:66,1,53.9999983520508,2|8,0:0|0:0,0:0:0:0:
180,105,73140,2,0,L|179:159,1,53.9999983520508,2|8,0:0|0:0,0:0:0:0:
202,0,73347,1,2,0:0:0:0:
265,225,73553,1,8,0:0:0:0:
210,20,73760,1,2,0:0:0:0:
385,175,73967,6,0,P|436:189|490:190,1,107.999996704102,2|2,0:0|0:0,0:0:0:0:
218,40,74381,2,0,P|164:40|112:55,1,107.999996704102,8|2,0:0|0:0,0:0:0:0:
49,106,74691,1,8,0:0:0:0:
32,146,74795,2,0,L|38:218,2,53.9999983520508,2|8|2,0:0|0:0|0:0,0:0:0:0:
218,40,75209,1,8,0:0:0:0:
234,201,75416,2,0,L|240:273,1,53.9999983520508,2|0,0:0|0:0,0:0:0:0:
36,200,75622,6,0,P|99:185|152:188,1,107.999996704102,2|2,0:0|0:0,0:0:0:0:
336,218,76036,1,8,0:0:0:0:
165,384,76243,2,0,L|159:312,1,53.9999983520508,2|8,0:0|0:0,0:0:0:0:
234,201,76450,2,0,L|240:273,1,53.9999983520508,2|8,0:0|0:0,0:0:0:0:
89,248,76657,1,2,0:0:0:0:
257,95,76864,2,0,P|334:159|335:241,1,107.999996704102,8|2,0:0|0:0,0:0:0:0:
89,248,77278,6,0,L|77:104,1,107.999996704102,6|2,0:0|0:0,0:0:0:0:
335,163,77691,2,0,L|347:307,1,107.999996704102,8|2,0:0|0:0,0:0:0:0:
309,345,78002,1,8,0:0:0:0:
269,361,78105,2,0,L|197:355,2,53.9999983520508,2|8|2,0:0|0:0|0:0,0:0:0:0:
438,225,78519,1,8,0:0:0:0:
238,143,78726,2,0,L|250:287,1,107.999996704102,2|2,0:0|0:0,0:0:0:0:
438,225,79140,5,2,0:0:0:0:
294,63,79347,1,8,0:0:0:0:
326,231,79553,1,2,0:0:0:0:
336,273,79657,1,8,0:0:0:0:
346,315,79760,2,0,L|412:319,2,53.9999983520508,2|8|2,0:0|0:0|0:0,0:0:0:0:
128,204,80174,1,8,0:0:0:0:
294,63,80381,1,2,0:0:0:0:
167,304,80588,6,0,P|88:304|23:227,2,107.999996704102,6|2|8,0:0|0:0|0:0,0:0:0:0:
204,69,81209,2,0,L|208:15,1,53.9999983520508,2|8,0:0|0:0,0:0:0:0:
132,150,81416,2,0,L|128:204,1,53.9999983520508,2|8,0:0|0:0,0:0:0:0:
268,157,81622,1,2,0:0:0:0:
68,62,81829,1,8,0:0:0:0:
255,175,82036,2,0,L|339:167,1,53.9999983520508,2|0,0:0|0:0,0:0:0:0:
132,150,82243,6,0,L|128:204,1,53.9999983520508,6|0,0:0|0:0,0:0:0:0:
309,170,82450,2,0,L|302:117,1,53.9999983520508,8|0,0:0|0:0,0:0:0:0:
207,0,82656,2,0,L|214:53,1,53.9999983520508,8|0,0:0|0:0,0:0:0:0:
408,93,82864,5,2,0:0:0:0:
362,27,82967,1,8,0:0:0:0:
282,11,83071,1,2,0:0:0:0:
214,54,83174,1,8,0:0:0:0:
195,133,83278,2,0,L|202:186,2,35.9999989013672,2|2|2,0:0|0:0|0:0,0:0:0:0:
309,170,83485,6,0,L|302:117,1,53.9999983520508,8|8,0:0|0:0,0:0:0:0:
207,0,83691,2,0,L|214:53,1,53.9999983520508,8|8,0:0|0:0,0:0:0:0:
362,27,83898,5,6,0:0:0:0:
256,192,84002,12,0,87209,0:0:0:0:
