osu file format v14

[General]
AudioFilename: Kimi Merry Christmas.mp3
AudioLeadIn: 0
PreviewTime: 95775
Countdown: 0
SampleSet: Soft
StackLeniency: 0.7
Mode: 0
LetterboxInBreaks: 1
WidescreenStoryboard: 1

[Editor]
DistanceSpacing: 1.3
BeatDivisor: 4
GridSize: 4
TimelineZoom: 1.1

[Metadata]
Title:Kimi to Merry Christmas
TitleUnicode:君とMerry Christmas
Artist:Yukinoshita Yukino (CV.Hayami Saori) & Yuigahama Yui (CV.Touyama Nao)
ArtistUnicode:雪ノ下雪乃(CV.早見沙織)&由比ヶ浜結衣(CV.東山奈央)
Creator:Del05
Version:Whatever diff name xD
Source:やはり俺の青春ラブコメはまちがっている。
Tags:
BeatmapID:819813
BeatmapSetID:365570

[Difficulty]
HPDrainRate:7
CircleSize:4
OverallDifficulty:7
ApproachRate:9
SliderMultiplier:1.8
SliderTickRate:1

[Events]
//Background and Video events
0,0,"BG.jpg",0,0
//Break Periods
//Storyboard Layer 0 (Background)
//Storyboard Layer 1 (Fail)
//Storyboard Layer 2 (Pass)
//Storyboard Layer 3 (Foreground)
//Storyboard Sound Samples

[TimingPoints]
632,500,4,2,1,70,1,0
632,-133.333333333333,4,2,1,30,0,0
4632,-200,4,2,1,30,0,0
6632,-133.333333333333,4,2,1,30,0,0
28632,-166.666666666667,4,2,1,30,0,0
31637,413.793103448276,4,2,1,70,1,0
31637,-133.333333333333,4,2,1,40,0,0
38257,-100,4,2,1,70,0,0
51499,-125,4,2,1,70,0,0
64740,-111.111111111111,4,2,1,70,0,0
77981,-133.333333333333,4,2,1,70,0,0
87912,-100,4,2,1,70,0,0
96189,-100,4,2,1,60,0,1
107775,-100,4,2,1,60,0,0
109430,-100,4,2,1,60,0,1
125982,-100,4,2,1,70,0,0

[HitObjects]
200,52,632,5,0,0:0:0:0:
156,128,882,1,0,0:0:0:0:
216,192,1132,2,0,B|276:220|324:196|324:196|340:172,1,135.000005149842
420,20,2132,1,0,0:0:0:0:
420,20,2382,1,0,0:0:0:0:
336,109,2632,6,0,L|336:176,1,67.5000025749208
296,256,3132,1,0,0:0:0:0:
224,204,3382,1,0,0:0:0:0:
176,276,3632,2,0,P|139:221|151:156,1,135.000005149842
248,224,4632,6,0,P|250:326|85:283,1,315
176,276,6632,6,0,L|144:192,1,67.5000025749208
140,124,7132,1,0,0:0:0:0:
248,152,7382,1,0,0:0:0:0:
220,48,7632,1,0,0:0:0:0:
248,224,8132,2,0,L|320:224,1,67.5000025749208
316,128,8632,6,0,P|252:136|180:112,1,135.000005149842
128,60,9382,2,0,L|124:128,1,67.5000025749208
144,204,9882,1,0,0:0:0:0:
196,264,10132,2,0,L|272:276,1,67.5000025749208
340,256,10632,6,0,P|372:200|336:112,1,135.000005149842
304,72,11382,1,0,0:0:0:0:
256,136,11632,2,0,L|176:120,1,67.5000025749208
108,124,12132,2,0,L|96:204,1,67.5000025749208
160,240,12632,6,0,P|196:288|280:292,1,135.000005149842
324,244,13382,1,0,0:0:0:0:
400,276,13632,1,0,0:0:0:0:
384,196,13882,1,0,0:0:0:0:
476,216,14132,2,0,L|476:132,1,67.5000025749208
428,84,14632,6,0,P|372:124|304:96,1,135.000005149842
236,64,15382,1,0,0:0:0:0:
192,132,15632,1,0,0:0:0:0:
140,68,15882,1,0,0:0:0:0:
84,128,16132,2,0,L|64:220,1,67.5000025749208
52,272,16632,6,0,P|112:264|184:328,1,135.000005149842
236,356,17382,1,0,0:0:0:0:
264,280,17632,2,0,L|336:288,1,67.5000025749208
312,208,18132,2,0,L|244:196,1,67.5000025749208
164,188,18632,6,0,L|144:40,1,135.000005149842
228,68,19382,1,0,0:0:0:0:
296,116,19632,2,0,L|312:188,1,67.5000025749208
392,188,20132,2,0,L|380:116,1,67.5000025749208
308,88,20632,6,0,L|168:104,1,135.000005149842
100,136,21382,2,0,L|124:48,1,67.5000025749208
88,148,21882,2,0,L|80:228,1,67.5000025749208
116,288,22382,1,0,0:0:0:0:
176,236,22632,6,0,P|188:280|288:324,1,135.000005149842
340,120,23382,1,0,0:0:0:0:
380,168,23632,1,0,0:0:0:0:
368,232,23882,1,0,0:0:0:0:
308,248,24132,2,0,L|224:236,1,67.5000025749208
164,212,24632,6,0,P|140:164|152:80,1,135.000005149842
220,112,25382,1,0,0:0:0:0:
300,104,25632,2,0,L|312:176,1,67.5000025749208
356,104,26132,1,0,0:0:0:0:
420,56,26382,1,0,0:0:0:0:
472,116,26632,6,0,L|472:256,1,135.000005149842
392,272,27382,2,0,L|312:276,1,67.5000025749208
272,216,27882,1,0,0:0:0:0:
204,244,28132,1,0,0:0:0:0:
152,280,28382,1,0,0:0:0:0:
72,248,28632,6,0,P|56:196|112:100,1,161.999995056153
168,76,29632,2,0,P|156:140|392:196,1,377.999988464356
68,92,31637,6,0,L|64:180,1,67.5000025749208
76,240,32050,1,0,0:0:0:0:
140,192,32257,1,0,0:0:0:0:
216,164,32464,2,0,L|288:188,1,67.5000025749208
344,136,32878,1,0,0:0:0:0:
384,208,33085,1,0,0:0:0:0:
320,260,33292,5,0,0:0:0:0:
240,256,33499,1,0,0:0:0:0:
168,224,33705,2,0,L|164:144,1,67.5000025749208
188,80,34119,1,0,0:0:0:0:
244,140,34326,1,0,0:0:0:0:
320,112,34533,2,0,L|396:104,1,67.5000025749208
396,184,34947,5,0,0:0:0:0:
352,252,35154,1,0,0:0:0:0:
364,344,35361,1,0,0:0:0:0:
284,324,35568,1,0,0:0:0:0:
212,292,35774,1,0,0:0:0:0:
208,212,35981,1,0,0:0:0:0:
96,180,36188,1,0,0:0:0:0:
96,260,36395,1,0,0:0:0:0:
200,56,36602,5,0,0:0:0:0:
132,100,36809,1,0,0:0:0:0:
308,180,37016,1,0,0:0:0:0:
236,144,37223,1,0,0:0:0:0:
224,272,37430,1,0,0:0:0:0:
268,224,37637,2,0,L|296:232,2,26.2500010013581
216,188,38050,1,0,0:0:0:0:
132,120,38257,6,0,L|48:180,1,90
76,280,38671,2,0,L|160:320,1,90
188,196,39085,2,0,L|248:124,1,90,2|0,0:0|0:0,0:0:0:0:
336,108,39499,1,8,0:0:0:0:
336,212,39705,1,2,0:0:0:0:
404,296,39912,6,0,L|452:216,1,90
356,272,40326,2,0,L|272:336,1,90
176,308,40740,1,0,0:0:0:0:
68,324,40947,1,0,0:0:0:0:
84,212,41154,2,0,L|80:120,1,90,8|2,0:0|0:0,0:0:0:0:
172,64,41568,6,0,P|200:104|320:100,1,180
376,56,42188,1,0,0:0:0:0:
444,140,42395,2,0,P|440:200|336:252,1,180
252,264,43016,1,0,0:0:0:0:
196,176,43223,6,0,L|184:68,1,90
84,92,43637,2,0,L|60:192,1,90
96,264,44050,1,0,0:0:0:0:
192,312,44257,1,0,0:0:0:0:
192,312,44361,1,0,0:0:0:0:
192,312,44464,1,0,0:0:0:0:
228,192,44671,1,0,0:0:0:0:
132,120,44878,6,0,L|48:180,1,90
76,280,45292,2,0,L|160:320,1,90
188,196,45706,2,0,L|248:124,1,90,2|0,0:0|0:0,0:0:0:0:
336,108,46120,1,8,0:0:0:0:
336,212,46326,1,2,0:0:0:0:
404,296,46533,6,0,L|452:216,1,90
356,272,46947,2,0,L|272:336,1,90
176,308,47361,1,0,0:0:0:0:
68,324,47568,1,0,0:0:0:0:
84,212,47775,2,0,L|80:120,1,90,8|2,0:0|0:0,0:0:0:0:
172,64,48189,6,0,P|200:104|320:100,1,180
376,56,48809,1,0,0:0:0:0:
444,140,49016,2,0,P|440:200|336:252,1,180
252,264,49637,1,0,0:0:0:0:
196,176,49844,6,0,L|184:68,1,90
84,92,50258,2,0,L|60:192,1,90
96,264,50671,1,0,0:0:0:0:
192,312,50878,1,0,0:0:0:0:
192,312,50982,1,0,0:0:0:0:
192,312,51085,1,0,0:0:0:0:
228,192,51292,1,0,0:0:0:0:
188,116,51499,6,0,P|240:88|340:96,1,144
396,136,52119,1,0,0:0:0:0:
432,216,52326,2,0,L|436:304,1,72
356,248,52740,1,0,0:0:0:0:
316,324,52947,1,0,0:0:0:0:
244,276,53154,6,0,L|248:188,1,72
160,200,53568,2,0,L|160:284,1,72
80,308,53981,2,0,L|76:156,1,144
116,88,54602,1,0,0:0:0:0:
188,136,54809,6,0,P|243:160|324:128,1,144
388,80,55430,1,0,0:0:0:0:
468,112,55637,2,0,L|488:192,1,72
400,200,56050,1,0,0:0:0:0:
412,284,56257,1,0,0:0:0:0:
336,320,56464,6,0,L|256:340,1,72
192,292,56878,2,0,L|196:208,1,72
132,164,57292,2,0,L|112:248,1,72
68,304,57705,1,0,0:0:0:0:
52,220,57912,1,0,0:0:0:0:
76,136,58119,6,0,L|240:140,1,144
216,56,58740,1,0,0:0:0:0:
288,100,58947,2,0,L|376:100,1,72
380,184,59361,1,0,0:0:0:0:
372,272,59568,1,0,0:0:0:0:
316,300,59774,6,0,L|144:296,1,144
96,256,60395,1,0,0:0:0:0:
176,224,60602,2,0,L|160:132,1,72
236,108,61016,2,0,L|240:184,1,72
284,256,61430,6,0,P|372:260|424:220,1,144
460,156,62050,1,0,0:0:0:0:
396,96,62257,2,0,L|244:96,1,144
168,80,62878,1,0,0:0:0:0:
104,140,63085,6,0,P|104:195|164:280,1,144
236,256,63705,1,0,0:0:0:0:
252,172,63912,1,0,0:0:0:0:
332,204,64119,1,2,0:0:0:0:
332,204,64223,1,2,0:0:0:0:
332,204,64326,1,8,0:0:0:0:
388,136,64533,1,2,0:0:0:0:
312,276,64740,6,0,P|280:224|176:184,1,161.999995056153
104,244,65361,1,0,0:0:0:0:
52,152,65568,1,0,0:0:0:0:
100,60,65774,1,0,0:0:0:0:
160,144,65981,2,0,L|240:148,1,80.9999975280763
196,52,66395,6,0,L|360:44,1,161.999995056153
444,108,67016,1,0,0:0:0:0:
412,160,67223,2,0,L|472:248,1,80.9999975280763
364,276,67637,2,0,L|336:196,1,80.9999975280763
268,120,68050,6,0,P|220:88|108:76,1,161.999995056153
216,180,68671,1,0,0:0:0:0:
120,140,68878,2,0,L|116:224,1,80.9999975280763
144,64,69292,1,0,0:0:0:0:
224,96,69499,1,0,0:0:0:0:
292,64,69705,6,0,P|332:104|432:148,1,161.999995056153
488,236,70326,1,0,0:0:0:0:
392,244,70533,2,0,L|440:316,1,80.9999975280763
356,320,70947,2,0,L|260:324,1,80.9999975280763
220,304,71361,6,0,P|220:268|192:140,1,161.999995056153
128,64,71981,1,0,0:0:0:0:
112,144,72188,2,0,L|120:236,1,80.9999975280763
60,256,72602,2,0,L|24:172,1,80.9999975280763
40,120,73016,6,0,P|60:80|168:64,1,161.999995056153
176,124,73637,1,0,0:0:0:0:
260,60,73843,1,0,0:0:0:0:
364,64,74050,1,0,0:0:0:0:
408,160,74257,2,0,L|320:160,1,80.9999975280763
316,240,74671,6,0,L|296:320,1,80.9999975280763
240,344,75085,1,0,0:0:0:0:
176,260,75292,2,0,L|140:100,1,161.999995056153
224,36,75912,1,0,0:0:0:0:
260,120,76119,6,0,P|284:148|404:152,1,161.999995056153
440,140,76740,1,0,0:0:0:0:
468,212,76947,1,0,0:0:0:0:
424,272,77154,1,0,0:0:0:0:
320,252,77361,1,0,0:0:0:0:
320,252,77464,1,0,0:0:0:0:
320,252,77568,1,0,0:0:0:0:
324,144,77981,6,0,P|236:112|192:112,1,135.000005149842
144,184,78602,2,0,L|152:332,1,135.000005149842
64,324,79223,1,0,0:0:0:0:
16,248,79430,1,0,0:0:0:0:
48,196,79637,6,0,P|44:156|96:72,1,135.000005149842
144,144,80257,1,0,0:0:0:0:
200,76,80464,1,0,0:0:0:0:
248,148,80671,1,0,0:0:0:0:
296,72,80878,2,0,L|368:80,1,67.5000025749208
376,152,81292,6,0,L|396:292,1,135.000005149842
332,348,81912,2,0,P|288:288|216:280,1,135.000005149842
144,264,82533,2,0,L|52:240,1,67.5000025749208
84,152,82947,5,0,0:0:0:0:
156,104,83154,1,0,0:0:0:0:
180,188,83361,1,0,0:0:0:0:
236,120,83568,1,0,0:0:0:0:
308,68,83774,1,0,0:0:0:0:
340,188,83981,1,0,0:0:0:0:
408,136,84188,2,0,L|424:68,1,67.5000025749208
476,148,84602,6,0,L|476:288,1,135.000005149842
392,316,85223,2,0,L|244:328,1,135.000005149842
168,320,85843,2,0,L|136:240,1,67.5000025749208
212,204,86257,6,0,P|136:200|56:176,1,135.000005149842
100,116,86878,2,0,P|104:72|196:56,1,135.000005149842
248,104,87499,2,0,L|284:184,1,67.5000025749208
392,176,87912,6,0,L|384:364,1,180
284,304,88533,1,0,0:0:0:0:
176,352,88740,2,0,L|144:256,1,90
64,184,89154,2,0,L|44:276,1,90
48,156,89568,6,0,P|48:104|160:64,1,180
192,96,90188,1,0,0:0:0:0:
264,56,90395,2,0,L|368:36,1,90
432,128,90809,2,0,L|320:152,1,90
372,260,91223,6,0,L|188:312,1,180
88,276,91843,1,0,0:0:0:0:
160,184,92050,2,0,L|152:84,1,90
256,36,92464,1,0,0:0:0:0:
336,124,92671,6,0,P|404:172|504:144,1,180
428,252,93292,2,0,L|448:356,1,90
360,256,93705,1,0,0:0:0:0:
244,244,93912,1,0,0:0:0:0:
140,296,94119,2,0,L|104:204,1,90
76,100,94533,5,0,0:0:0:0:
228,308,94740,1,0,0:0:0:0:
188,236,94947,1,0,0:0:0:0:
276,172,95154,1,0,0:0:0:0:
276,172,95257,1,0,0:0:0:0:
276,172,95361,1,0,0:0:0:0:
180,72,95568,1,0,0:0:0:0:
288,68,95774,1,0,0:0:0:0:
288,68,95878,1,0,0:0:0:0:
288,68,95981,1,0,0:0:0:0:
88,52,96189,6,0,P|80:116|96:244,1,180,2|8,0:0|0:0,0:0:0:0:
184,304,96810,1,2,0:0:0:0:
260,212,97017,2,0,L|268:100,1,90,2|0,0:0|0:0,0:0:0:0:
340,212,97430,2,0,L|340:308,1,90,8|0,0:0|0:0,0:0:0:0:
412,336,97844,6,0,P|448:272|456:160,1,180,0|8,0:0|0:0,0:0:0:0:
408,60,98465,1,0,0:0:0:0:
292,60,98671,2,0,L|320:160,1,90
204,184,99085,1,8,0:0:0:0:
96,124,99292,1,2,0:0:0:0:
44,216,99499,6,0,P|96:300|168:340,1,180,0|8,0:0|0:0,0:0:0:0:
280,352,100120,1,0,0:0:0:0:
272,236,100327,2,0,L|260:140,1,90
368,192,100740,1,0,0:0:0:0:
440,284,100947,1,0,0:0:0:0:
376,336,101154,6,0,P|340:284|232:300,1,180
128,348,101774,1,0,0:0:0:0:
48,264,101981,2,0,L|40:156,1,90
148,124,102395,1,0,0:0:0:0:
164,60,102602,1,0,0:0:0:0:
244,84,102809,6,0,P|232:132|296:244,1,180
400,284,103430,1,0,0:0:0:0:
396,168,103637,2,0,L|412:72,1,90
456,188,104050,2,0,L|476:288,1,90
384,352,104464,6,0,P|336:336|204:348,1,180
208,348,105085,1,0,0:0:0:0:
92,324,105292,2,0,L|92:228,1,90
192,176,105705,2,0,L|192:272,1,90
308,252,106119,6,0,P|324:188|416:128,1,180
380,16,106740,1,0,0:0:0:0:
264,32,106947,1,0,0:0:0:0:
264,92,107154,1,0,0:0:0:0:
152,60,107361,2,0,L|60:104,1,90
176,152,107774,5,0,0:0:0:0:
64,180,107981,1,0,0:0:0:0:
152,256,108188,2,0,L|160:348,1,90
276,364,108602,1,0,0:0:0:0:
288,260,108809,1,0,0:0:0:0:
288,260,108912,1,0,0:0:0:0:
288,260,109016,1,0,0:0:0:0:
288,260,109119,1,0,0:0:0:0:
288,260,109223,1,0,0:0:0:0:
288,260,109326,1,0,0:0:0:0:
328,232,109430,6,0,P|368:180|324:84,1,180
216,44,110050,1,0,0:0:0:0:
208,160,110257,2,0,L|164:80,1,90
48,80,110671,2,0,L|16:168,1,90
72,192,111085,6,0,P|116:188|160:312,1,180
256,372,111705,1,0,0:0:0:0:
344,296,111912,2,0,L|312:204,1,90
236,124,112326,1,0,0:0:0:0:
352,108,112533,1,0,0:0:0:0:
452,168,112740,6,0,P|460:128|360:32,1,180
296,84,113361,1,0,0:0:0:0:
200,148,113568,2,0,L|208:56,1,90
96,92,113981,1,0,0:0:0:0:
24,100,114188,1,0,0:0:0:0:
28,184,114395,6,0,L|96:360,1,180
208,332,115016,1,0,0:0:0:0:
160,224,115223,2,0,L|128:120,1,90
232,72,115637,1,0,0:0:0:0:
264,224,115843,1,0,0:0:0:0:
340,260,116050,6,0,P|392:200|452:96,1,180
336,76,116671,1,0,0:0:0:0:
288,144,116878,2,0,P|244:152|184:128,1,90
112,64,117292,2,0,P|72:72|24:112,1,90
32,216,117705,6,0,P|36:268|136:356,1,180
176,284,118326,1,0,0:0:0:0:
288,316,118533,2,0,L|304:216,1,90
304,108,118947,1,0,0:0:0:0:
188,196,119154,1,0,0:0:0:0:
124,140,119361,6,0,P|160:116|292:128,1,180
364,216,119981,1,0,0:0:0:0:
388,100,120188,2,0,L|384:0,1,90
484,72,120602,2,0,L|512:164,1,90
504,208,121016,6,0,P|468:176|388:256,1,180
352,360,121637,1,0,0:0:0:0:
244,316,121843,2,0,L|248:224,1,90
140,276,122257,2,0,L|64:220,1,90
148,136,122671,6,0,P|148:68|240:16,1,180
212,76,123292,1,0,0:0:0:0:
224,160,123499,1,0,0:0:0:0:
288,104,123705,1,0,0:0:0:0:
404,88,123912,2,0,L|412:184,1,90
396,296,124326,6,0,L|288:312,1,90
228,236,124740,1,0,0:0:0:0:
120,244,124947,1,0,0:0:0:0:
120,244,125050,1,0,0:0:0:0:
120,244,125154,1,0,0:0:0:0:
160,144,125361,1,0,0:0:0:0:
160,144,125464,1,0,0:0:0:0:
160,144,125568,1,0,0:0:0:0:
128,68,125774,1,0,0:0:0:0:
128,68,125878,1,0,0:0:0:0:
132,120,125981,6,0,L|48:180,1,90
76,280,126395,2,0,L|160:320,1,90
188,196,126809,2,0,L|248:124,1,90,2|0,0:0|0:0,0:0:0:0:
336,108,127223,1,8,0:0:0:0:
336,212,127429,1,2,0:0:0:0:
404,296,127636,6,0,L|452:216,1,90
356,272,128050,2,0,L|272:336,1,90
176,308,128464,1,0,0:0:0:0:
68,324,128671,1,0,0:0:0:0:
84,212,128878,2,0,L|80:120,1,90,8|2,0:0|0:0,0:0:0:0:
172,64,129292,6,0,P|200:104|320:100,1,180
376,56,129912,1,0,0:0:0:0:
444,140,130119,2,0,P|440:200|336:252,1,180
252,264,130740,1,0,0:0:0:0:
196,176,130947,6,0,L|184:68,1,90
84,92,131361,2,0,L|60:192,1,90
96,264,131774,1,0,0:0:0:0:
192,312,131981,1,0,0:0:0:0:
192,312,132085,1,0,0:0:0:0:
192,312,132188,1,0,0:0:0:0:
228,192,132395,1,0,0:0:0:0:
132,120,132602,6,0,L|48:180,1,90
76,280,133016,2,0,L|160:320,1,90
188,196,133430,2,0,L|248:124,1,90,2|0,0:0|0:0,0:0:0:0:
336,108,133844,1,8,0:0:0:0:
336,212,134050,1,2,0:0:0:0:
404,296,134257,6,0,L|452:216,1,90
356,272,134671,2,0,L|272:336,1,90
176,308,135085,1,0,0:0:0:0:
68,324,135292,1,0,0:0:0:0:
84,212,135499,2,0,L|80:120,1,90,8|2,0:0|0:0,0:0:0:0:
172,64,135913,6,0,P|200:104|320:100,1,180
376,56,136533,1,0,0:0:0:0:
444,140,136740,2,0,P|440:200|336:252,1,180
252,264,137361,1,0,0:0:0:0:
196,176,137568,6,0,L|184:68,1,90
84,92,137982,2,0,L|60:192,1,90
96,264,138395,1,0,0:0:0:0:
192,312,138602,1,0,0:0:0:0:
192,312,138706,1,0,0:0:0:0:
192,312,138809,1,0,0:0:0:0:
228,192,139016,1,0,0:0:0:0:
324,256,139223,5,0,0:0:0:0:
