osu file format v14

[General]
AudioFilename: Kimi Merry Christmas.mp3
AudioLeadIn: 0
PreviewTime: 95775
Countdown: 0
SampleSet: Soft
StackLeniency: 0.7
Mode: 0
LetterboxInBreaks: 1
WidescreenStoryboard: 1

[Editor]
DistanceSpacing: 1.3
BeatDivisor: 4
GridSize: 4
TimelineZoom: 0.6999999

[Metadata]
Title:Kimi to Merry Christmas
TitleUnicode:君とMerry Christmas
Artist:Yukinoshita Yukino (CV.Hayami Saori) & Yuigahama Yui (CV.Touyama Nao)
ArtistUnicode:雪ノ下雪乃(CV.早見沙織)&由比ヶ浜結衣(CV.東山奈央)
Creator:Del05
Version:Hard
Source:やはり俺の青春ラブコメはまちがっている。
Tags:
BeatmapID:802452
BeatmapSetID:365570

[Difficulty]
HPDrainRate:6
CircleSize:4
OverallDifficulty:6
ApproachRate:8
SliderMultiplier:1.5
SliderTickRate:1

[Events]
//Background and Video events
0,0,"BG.jpg",0,0
//Break Periods
2,28832,30887
//Storyboard Layer 0 (Background)
//Storyboard Layer 1 (Fail)
//Storyboard Layer 2 (Pass)
//Storyboard Layer 3 (Foreground)
//Storyboard Sound Samples

[TimingPoints]
632,500,4,2,1,70,1,0
632,-133.333333333333,4,2,1,30,0,0
4632,-200,4,2,1,30,0,0
6632,-125,4,2,1,30,0,0
31637,413.793103448276,4,2,1,70,1,0
31637,-125,4,2,1,70,0,0
38257,-100,4,2,1,70,0,0
51499,-125,4,2,1,70,0,0
64740,-111.111111111111,4,2,1,70,0,0
77981,-125,4,2,1,70,0,0
87912,-100,4,2,1,70,0,0
96189,-100,4,2,1,60,0,1
107775,-100,4,2,1,60,0,0
109430,-100,4,2,1,60,0,1
125982,-100,4,2,1,70,0,0

[HitObjects]
80,64,632,5,0,0:0:0:0:
80,64,882,1,0,0:0:0:0:
80,64,1132,2,0,B|76:160|76:160|92:184,1,112.500004291535
168,264,2132,2,0,L|224:272,1,56.2500021457673
276,332,2632,6,0,L|331:322,1,56.2500021457673
351,239,3132,2,0,L|295:247,1,56.2500021457673
412,292,3632,2,0,P|430:244|408:184,1,112.500004291535
332,120,4632,6,0,B|288:76|240:112|240:112|168:120|136:48|136:48|104:68,1,262.5
56,116,6632,6,0,L|48:256,2,120
188,36,8132,2,0,L|192:96,1,60
232,164,8632,6,0,B|328:160|328:160|346:145,1,120
404,92,9382,2,0,P|426:140|395:208,1,120
344,248,10132,2,0,L|280:256,1,60
208,232,10632,6,0,P|180:176|176:108,1,120
140,52,11382,1,0,0:0:0:0:
96,116,11632,2,0,P|89:175|62:228,1,120
4,280,12382,1,0,0:0:0:0:
60,336,12632,6,0,B|162:354|162:354|196:344,1,120
240,300,13382,1,0,0:0:0:0:
300,352,13632,2,0,P|332:360|364:360,1,60
424,288,14132,2,0,P|395:280|365:279,1,60
452,360,14632,6,0,P|495:313|483:240,1,120
444,200,15382,1,0,0:0:0:0:
380,244,15632,2,0,P|344:248|316:244,1,60
256,200,16132,2,0,P|220:195|192:200,1,60
144,256,16632,6,0,B|153:201|153:201|136:136,1,120
100,68,17382,1,0,0:0:0:0:
172,44,17632,2,0,B|272:32|272:32|304:44,1,120
352,88,18382,1,0,0:0:0:0:
300,144,18632,6,0,P|297:204|304:264,1,120
356,320,19382,1,0,0:0:0:0:
412,264,19632,2,0,L|420:188,1,60
484,120,20132,2,0,L|492:180,1,60
448,244,20632,6,0,P|387:230|320:253,1,120
168,224,21382,2,0,P|220:208|184:188,1,105.000004005432
168,136,22132,2,0,L|176:84,1,52.5000020027161
232,52,22632,6,0,P|244:96|288:144,1,105.000004005432
340,120,23382,1,0,0:0:0:0:
380,168,23632,1,0,0:0:0:0:
368,232,23882,1,0,0:0:0:0:
308,248,24132,2,0,L|232:236,1,52.5000020027161
192,248,24632,6,0,P|168:200|176:140,1,105.000004005432
220,112,25382,1,0,0:0:0:0:
280,92,25632,2,0,L|296:152,1,52.5000020027161
356,136,26132,2,0,L|352:72,1,52.5000020027161
408,116,26632,6,0,L|408:224,1,105.000004005432
364,268,27382,2,0,L|248:276,1,105.000004005432
204,244,28132,1,0,0:0:0:0:
152,280,28382,1,0,0:0:0:0:
108,236,28632,5,0,0:0:0:0:
56,124,31637,6,0,L|48:272,1,120
144,220,32464,2,0,L|164:112,1,105.000004005432
16,128,33292,6,0,L|24:256,1,120
280,316,34119,2,0,L|392:332,1,105.000004005432
404,204,34947,6,0,L|400:140,1,52.5000020027161
336,148,35361,2,0,L|316:88,1,52.5000020027161
256,108,35774,2,0,L|248:56,1,52.5000020027161
192,84,36188,2,0,L|164:136,1,52.5000020027161
136,184,36602,6,0,L|64:212,1,52.5000020027161
108,264,37016,2,0,L|172:272,1,52.5000020027161
224,272,37430,1,0,0:0:0:0:
268,224,37637,2,0,L|296:232,2,26.2500010013581
216,188,38050,1,0,0:0:0:0:
72,44,38257,6,0,P|56:96|60:184,1,140,2|8,0:0|0:0,0:0:0:0:
116,272,38878,1,2,0:0:0:0:
188,196,39085,2,0,L|244:132,1,70,2|0,0:0|0:0,0:0:0:0:
336,108,39499,1,8,0:0:0:0:
336,212,39705,1,2,0:0:0:0:
436,184,39912,6,0,P|436:232|380:316,1,140,2|8,0:0|0:0,0:0:0:0:
284,308,40533,1,2,0:0:0:0:
180,320,40740,2,0,L|184:244,1,70,2|0,0:0|0:0,0:0:0:0:
84,212,41154,2,0,L|108:144,1,70,8|2,0:0|0:0,0:0:0:0:
172,64,41568,6,0,P|200:104|296:104,1,140
376,56,42188,1,0,0:0:0:0:
420,152,42395,2,0,P|416:212|352:264,1,140
252,264,43016,1,0,0:0:0:0:
196,176,43223,6,0,L|184:84,1,70
84,92,43637,2,0,L|72:164,1,70
96,264,44050,1,0,0:0:0:0:
196,292,44257,2,0,L|160:324,2,35
228,192,44671,1,0,0:0:0:0:
72,44,44878,6,0,P|56:96|60:184,1,140
116,272,45499,1,0,0:0:0:0:
188,196,45706,2,0,L|244:132,1,70
336,108,46120,1,0,0:0:0:0:
336,212,46326,1,0,0:0:0:0:
436,184,46533,6,0,P|436:232|380:316,1,140
284,308,47154,1,0,0:0:0:0:
180,320,47361,2,0,L|184:244,1,70
84,212,47775,2,0,L|108:144,1,70
172,64,48189,6,0,P|200:104|296:104,1,140
376,56,48809,1,0,0:0:0:0:
420,152,49016,2,0,P|416:212|352:264,1,140
252,264,49637,1,0,0:0:0:0:
196,176,49844,6,0,L|184:84,1,70
84,92,50258,2,0,L|72:164,1,70
96,264,50671,1,0,0:0:0:0:
196,292,50878,2,0,L|160:324,2,35
228,192,51292,1,0,0:0:0:0:
188,116,51499,6,0,P|240:88|304:92,1,112
356,140,52119,1,0,0:0:0:0:
296,200,52326,2,0,L|328:264,1,56
240,276,52740,2,0,L|224:348,1,56
144,324,53154,6,0,L|128:188,1,112
84,144,53774,1,0,0:0:0:0:
108,48,53981,2,0,P|160:80|224:76,1,112
292,56,54602,1,0,0:0:0:0:
352,116,54809,6,0,L|360:232,1,112
332,308,55430,1,0,0:0:0:0:
284,240,55637,2,0,L|280:168,1,56
236,116,56050,2,0,L|208:176,1,56
164,236,56464,6,0,P|104:256|112:308,2,112
240,272,57499,1,0,0:0:0:0:
332,252,57705,2,0,L|340:192,1,56
392,132,58119,6,0,P|352:120|296:72,1,112
216,56,58740,1,0,0:0:0:0:
136,84,58947,2,0,L|144:208,1,112
148,280,59568,1,0,0:0:0:0:
224,316,59774,6,0,L|336:256,1,112
400,232,60395,1,0,0:0:0:0:
404,148,60602,2,0,L|392:72,1,56
320,56,61016,2,0,L|288:104,1,56
260,180,61430,6,0,P|248:124|192:92,1,112
140,148,62050,1,0,0:0:0:0:
88,212,62257,2,0,L|128:320,1,112
212,328,62878,1,0,0:0:0:0:
288,292,63085,6,0,P|252:232|264:172,1,112
312,132,63705,2,0,L|380:128,1,56
436,176,64119,2,0,L|472:168,2,28
376,232,64533,1,0,0:0:0:0:
312,276,64740,6,0,P|280:224|200:184,1,125.999996154785
152,208,65361,1,0,0:0:0:0:
96,160,65568,2,0,L|28:188,2,62.9999980773926
156,116,66188,1,0,0:0:0:0:
200,56,66395,6,0,L|348:44,1,125.999996154785
388,88,67016,1,0,0:0:0:0:
412,160,67223,2,0,L|464:228,1,62.9999980773926
404,268,67637,2,0,L|392:336,1,62.9999980773926
320,344,68050,6,0,P|272:312|232:232,1,125.999996154785
216,180,68671,1,0,0:0:0:0:
156,132,68878,2,0,L|96:164,2,62.9999980773926
224,96,69499,1,0,0:0:0:0:
292,64,69705,6,0,P|332:104|400:152,1,125.999996154785
448,192,70326,1,0,0:0:0:0:
392,244,70533,2,0,L|432:304,1,62.9999980773926
356,320,70947,2,0,L|276:324,1,62.9999980773926
220,304,71361,6,0,P|220:268|200:160,1,125.999996154785
176,108,71981,1,0,0:0:0:0:
112,144,72188,2,0,L|120:224,1,62.9999980773926
60,256,72602,2,0,L|32:180,1,62.9999980773926
40,120,73016,6,0,P|60:80|140:64,1,125.999996154785
176,124,73637,1,0,0:0:0:0:
248,104,73843,2,0,L|240:40,2,62.9999980773926
284,172,74464,1,0,0:0:0:0:
316,240,74671,6,0,L|300:308,1,62.9999980773926
240,344,75085,1,0,0:0:0:0:
192,280,75292,2,0,L|168:144,1,125.999996154785
192,84,75912,1,0,0:0:0:0:
260,120,76119,6,0,P|284:148|376:160,1,125.999996154785
440,140,76740,1,0,0:0:0:0:
468,212,76947,1,0,0:0:0:0:
424,272,77154,1,0,0:0:0:0:
348,268,77361,2,0,L|356:316,2,31.4999990386963
324,144,77981,6,0,P|236:112|224:112,1,105.000004005432
168,132,78602,2,0,L|176:240,1,105.000004005432
116,260,79223,2,0,L|40:256,1,52.5000020027161
48,196,79637,6,0,P|44:156|88:92,1,105.000004005432
136,108,80257,2,0,P|188:136|236:116,1,105.000004005432
272,76,80878,1,0,0:0:0:0:
320,120,81085,1,0,0:0:0:0:
376,152,81292,6,0,L|384:260,1,105.000004005432
348,308,81912,2,0,P|304:248|256:236,1,105.000004005432
216,232,82533,2,0,L|200:160,1,52.5000020027161
164,132,82947,5,0,0:0:0:0:
192,76,83154,2,0,L|248:48,1,52.5000020027161
292,84,83568,2,0,L|316:148,1,52.5000020027161
340,188,83981,1,0,0:0:0:0:
400,176,84188,2,0,L|420:120,1,52.5000020027161
476,148,84602,6,0,L|476:272,1,105.000004005432
440,304,85223,2,0,L|312:316,1,105.000004005432
276,296,85843,2,0,L|248:224,1,52.5000020027161
232,188,86257,6,0,P|156:184|128:144,1,105.000004005432
100,116,86878,2,0,P|104:72|176:56,1,105.000004005432
200,92,87499,2,0,L|268:128,1,52.5000020027161
328,96,87912,6,0,L|356:236,1,140
292,292,88533,1,0,0:0:0:0:
212,272,88740,2,0,L|184:184,1,70
124,156,89154,2,0,L|100:224,1,70
48,156,89568,6,0,P|48:104|136:60,1,140
192,96,90188,1,0,0:0:0:0:
264,56,90395,2,0,L|352:36,1,70
400,92,90809,2,0,L|304:120,1,70
356,192,91223,6,0,L|216:224,1,140
140,252,91843,1,0,0:0:0:0:
108,176,92050,2,0,L|112:92,1,70
172,48,92464,1,0,0:0:0:0:
224,112,92671,6,0,P|292:160|344:148,1,140
424,124,93292,2,0,L|508:128,1,70
476,208,93705,1,0,0:0:0:0:
412,264,93912,1,0,0:0:0:0:
360,256,94119,2,0,L|384:328,2,70
228,308,94740,5,0,0:0:0:0:
188,236,94947,1,0,0:0:0:0:
200,152,95154,2,0,L|240:168,2,35
180,72,95568,1,0,0:0:0:0:
260,44,95774,2,0,L|308:52,2,35
88,52,96189,6,0,P|80:116|84:196,1,140,2|8,0:0|0:0,0:0:0:0:
144,264,96810,1,2,0:0:0:0:
224,228,97017,2,0,L|232:132,1,70,2|0,0:0|0:0,0:0:0:0:
324,208,97430,2,0,L|324:288,1,70,8|0,0:0|0:0,0:0:0:0:
412,336,97844,6,0,P|448:272|464:188,1,140,0|8,0:0|0:0,0:0:0:0:
412,116,98465,1,0,0:0:0:0:
316,72,98672,2,0,P|232:52|152:80,1,140,0|8,0:0|0:0,0:0:0:0:
96,124,99292,1,0,0:0:0:0:
44,216,99499,6,0,P|96:300|144:332,1,140,0|8,0:0|0:0,0:0:0:0:
232,348,100120,1,0,0:0:0:0:
304,272,100327,2,0,L|300:192,1,70
404,188,100741,2,0,L|376:264,1,70,8|2,0:0|0:0,0:0:0:0:
376,336,101154,6,0,P|340:284|248:284,1,140
192,308,101774,1,0,0:0:0:0:
128,256,101981,2,0,P|100:192|120:112,1,140
164,60,102602,1,0,0:0:0:0:
244,84,102809,6,0,P|232:132|264:216,1,140
332,260,103430,1,0,0:0:0:0:
400,212,103637,2,0,L|412:144,1,70
468,208,104050,2,0,L|480:288,1,70
424,340,104464,6,0,P|376:324|284:348,1,140
208,348,105085,1,0,0:0:0:0:
152,288,105292,2,0,L|164:212,1,70
88,180,105705,2,0,L|68:256,1,70
4,196,106119,6,0,P|20:132|76:88,1,140
140,144,106740,1,0,0:0:0:0:
152,60,106947,1,0,0:0:0:0:
212,116,107154,1,0,0:0:0:0:
260,68,107361,2,0,L|272:144,1,70
252,220,107774,5,0,0:0:0:0:
172,196,107981,1,0,0:0:0:0:
92,228,108188,2,0,L|100:308,1,70
184,296,108602,1,0,0:0:0:0:
256,252,108809,2,0,L|304:252,5,35
328,232,109430,6,0,P|368:180|352:100,1,140
280,80,110050,1,0,0:0:0:0:
204,120,110257,2,0,L|144:84,1,70
60,80,110671,2,0,L|8:136,1,70
72,192,111085,6,0,P|116:188|160:288,1,140
196,336,111705,1,0,0:0:0:0:
260,280,111912,2,0,L|236:212,1,70
316,184,112326,1,0,0:0:0:0:
348,260,112533,1,0,0:0:0:0:
412,204,112740,6,0,P|420:164|372:72,1,140
296,84,113361,1,0,0:0:0:0:
212,100,113568,2,0,P|176:144|88:120,1,140
24,100,114188,1,0,0:0:0:0:
28,184,114395,6,0,L|56:324,1,140
140,328,115016,1,0,0:0:0:0:
184,256,115223,2,0,P|180:196|256:144,1,140
264,224,115843,1,0,0:0:0:0:
340,260,116050,6,0,P|392:200|376:128,1,140
336,76,116671,1,0,0:0:0:0:
288,144,116878,2,0,P|244:152|204:132,1,70
152,96,117292,2,0,P|112:104|76:128,1,70
40,188,117705,6,0,P|44:240|104:316,1,140
176,284,118326,1,0,0:0:0:0:
228,352,118533,2,0,P|268:316|240:216,1,140
188,196,119154,1,0,0:0:0:0:
124,140,119361,6,0,P|160:116|264:116,1,140
300,180,119981,1,0,0:0:0:0:
364,124,120188,2,0,L|360:44,1,70
444,68,120602,2,0,L|472:136,1,70
504,208,121016,6,0,P|468:176|400:228,1,140
368,296,121637,1,0,0:0:0:0:
288,268,121843,2,0,L|312:192,1,70
232,236,122257,2,0,L|168:192,1,70
92,212,122671,6,0,P|92:144|132:80,1,140
212,76,123292,1,0,0:0:0:0:
224,160,123499,1,0,0:0:0:0:
288,104,123705,1,0,0:0:0:0:
372,108,123912,2,0,L|376:192,1,70
376,264,124326,6,0,L|280:272,1,70
228,236,124740,1,0,0:0:0:0:
148,208,124947,2,0,L|128:240,2,35
92,144,125361,2,0,L|56:156,2,35
128,68,125774,1,0,0:0:0:0:
128,68,125878,1,0,0:0:0:0:
72,44,125981,6,0,P|56:96|60:184,1,140,2|8,0:0|0:0,0:0:0:0:
116,272,126602,1,2,0:0:0:0:
188,196,126809,2,0,L|244:132,1,70,2|0,0:0|0:0,0:0:0:0:
336,108,127223,1,8,0:0:0:0:
336,212,127429,1,2,0:0:0:0:
436,184,127636,6,0,P|436:232|380:316,1,140,2|8,0:0|0:0,0:0:0:0:
284,308,128257,1,2,0:0:0:0:
180,320,128464,2,0,L|184:244,1,70,2|0,0:0|0:0,0:0:0:0:
84,212,128878,2,0,L|108:144,1,70,8|2,0:0|0:0,0:0:0:0:
172,64,129292,6,0,P|200:104|296:104,1,140
376,56,129912,1,0,0:0:0:0:
420,152,130119,2,0,P|416:212|352:264,1,140
252,264,130740,1,0,0:0:0:0:
196,176,130947,6,0,L|184:84,1,70
84,92,131361,2,0,L|72:164,1,70
96,264,131774,1,0,0:0:0:0:
196,292,131981,2,0,L|160:324,2,35
228,192,132395,1,0,0:0:0:0:
72,44,132602,6,0,P|56:96|60:184,1,140
116,272,133223,1,0,0:0:0:0:
188,196,133430,2,0,L|244:132,1,70
336,108,133844,1,0,0:0:0:0:
336,212,134050,1,0,0:0:0:0:
436,184,134257,6,0,P|436:232|380:316,1,140
284,308,134878,1,0,0:0:0:0:
180,320,135085,2,0,L|184:244,1,70
84,212,135499,2,0,L|108:144,1,70
172,64,135913,6,0,P|200:104|296:104,1,140
376,56,136533,1,0,0:0:0:0:
420,152,136740,2,0,P|416:212|352:264,1,140
252,264,137361,1,0,0:0:0:0:
196,176,137568,6,0,L|184:84,1,70
84,92,137982,2,0,L|72:164,1,70
96,264,138395,1,0,0:0:0:0:
196,292,138602,2,0,L|160:324,2,35
228,192,139016,1,0,0:0:0:0:
296,144,139223,5,0,0:0:0:0:
