osu file format v14

[General]
AudioFilename: audio.mp3
AudioLeadIn: 0
PreviewTime: 56477
Countdown: 0
SampleSet: Soft
StackLeniency: 0.7
Mode: 0
LetterboxInBreaks: 0
WidescreenStoryboard: 0

[Editor]
DistanceSpacing: 2.6
BeatDivisor: 4
GridSize: 4
TimelineZoom: 1

[Metadata]
Title:Everyday World
TitleUnicode:エブリデイワールド
Artist:Yukinoshita Yukino (CV.Hayami Saori) & Yuigahama Yui (CV.Touyama Nao)
ArtistUnicode:雪ノ下雪乃(CV.早見沙織)&由比ヶ浜結衣(CV.東山奈央)
Creator:Pentori
Version:Insane
Source:やはり俺の青春ラブコメはまちがっている。続
Tags:Akitoshi Kibbleru Doormat oregairu zoku ending ed yahari ore no seishun love come wa machigatteiru my teen romantic comedy snafu full
BeatmapID:974653
BeatmapSetID:433114

[Difficulty]
HPDrainRate:6
CircleSize:4
OverallDifficulty:8
ApproachRate:9
SliderMultiplier:1.4
SliderTickRate:1

[Events]
//Background and Video events
0,0,"BG.jpg",0,0
//Break Periods
2,88625,97176
2,169664,178215
//Storyboard Layer 0 (Background)
//Storyboard Layer 1 (Fail)
//Storyboard Layer 2 (Pass)
//Storyboard Layer 3 (Foreground)
//Storyboard Sound Samples

[TimingPoints]
1153,389.61038961039,4,2,1,50,1,0
7386,-100,4,2,1,60,0,0
16737,-100,4,2,1,40,0,0
47906,-100,4,2,1,60,0,0
56477,-83.3333333333333,4,2,1,70,0,0
57256,-83.3333333333333,4,2,1,70,0,1
75958,-100,4,2,1,60,0,0
88425,-83.3333333333333,4,2,1,5,0,0
97776,-100,4,2,1,50,0,0
122711,-100,4,2,1,40,0,0
128945,-100,4,2,1,50,0,0
137516,-83.3333333333333,4,2,1,50,0,0
138295,-83.3333333333333,4,2,1,70,0,1
156997,-100,4,2,1,60,0,0
169464,-100,4,2,1,5,0,0
178815,-125,4,2,1,45,0,0
191282,-100,4,2,1,50,0,0
202971,-83.3333333333333,4,2,1,50,0,0
203750,-83.3333333333333,4,2,1,70,0,1
222451,-100,4,2,1,60,0,0
234140,-100,4,2,1,50,0,0
234919,-100,4,2,1,40,0,0
241153,-100,4,2,1,50,0,0
250503,-100,4,2,1,60,0,0
255178,-100,4,2,1,50,0,0
255568,-100,4,2,1,45,0,0
255958,-100,4,2,1,40,0,0
256153,-100,4,2,1,35,0,0
256347,-100,4,2,1,30,0,0
256445,-100,4,2,1,20,0,0
256542,-100,4,2,1,10,0,0

[Colours]
Combo1 : 0,130,130
Combo2 : 100,100,255
Combo3 : 37,193,239
Combo4 : 128,128,192

[HitObjects]
344,128,1153,5,6,0:0:0:0:
212,196,1347,1,0,0:0:0:0:
360,248,1542,1,2,0:0:0:0:
220,120,1737,2,0,P|178:128|147:157,1,70,0|2,0:0|0:0,0:0:0:0:
60,224,2127,1,0,0:0:0:0:
116,68,2321,1,2,0:0:0:0:
212,196,2516,6,0,P|264:204|312:200,1,70,0|2,0:0|0:0,0:0:0:0:
408,116,2906,2,0,P|375:157|354:200,1,70,0|2,0:0|0:0,0:0:0:0:
380,324,3295,2,0,P|360:274|333:235,1,70,0|2,0:0|0:0,0:0:0:0:
252,352,3685,1,0,0:0:0:0:
304,196,3880,1,2,0:0:0:0:
156,232,4075,1,0,0:0:0:0:
356,264,4269,5,2,0:0:0:0:
168,204,4464,1,0,0:0:0:0:
356,264,4659,1,2,0:0:0:0:
296,128,4854,2,0,P|296:80|316:32,1,70,0|2,0:0|0:0,0:0:0:0:
408,184,5243,1,0,0:0:0:0:
248,208,5438,1,2,0:0:0:0:
400,284,5633,6,0,P|445:280|480:256,1,70,0|2,0:0|0:0,0:0:0:0:
248,208,6023,2,0,P|220:187|186:179,1,70,0|2,0:0|0:0,0:0:0:0:
108,320,6412,2,0,P|140:308|166:285,1,70,0|2,0:0|0:0,0:0:0:0:
80,116,6802,1,0,0:0:0:0:
100,240,6997,1,2,0:0:0:0:
168,56,7191,1,0,0:0:0:0:
288,212,7386,5,2,0:0:0:0:
144,156,7581,1,0,0:0:0:0:
264,60,7776,1,2,0:0:0:0:
72,28,7971,2,0,P|123:37|160:60,1,70,0|2,0:0|0:0,0:0:0:0:
100,216,8360,1,0,0:0:0:0:
176,56,8555,1,2,0:0:0:0:
24,160,8750,6,0,P|5:204|14:252,1,70,0|2,0:0|0:0,0:0:0:0:
185,177,9140,2,0,P|156:138|110:122,1,70,0|2,0:0|0:0,0:0:0:0:
90,310,9529,2,0,P|137:304|174:272,1,70,0|2,0:0|0:0,0:0:0:0:
288,296,9919,1,0,0:0:0:0:
176,140,10114,1,2,0:0:0:0:
178,118,10211,1,0,0:0:0:0:
181,97,10308,1,0,0:0:0:0:
184,76,10406,1,0,0:0:0:0:
188,55,10503,6,0,P|235:33|273:34,1,70,8|0,0:0|0:0,0:0:0:0:
400,88,10893,1,2,0:0:0:0:
176,140,11088,5,8,0:0:0:0:
324,60,11282,1,0,0:0:0:0:
324,228,11477,1,2,0:0:0:0:
188,55,11672,5,8,0:0:0:0:
364,160,11867,1,0,0:0:0:0:
192,248,12062,1,2,0:0:0:0:
324,60,12256,5,8,0:0:0:0:
212,232,12451,1,0,0:0:0:0:
384,148,12646,1,2,0:0:0:0:
184,128,12841,5,8,0:0:0:0:
248,320,13036,1,0,0:0:0:0:
300,136,13230,1,2,0:0:0:0:
136,344,13425,5,8,0:0:0:0:
256,192,13523,12,4,14984,0:0:0:0:
384,180,16737,6,0,P|400:136|400:104,1,70,6|0,0:0|0:0,0:0:0:0:
284,228,17127,2,0,P|300:284|324:316,1,70,2|0,0:0|0:0,0:0:0:0:
303,141,17516,2,0,P|236:151|198:208,1,140,2|2,0:0|0:0,0:0:0:0:
320,320,18101,1,0,0:0:0:0:
178,290,18295,6,0,P|145:274|120:240,1,70,2|0,0:0|0:0,0:0:0:0:
168,104,18685,1,2,0:0:0:0:
168,104,18880,1,0,0:0:0:0:
352,144,19075,2,0,P|305:157|266:143,1,70,2|0,0:0|0:0,0:0:0:0:
160,24,19464,2,0,P|207:37|233:68,1,70,2|0,0:0|0:0,0:0:0:0:
192,264,19854,6,0,P|195:225|213:195,1,70,2|0,0:0|0:0,0:0:0:0:
296,116,20243,2,0,L|448:88,1,140,2|2,0:0|0:0,0:0:0:0:
300,28,20828,1,0,0:0:0:0:
300,28,21023,2,0,P|248:32|220:48,1,70,2|0,0:0|0:0,0:0:0:0:
144,164,21412,6,0,P|176:132|188:104,1,70,2|0,0:0|0:0,0:0:0:0:
48,168,21802,2,0,P|56:224|76:256,1,70,2|0,0:0|0:0,0:0:0:0:
168,308,22191,1,2,0:0:0:0:
168,308,22386,2,0,B|236:284|236:332|304:308,1,140,0|0,0:0|0:0,0:0:0:0:
273,166,22971,6,0,P|277:206|265:246,1,70,2|0,0:0|0:0,0:0:0:0:
184,116,23360,2,0,P|206:89|236:72,1,70,2|0,0:0|0:0,0:0:0:0:
368,175,23750,2,0,P|337:158|302:152,1,70,2|0,0:0|0:0,0:0:0:0:
196,196,24140,2,0,P|149:188|120:164,1,70,2|0,0:0|0:0,0:0:0:0:
277,281,24529,6,0,P|311:220|298:140,1,140,2|2,0:0|0:0,0:0:0:0:
240,48,25114,1,0,0:0:0:0:
240,48,25308,2,0,P|321:34|392:72,1,140,2|2,0:0|0:0,0:0:0:0:
432,192,25893,1,0,0:0:0:0:
432,192,26088,6,0,L|456:48,1,140,2|2,0:0|0:0,0:0:0:0:
361,128,26672,2,0,L|337:272,1,140,2|0,0:0|0:0,0:0:0:0:
408,356,27256,1,0,0:0:0:0:
240,284,27451,1,0,0:0:0:0:
240,284,27549,1,0,0:0:0:0:
240,284,27646,1,0,0:0:0:0:
456,208,27841,5,2,0:1:0:0:
272,368,28036,1,2,0:1:0:0:
432,228,28230,1,2,0:1:0:0:
388,376,28425,1,2,0:1:0:0:
276,252,28620,1,2,0:1:0:0:
408,144,28815,1,8,0:0:0:0:
408,144,28912,1,0,0:0:0:0:
408,144,29009,1,0,0:0:0:0:
408,144,29107,1,0,0:0:0:0:
408,144,29204,6,0,B|336:164|336:124|264:144,1,140,4|0,0:0|0:0,0:0:0:0:
132,192,29789,1,0,0:0:0:0:
180,76,29984,2,0,P|112:68|44:104,1,140
4,208,30568,6,0,B|28:352,1,140
176,280,31153,2,0,P|132:272|96:248,1,70,0|0,0:0|0:0,0:0:0:0:
256,236,31542,2,0,P|300:244|336:268,1,70,2|2,0:1|0:1,0:0:0:0:
232,96,31932,1,8,0:0:0:0:
388,184,32127,1,0,0:0:0:0:
388,184,32224,1,0,0:0:0:0:
388,184,32321,6,0,P|420:252|392:324,1,140,0|0,0:0|0:0,0:0:0:0:
316,372,32906,1,0,0:0:0:0:
256,284,33101,2,0,P|184:272|108:292,1,140,0|0,0:0|0:0,0:0:0:0:
68,376,33685,1,0,0:0:0:0:
24,220,33880,6,0,L|176:196,1,140,0|0,0:0|0:0,0:0:0:0:
288,96,34464,2,0,P|362:113|397:186,1,140,0|2,0:0|0:1,0:0:0:0:
224,152,35049,1,8,0:0:0:0:
280,324,35243,1,0,0:0:0:0:
280,324,35341,1,0,0:0:0:0:
280,324,35438,6,0,L|304:184,1,140,0|0,0:0|0:0,0:0:0:0:
384,296,36023,1,0,0:0:0:0:
204,224,36217,2,0,P|140:212|68:252,1,140,0|0,0:0|0:0,0:0:0:0:
128,128,36802,1,0,0:0:0:0:
272,120,36997,6,0,L|424:108,1,140,0|0,0:0|0:0,0:0:0:0:
512,180,37581,1,0,0:0:0:0:
460,288,37776,2,0,P|456:244|440:212,1,70,2|2,0:1|0:1,0:0:0:0:
340,268,38165,2,0,P|354:300|378:326,1,70,8|0,0:0|0:0,0:0:0:0:
377,325,38458,1,0,0:0:0:0:
377,325,38555,6,0,P|304:348|232:328,1,140
244,168,39140,1,0,0:0:0:0:
148,264,39334,1,0,0:0:0:0:
184,84,39529,1,0,0:0:0:0:
292,232,39724,2,0,P|320:200|324:164,1,70,0|0,0:0|0:0,0:0:0:0:
276,36,40114,6,0,P|307:50|327:78,1,70,0|0,0:0|0:0,0:0:0:0:
396,212,40503,1,0,0:0:0:0:
416,64,40698,1,0,0:0:0:0:
292,232,40893,1,8,0:0:0:0:
200,116,41088,2,0,P|120:112|56:140,1,140,0|0,0:0|0:0,0:0:0:0:
204,24,41672,5,4,0:0:0:0:
296,144,41867,1,0,0:0:0:0:
280,32,42062,1,0,0:0:0:0:
224,188,42256,1,0,0:0:0:0:
336,128,42451,2,0,P|376:120|416:116,1,70
192,200,42841,2,0,P|152:208|112:212,1,70
224,124,43230,6,0,P|273:179|258:253,1,140,2|0,0:0|0:0,0:0:0:0:
152,300,43815,1,0,0:0:0:0:
276,352,44010,2,0,P|323:376|364:372,1,70,0|0,0:1|0:0,0:3:0:0:
396,260,44399,2,0,P|348:281|324:320,1,70,0|0,0:0|0:0,0:3:0:0:
472,304,44789,6,0,P|476:228|416:176,1,140,2|0,0:0|0:0,0:0:0:0:
328,104,45373,2,0,P|336:56|336:24,1,70,0|0,0:0|0:0,0:0:0:0:
240,140,45763,2,0,P|248:188|268:224,1,70,0|0,0:0|0:0,0:0:0:0:
372,256,46153,1,0,0:0:0:0:
220,284,46347,6,0,P|168:280|124:300,1,70,2|0,0:0|0:0,0:0:0:0:
151,284,46640,1,0,0:0:0:0:
151,284,46737,1,0,0:0:0:0:
32,188,46932,1,0,0:0:0:0:
32,188,47029,1,0,0:0:0:0:
32,188,47127,1,0,0:0:0:0:
72,48,47321,2,0,L|120:192,1,140,8|0,0:0|0:0,0:0:0:0:
272,56,47906,5,8,0:0:0:0:
336,228,48101,1,2,0:0:0:0:
168,104,48295,1,2,0:0:0:0:
384,160,48490,5,8,0:0:0:0:
176,196,48685,1,2,0:0:0:0:
340,96,48880,1,2,0:0:0:0:
188,276,49075,2,0,P|142:271|112:246,1,70,8|0,0:0|0:0,0:0:0:0:
24,48,49464,5,8,0:0:0:0:
176,196,49659,1,2,0:0:0:0:
12,136,49854,1,2,0:0:0:0:
228,72,50049,5,8,0:0:0:0:
64,196,50243,1,0,0:0:0:0:
144,44,50438,1,2,0:0:0:0:
252,244,50633,2,0,P|308:232|336:216,1,70,8|0,0:0|0:0,0:0:0:0:
319,226,50925,1,0,0:0:0:0:
319,226,51023,6,0,P|348:168|332:88,1,140,6|8,0:0|0:0,0:0:0:0:
212,244,51607,1,0,0:0:0:0:
320,320,51802,2,0,P|368:336|404:340,1,70
184,240,52191,2,0,P|134:251|101:266,1,70,8|0,0:0|0:0,0:0:0:0:
116,258,52484,1,0,0:0:0:0:
116,258,52581,5,0,0:0:0:0:
380,100,52971,2,0,P|388:60|384:16,1,70,8|0,0:0|0:0,0:0:0:0:
264,168,53360,1,0,0:0:0:0:
436,200,53555,1,0,0:0:0:0:
304,284,53750,1,8,0:0:0:0:
376,128,53945,1,0,0:0:0:0:
288,304,54140,5,6,0:0:0:0:
288,304,54529,5,8,0:0:0:0:
224,128,54724,1,8,0:0:0:0:
240,364,54919,5,8,0:0:0:0:
376,128,55114,1,8,0:0:0:0:
376,356,55308,5,8,0:0:0:0:
216,104,55503,1,8,0:0:0:0:
468,240,55698,5,8,0:0:0:0:
40,120,56088,1,8,0:0:0:0:
280,296,56477,6,0,P|336:276|372:248,1,83.9999974365235,2|0,0:0|0:0,0:0:0:0:
484,132,56867,1,8,0:0:0:0:
458,129,56964,1,0,0:0:0:0:
433,127,57061,1,0,0:0:0:0:
408,125,57159,1,0,0:0:0:0:
384,124,57256,6,0,B|331:119|331:119|269:148|269:148|188:141,1,167.999994873047,4|8,0:0|0:0,0:0:0:0:
332,288,57841,1,0,0:0:0:0:
332,288,57938,1,0,0:0:0:0:
332,288,58036,2,0,P|348:240|348:192,1,83.9999974365235,0|0,0:0|0:0,0:0:0:0:
211,296,58425,2,0,P|215:337|233:375,1,83.9999974365235,8|0,0:0|0:0,0:0:0:0:
140,208,58815,6,0,P|97:170|61:158,1,83.9999974365235,2|2,0:0|0:0,0:0:0:0:
236,92,59204,1,8,0:0:0:0:
220,304,59399,1,0,0:0:0:0:
220,304,59497,1,0,0:0:0:0:
220,304,59594,2,0,P|273:286|301:261,1,83.9999974365235,0|0,0:0|0:0,0:0:0:0:
444,152,59984,2,0,L|300:184,1,125.999996154785,8|0,0:0|0:0,0:0:0:0:
240,176,60373,6,0,P|216:132|208:92,1,83.9999974365235,2|0,0:0|0:0,0:0:0:0:
352,8,60763,1,8,0:0:0:0:
408,244,60958,1,0,0:0:0:0:
408,244,61055,1,0,0:0:0:0:
408,244,61153,1,0,0:0:0:0:
292,104,61347,1,0,0:0:0:0:
504,160,61542,2,0,P|440:144|400:152,1,83.9999974365235,8|0,0:0|0:0,0:0:0:0:
240,184,61932,6,0,P|216:148|192:104,1,83.9999974365235,2|2,0:0|0:0,0:0:0:0:
144,300,62321,1,8,0:0:0:0:
328,356,62516,1,0,0:0:0:0:
328,356,62614,1,0,0:0:0:0:
328,356,62711,2,0,P|384:364|432:360,1,83.9999974365235,0|0,0:0|0:0,0:0:0:0:
261,258,63101,2,0,P|201:270|141:302,1,125.999996154785,8|0,0:0|0:0,0:0:0:0:
72,336,63490,6,0,P|32:292|20:260,1,83.9999974365235,4|0,0:0|0:0,0:0:0:0:
96,104,63880,1,8,0:0:0:0:
248,180,64075,1,0,0:0:0:0:
248,180,64172,1,0,0:0:0:0:
248,180,64269,2,0,P|312:172|352:160,1,83.9999974365235,0|0,0:0|0:0,0:0:0:0:
220,8,64659,1,8,0:0:0:0:
84,120,64854,1,0,0:0:0:0:
84,120,64951,1,0,0:0:0:0:
84,120,65049,6,0,P|76:184|76:220,1,83.9999974365235,2|0,0:0|0:0,0:0:0:0:
224,360,65438,1,8,0:0:0:0:
184,144,65633,1,0,0:0:0:0:
184,144,65730,1,0,0:0:0:0:
184,144,65828,1,0,0:0:0:0:
296,272,66023,1,0,0:0:0:0:
120,308,66217,1,8,0:0:0:0:
332,268,66412,1,0,0:0:0:0:
100,232,66607,6,0,P|149:238|178:258,1,83.9999974365235,2|2,0:0|0:0,0:0:0:0:
360,340,66997,2,0,P|392:316|408:275,1,83.9999974365235,8|0,0:0|0:0,0:0:0:0:
408,276,67289,1,0,0:0:0:0:
408,276,67386,1,0,0:0:0:0:
276,120,67581,1,0,0:0:0:0:
432,184,67776,1,8,0:0:0:0:
216,176,67971,1,0,0:0:0:0:
404,80,68165,6,0,P|424:32|428:-8,1,83.9999974365235,2|2,0:0|0:0,0:0:0:0:
276,120,68555,1,8,0:0:0:0:
432,184,68750,1,0,0:0:0:0:
284,16,68945,1,0,0:0:0:0:
324,216,69140,1,0,0:0:0:0:
327,232,69237,1,0,0:0:0:0:
331,248,69334,1,8,0:0:0:0:
334,265,69432,1,0,0:0:0:0:
338,281,69529,1,0,0:0:0:0:
341,298,69627,1,0,0:0:0:0:
344,316,69724,6,0,B|264:344|264:292|180:316,1,167.999994873047,4|8,0:0|0:0,0:0:0:0:
32,180,70308,1,0,0:0:0:0:
32,180,70406,1,0,0:0:0:0:
32,180,70503,2,0,P|80:160|100:112,1,83.9999974365235,0|0,0:0|0:0,0:0:0:0:
296,204,70893,1,8,0:0:0:0:
120,232,71088,1,0,0:0:0:0:
332,200,71282,6,0,P|388:192|428:192,1,83.9999974365235,2|2,0:0|0:0,0:0:0:0:
264,76,71672,1,8,0:0:0:0:
148,244,71867,1,0,0:0:0:0:
148,244,71964,1,0,0:0:0:0:
148,244,72062,2,0,P|168:196|176:152,1,83.9999974365235,0|0,0:0|0:0,0:0:0:0:
268,352,72451,1,8,0:0:0:0:
64,308,72646,1,0,0:0:0:0:
64,308,72743,1,0,0:0:0:0:
64,308,72841,5,2,0:0:0:0:
292,360,73036,1,0,0:0:0:0:
100,376,73230,1,8,0:0:0:0:
252,284,73425,2,0,B|336:252|336:320|424:280,1,167.999994873047,0|0,0:0|0:0,0:0:0:0:
368,120,74010,2,0,P|380:188|372:212,1,83.9999974365235,8|0,0:0|0:0,0:0:0:0:
220,136,74399,6,0,P|208:68|216:44,1,83.9999974365235,2|2,0:0|0:0,0:0:0:0:
192,224,74789,2,0,P|139:179|129:156,1,83.9999974365235,8|0,0:0|0:0,0:0:0:0:
224,308,75178,2,0,P|154:308|132:295,1,83.9999974365235,2|0,0:0|0:0,0:0:0:0:
292,384,75568,1,8,0:0:0:0:
348,208,75763,1,0,0:0:0:0:
348,208,75860,1,0,0:0:0:0:
348,208,75958,6,0,P|360:120|344:64,1,140,6|0,0:0|0:0,0:0:0:0:
248,180,76542,1,2,0:0:0:0:
304,304,76737,2,0,P|383:308|436:266,1,140,8|0,0:0|0:0,0:0:0:0:
248,180,77321,1,2,0:0:0:0:
184,300,77516,6,0,P|180:356|184:384,1,70,0|2,0:0|0:0,0:0:0:0:
88,272,77906,2,0,P|92:216|88:188,1,70,2|0,0:0|0:0,0:0:0:0:
28,64,78295,1,8,0:0:0:0:
12,196,78490,1,2,0:0:0:0:
64,64,78685,1,0,0:0:0:0:
184,152,78880,1,2,0:0:0:0:
184,152,78977,1,2,0:0:0:0:
184,152,79075,6,0,P|268:156|340:144,1,140,6|0,0:0|0:0,0:0:0:0:
248,52,79659,1,0,0:0:0:0:
380,64,79854,2,0,P|420:128|400:212,1,140,8|0,0:0|0:0,0:0:0:0:
288,240,80438,1,2,0:0:0:0:
416,312,80633,6,0,P|469:298|506:269,2,93.3333333333333
236,312,81412,1,8,0:0:0:0:
136,216,81607,1,2,0:0:0:0:
100,352,81802,1,2,0:0:0:0:
320,288,81997,1,0,0:0:0:0:
320,288,82094,1,0,0:0:0:0:
320,288,82191,5,6,0:0:0:0:
68,100,82581,1,2,0:0:0:0:
36,236,82776,1,2,0:0:0:0:
144,88,82971,1,8,0:0:0:0:
224,252,83165,1,8,0:0:0:0:
236,56,83360,1,8,0:0:0:0:
112,192,83555,1,8,0:0:0:0:
168,8,83750,1,0,0:0:0:0:
224,252,84140,5,4,0:0:0:0:
436,16,84529,2,0,P|441:92|452:184,1,140
392,292,85114,1,0,0:0:0:0:
392,292,85211,1,0,0:0:0:0:
392,292,85308,5,2,0:0:0:0:
256,192,85406,12,0,88425,0:0:0:0:
320,148,97776,6,0,P|364:120|384:80,1,70,2|0,0:0|0:0,0:0:0:0:
236,24,98165,2,0,P|218:73|227:116,1,70,2|0,0:0|0:0,0:0:0:0:
248,212,98555,2,0,B|176:228|176:192|108:212,1,140,2|2,0:0|0:0,0:0:0:0:
44,316,99140,6,0,L|24:160,1,140,0|0,0:0|0:0,0:0:0:0:
104,68,99724,1,2,0:0:0:0:
104,68,99919,1,0,0:0:0:0:
112,220,100114,2,0,P|136:176|140:144,1,70,2|0,0:0|0:0,0:0:0:0:
232,60,100503,1,2,0:0:0:0:
104,68,100698,1,0,0:0:0:0:
240,156,100893,6,0,B|289:164|289:164|324:190|324:190|377:199,1,140,2|2,0:0|0:0,0:0:0:0:
248,232,101477,1,0,0:0:0:0:
364,124,101672,2,0,P|379:87|380:50,1,70,2|0,0:0|0:0,0:0:0:0:
400,207,102062,1,2,0:0:0:0:
288,68,102256,6,0,B|256:52|220:64|220:64|196:88|144:88,1,140,0|0,0:0|0:0,0:0:0:0:
24,164,102841,1,2,0:0:0:0:
84,40,103036,1,0,0:0:0:0:
132,240,103230,1,2,0:0:0:0:
240,152,103425,2,0,L|88:168,1,140,0|0,0:0|0:0,0:0:0:0:
228,244,104010,6,0,P|264:272|288:316,1,70,2|0,0:0|0:0,0:0:0:0:
160,384,104399,2,0,P|137:344|132:294,1,70,2|0,0:0|0:0,0:0:0:0:
244,224,104789,2,0,P|284:208|324:212,1,70,2|0,0:0|0:0,0:0:0:0:
112,316,105178,2,0,P|72:300|44:268,1,70,2|0,0:0|0:0,0:0:0:0:
0,148,105568,6,0,L|128:228,1,140,2|2,0:0|0:0,0:0:0:0:
148,328,106153,1,0,0:0:0:0:
240,216,106347,2,0,B|316:200|316:232|380:216,1,140,2|2,0:0|0:0,0:0:0:0:
272,112,106932,1,0,0:0:0:0:
272,112,107029,1,0,0:0:0:0:
272,112,107127,6,0,P|219:111|130:61,1,140,2|2,0:0|0:0,0:0:0:0:
44,12,107711,2,0,L|68:160,1,140,0|0,0:0|0:0,0:0:0:0:
12,272,108295,1,2,0:0:0:0:
144,176,108490,1,0,0:0:0:0:
144,176,108588,1,0,0:0:0:0:
144,176,108685,1,2,0:0:0:0:
16,256,108880,5,2,0:1:0:0:
176,308,109075,1,2,0:1:0:0:
200,104,109269,1,2,0:1:0:0:
100,236,109464,1,2,0:1:0:0:
268,248,109659,1,2,0:1:0:0:
308,116,109854,1,8,0:0:0:0:
313,95,109951,1,0,0:0:0:0:
319,75,110048,1,0,0:0:0:0:
325,55,110146,1,0,0:0:0:0:
332,35,110243,6,0,B|404:16|404:56|480:36,1,140,4|10,0:0|0:0,0:0:0:0:
436,184,110828,1,0,0:0:0:0:
308,116,111023,2,0,P|224:128|176:180,1,140,2|8,0:0|0:0,0:0:0:0:
64,248,111607,6,0,P|140:244|224:244,1,140,0|0,0:0|0:0,0:0:0:0:
304,320,112191,1,8,0:0:0:0:
304,320,112386,1,0,0:0:0:0:
260,172,112581,1,2,0:0:0:0:
348,252,112776,1,0,0:0:0:0:
368,120,112971,1,8,0:0:0:0:
284,344,113165,1,0,0:0:0:0:
284,344,113263,1,0,0:0:0:0:
284,344,113360,6,0,P|204:320|148:320,1,140,2|8,0:0|0:0,0:0:0:0:
68,192,113945,1,0,0:0:0:0:
232,232,114140,2,0,P|292:200|344:144,1,140,2|8,0:0|0:0,0:0:0:0:
192,68,114724,1,0,0:0:0:0:
56,204,114919,6,0,P|64:288|72:356,1,140,2|8,0:0|0:0,0:0:0:0:
152,248,115503,1,0,0:0:0:0:
188,376,115698,1,2,0:0:0:0:
248,228,115893,2,0,P|296:208|328:204,1,70,0|10,0:0|0:0,0:0:0:0:
260,320,116282,1,0,0:0:0:0:
140,232,116477,6,0,P|161:167|220:124,1,140,2|8,0:0|0:0,0:0:0:0:
313,205,117062,1,0,0:0:0:0:
288,52,117256,2,0,P|204:44|136:40,1,140,2|8,0:0|0:0,0:0:0:0:
52,124,117841,1,0,0:0:0:0:
112,292,118036,6,0,P|124:208|128:144,1,140,2|8,0:0|0:0,0:0:0:0:
72,40,118620,1,0,0:0:0:0:
32,148,118815,1,2,0:0:0:0:
104,52,119010,1,0,0:0:0:0:
200,176,119204,1,8,0:0:0:0:
36,248,119399,1,0,0:0:0:0:
36,248,119497,1,0,0:0:0:0:
36,248,119594,6,0,P|108:256|136:256,1,70,2|0,0:0|0:0,0:0:0:0:
232,344,119984,2,0,P|160:336|132:336,1,70,8|0,0:0|0:0,0:0:0:0:
36,384,120373,1,2,0:0:0:0:
128,256,120568,1,0,0:0:0:0:
0,316,120763,1,8,0:0:0:0:
152,244,120958,1,0,0:0:0:0:
0,132,121153,6,0,L|88:128,1,70,2|0,0:0|0:0,0:0:0:0:
240,164,121542,1,8,0:0:0:0:
140,64,121737,1,0,0:0:0:0:
276,36,121932,1,8,0:0:0:0:
236,196,122127,2,0,P|304:208|380:200,1,140,0|0,0:0|0:0,0:0:0:0:
456,92,122711,6,0,P|419:111|394:152,1,70,2|0,0:1|0:0,0:0:0:0:
424,280,123101,1,2,0:1:0:0:
476,172,123295,1,2,0:1:0:0:
204,196,123685,1,2,0:1:0:0:
352,36,124075,1,2,0:1:0:0:
192,36,124269,6,0,P|232:32|268:48,1,70,2|0,0:1|0:0,0:0:0:0:
316,172,124659,1,2,0:1:0:0:
348,56,124854,1,2,0:1:0:0:
200,256,125243,1,2,0:1:0:0:
116,168,125438,1,2,0:1:0:0:
232,140,125633,1,2,0:1:0:0:
284,296,125828,5,2,0:1:0:0:
316,56,126217,1,2,0:1:0:0:
232,140,126412,1,2,0:1:0:0:
456,184,126802,1,2,0:1:0:0:
284,296,127191,1,2,0:1:0:0:
448,272,127386,6,0,P|416:256|380:248,1,70,2|0,0:1|0:0,0:0:0:0:
284,296,127776,1,2,0:1:0:0:
380,352,127971,1,2,0:1:0:0:
260,136,128360,1,0,0:0:0:0:
348,236,128555,1,8,0:3:0:0:
180,188,128750,1,0,0:0:0:0:
312,72,128945,5,12,0:0:0:0:
256,244,129140,1,0,0:0:0:0:
188,56,129334,1,0,0:0:0:0:
148,264,129529,5,8,0:0:0:0:
220,160,129724,1,0,0:0:0:0:
288,328,129919,1,0,0:0:0:0:
316,140,130114,5,8,0:0:0:0:
136,172,130308,1,0,0:0:0:0:
336,248,130503,5,8,0:0:0:0:
192,112,130698,1,0,0:0:0:0:
224,252,130893,1,0,0:0:0:0:
260,56,131088,5,8,0:0:0:0:
136,172,131282,1,0,0:0:0:0:
296,220,131477,1,0,0:0:0:0:
176,20,131672,5,8,0:0:0:0:
224,180,131867,1,0,0:0:0:0:
224,180,131964,1,0,0:0:0:0:
224,180,132062,6,0,P|236:132|240:92,1,70,6|0,0:0|0:0,0:0:0:0:
124,244,132451,2,0,P|132:288|152:328,1,70,8|0,0:0|0:0,0:0:0:0:
316,284,132841,1,2,0:0:0:0:
172,384,133036,1,2,0:0:0:0:
220,244,133230,1,8,0:0:0:0:
348,372,133425,1,0,0:0:0:0:
348,372,133523,1,0,0:0:0:0:
348,372,133620,5,2,0:0:0:0:
388,80,134010,1,8,0:0:0:0:
460,240,134204,1,0,0:0:0:0:
488,44,134399,1,2,0:0:0:0:
392,176,134594,1,2,0:0:0:0:
292,16,134789,1,8,0:0:0:0:
236,132,134984,1,0,0:0:0:0:
412,72,135178,5,4,0:0:0:0:
128,276,135568,1,8,0:0:0:0:
308,244,135763,1,8,0:0:0:0:
152,88,135958,1,8,0:0:0:0:
204,212,136153,1,8,0:0:0:0:
356,88,136347,1,8,0:0:0:0:
132,168,136542,1,8,0:0:0:0:
336,248,136737,5,8,0:0:0:0:
40,28,137127,1,8,0:0:0:0:
472,92,137516,6,0,P|432:112|400:148,1,83.9999974365235,2|0,0:0|0:0,0:0:0:0:
280,232,137906,1,8,0:0:0:0:
255,226,138003,1,0,0:0:0:0:
233,215,138100,1,0,0:0:0:0:
214,198,138198,1,0,0:0:0:0:
196,180,138295,6,0,P|144:160|96:164,1,83.9999974365235,4|0,0:0|0:0,0:0:0:0:
0,256,138685,1,8,0:0:0:0:
72,76,138880,1,0,0:0:0:0:
72,76,138977,1,0,0:0:0:0:
72,76,139075,2,0,P|128:72|160:48,1,83.9999974365235,0|0,0:0|0:0,0:0:0:0:
304,168,139464,1,8,0:0:0:0:
256,32,139659,1,0,0:0:0:0:
232,216,139854,5,2,0:0:0:0:
320,80,140049,1,2,0:0:0:0:
336,288,140243,1,8,0:0:0:0:
224,136,140438,1,0,0:0:0:0:
224,136,140536,1,0,0:0:0:0:
224,136,140633,2,0,P|160:132|116:136,1,83.9999974365235,0|0,0:0|0:0,0:0:0:0:
296,28,141023,1,8,0:0:0:0:
408,176,141217,1,0,0:0:0:0:
408,176,141315,1,0,0:0:0:0:
408,176,141412,6,0,P|412:236|408:272,1,83.9999974365235,2|0,0:0|0:0,0:0:0:0:
256,140,141802,1,8,0:0:0:0:
448,76,141997,1,0,0:0:0:0:
448,76,142094,1,0,0:0:0:0:
448,76,142191,1,0,0:0:0:0:
296,28,142386,1,0,0:0:0:0:
408,176,142581,1,8,0:0:0:0:
376,24,142776,1,0,0:0:0:0:
316,220,142971,6,0,P|328:168|332:124,1,83.9999974365235,2|2,0:0|0:0,0:0:0:0:
192,56,143360,1,8,0:0:0:0:
236,252,143555,1,0,0:0:0:0:
236,252,143653,1,0,0:0:0:0:
236,252,143750,2,0,P|263:290|302:307,1,83.9999974365235,0|0,0:0|0:0,0:0:0:0:
448,284,144140,1,8,0:0:0:0:
228,368,144334,1,0,0:0:0:0:
228,368,144432,1,0,0:0:0:0:
228,368,144529,6,0,B|152:340|136:384|56:348,1,167.999994873047,4|8,0:0|0:0,0:0:0:0:
148,184,145114,2,0,P|140:244|120:272,1,83.9999974365235,0|0,0:0|0:0,0:0:0:0:
68,112,145503,2,0,P|117:77|152:73,1,83.9999974365235,0|8,0:0|0:0,0:0:0:0:
236,204,145893,1,0,0:0:0:0:
236,204,145990,1,0,0:0:0:0:
236,204,146088,6,0,P|288:208|332:208,1,83.9999974365235,2|0,0:0|0:0,0:0:0:0:
476,96,146477,1,8,0:0:0:0:
436,284,146672,2,0,P|384:280|340:280,1,83.9999974365235,0|0,0:0|0:0,0:0:0:0:
260,128,147062,1,0,0:0:0:0:
280,304,147256,1,8,0:0:0:0:
424,200,147451,1,0,0:0:0:0:
260,128,147646,6,0,L|424:200,1,167.999994873047,2|8,0:0|0:0,0:0:0:0:
352,40,148230,1,0,0:0:0:0:
352,40,148328,1,0,0:0:0:0:
352,40,148425,1,0,0:0:0:0:
180,100,148620,1,0,0:0:0:0:
272,244,148815,1,8,0:0:0:0:
252,40,149010,1,0,0:0:0:0:
200,276,149204,6,0,P|232:313|278:325,1,83.9999974365235,2|2,0:0|0:0,0:0:0:0:
64,304,149594,1,8,0:0:0:0:
112,128,149789,1,0,0:0:0:0:
152,344,149984,1,0,0:0:0:0:
184,176,150178,1,0,0:0:0:0:
199,170,150275,1,0,0:0:0:0:
216,166,150372,1,8,0:0:0:0:
232,163,150470,1,0,0:0:0:0:
249,163,150567,1,0,0:0:0:0:
266,165,150665,1,0,0:0:0:0:
281,171,150763,6,0,B|368:200|368:156|448:176,1,167.999994873047,4|8,0:0|0:0,0:0:0:0:
284,284,151347,1,0,0:0:0:0:
488,320,151542,2,0,P|440:312|408:288,1,83.9999974365235
384,136,151932,1,8,0:0:0:0:
272,300,152127,1,0,0:0:0:0:
272,300,152224,1,0,0:0:0:0:
272,300,152321,6,0,P|216:296|172:252,1,83.9999974365235,2|0,0:0|0:0,0:0:0:0:
140,176,152711,1,8,0:0:0:0:
200,52,152906,1,0,0:0:0:0:
248,216,153101,1,0,0:0:0:0:
96,84,153295,1,0,0:0:0:0:
280,112,153490,1,8,0:0:0:0:
108,192,153685,1,0,0:0:0:0:
108,192,153782,1,0,0:0:0:0:
108,192,153880,5,2,0:0:0:0:
288,224,154075,1,0,0:0:0:0:
140,280,154269,1,8,0:0:0:0:
184,128,154464,1,0,0:0:0:0:
184,128,154562,1,0,0:0:0:0:
184,128,154659,1,0,0:0:0:0:
48,268,154854,1,0,0:0:0:0:
236,308,155049,1,8,0:0:0:0:
292,124,155243,1,0,0:0:0:0:
264,316,155438,6,0,L|236:228,1,83.9999974365235,2|2,0:0|0:0,0:0:0:0:
428,284,155828,1,8,0:0:0:0:
388,116,156023,1,0,0:0:0:0:
388,116,156120,1,0,0:0:0:0:
388,116,156217,2,0,L|360:204,1,83.9999974365235,2|0,0:0|0:0,0:0:0:0:
268,340,156607,1,8,0:0:0:0:
444,276,156802,1,0,0:0:0:0:
238,235,156997,6,0,L|116:160,1,140,6|0,0:0|0:0,0:0:0:0:
84,36,157581,1,2,0:0:0:0:
184,80,157776,2,0,P|268:88|324:44,1,140,8|0,0:0|0:0,0:0:0:0:
424,96,158360,1,2,0:0:0:0:
380,228,158555,6,0,P|372:180|376:152,1,70,0|2,0:0|0:0,0:0:0:0:
480,252,158945,2,0,P|471:299|459:325,1,70,2|0,0:0|0:0,0:0:0:0:
356,376,159334,1,8,0:0:0:0:
264,248,159529,1,0,0:0:0:0:
380,304,159724,1,0,0:0:0:0:
192,296,159919,1,0,0:0:0:0:
192,296,160016,1,0,0:0:0:0:
192,296,160114,6,0,P|182:225|228:172,1,140,6|0,0:0|0:0,0:0:0:0:
348,224,160698,1,2,0:0:0:0:
276,96,160893,2,0,P|204:88|128:84,1,140,8|0,0:0|0:0,0:0:0:0:
64,208,161477,1,2,0:0:0:0:
240,176,161672,6,0,P|297:178|337:156,2,93.3333333333333,0|2|0,0:0|0:0|0:0,0:0:0:0:
112,172,162451,1,8,0:0:0:0:
32,256,162646,1,2,0:0:0:0:
32,108,162841,1,2,0:0:0:0:
120,288,163036,1,2,0:0:0:0:
120,288,163133,1,0,0:0:0:0:
120,288,163230,5,6,0:0:0:0:
220,56,163620,1,0,0:0:0:0:
248,216,163815,1,2,0:0:0:0:
328,92,164010,1,2,0:0:0:0:
292,308,164204,1,2,0:0:0:0:
208,144,164399,1,8,0:0:0:0:
388,160,164594,1,8,0:0:0:0:
224,240,164789,1,8,0:0:0:0:
68,24,165178,5,4,0:0:0:0:
440,28,165568,2,0,P|376:53|296:84,1,140
228,196,166153,1,0,0:0:0:0:
228,196,166250,1,0,0:0:0:0:
228,196,166347,5,2,0:0:0:0:
256,192,166445,12,0,169464,0:0:0:0:
208,216,178815,6,0,P|280:192|328:196,1,112,2|2,0:1|0:1,0:0:0:0:
408,236,179399,2,0,P|402:177|392:104,1,112,2|2,0:1|0:1,0:0:0:0:
448,40,179984,1,0,0:0:0:0:
248,44,180373,6,0,P|193:52|124:68,1,112,2|2,0:1|0:1,0:0:0:0:
56,124,180958,2,0,P|111:137|164:152,1,112,2|2,0:1|0:1,0:0:0:0:
164,152,181737,1,2,0:1:0:0:
248,228,181932,6,0,P|304:196|368:180,1,112,2|0,0:1|0:0,0:0:0:0:
444,216,182516,2,0,P|444:148|410:102,1,112,2|0,0:1|0:0,0:0:0:0:
332,64,183101,2,0,P|260:64|208:60,1,112,2|0,0:1|0:0,0:0:0:0:
180,156,183685,2,0,P|110:174|59:184,1,112,2|0,0:1|0:0,0:0:0:0:
128,264,184269,2,0,P|132:312|128:344,1,56,2|0,0:1|0:0,0:0:0:0:
48,376,184659,2,0,P|44:328|48:296,1,56,2|0,0:1|0:0,0:0:0:0:
124,240,185049,6,0,P|188:232|240:240,1,112,2|2,0:1|0:1,0:0:0:0:
316,300,185633,2,0,P|371:306|426:298,1,112,2|2,0:1|0:1,0:0:0:0:
492,220,186217,1,0,0:0:0:0:
384,52,186607,6,0,P|392:132|396:180,1,112,2|2,0:1|0:1,0:0:0:0:
308,212,187191,2,0,P|300:132|296:84,1,112,2|2,0:1|0:1,0:0:0:0:
297,100,187971,1,2,0:1:0:0:
200,144,188165,6,0,P|140:136|100:96,1,112,2|0,0:1|0:0,0:0:0:0:
28,32,188750,2,0,P|24:108|24:168,1,112,2|0,0:1|0:0,0:0:0:0:
4,244,189334,2,0,P|64:252|136:256,1,112,2|0,0:1|0:0,0:0:0:0:
188,324,189919,2,0,P|242:311|296:295,1,112,2|0,0:1|0:0,0:0:0:0:
344,208,190503,1,2,0:1:0:0:
296,120,190698,2,0,P|252:168|246:227,1,112,2|0,0:1|0:0,0:0:0:0:
312,320,191282,6,0,B|380:304|380:340|456:320,1,140,2|2,0:0|0:0,0:0:0:0:
416,172,191867,2,0,P|420:220|404:260,1,70,0|2,0:0|0:0,0:0:0:0:
320,112,192256,2,0,P|352:76|393:62,1,70,0|2,0:0|0:0,0:0:0:0:
288,204,192646,6,0,B|256:196|233:162|233:162|200:144|160:144,1,140,8|0,0:0|0:0,0:0:0:0:
68,256,193230,2,0,L|48:332,1,70,2|0,0:0|0:0,0:0:0:0:
8,172,193620,1,2,0:0:0:0:
128,64,193815,2,0,L|52:88,1,70,0|2,0:0|0:0,0:0:0:0:
208,148,194204,1,0,0:0:0:0:
208,148,194302,1,0,0:0:0:0:
208,148,194399,6,0,P|240:86|227:7,1,140,2|2,0:0|0:0,0:0:0:0:
128,176,194984,2,0,P|157:217|197:233,1,70,0|2,0:0|0:0,0:0:0:0:
316,184,195373,1,0,0:0:0:0:
200,320,195568,1,2,0:0:0:0:
396,196,195763,6,0,P|384:136|319:99,1,140,8|0,0:0|0:0,0:0:0:0:
196,16,196347,2,0,L|176:84,1,70,2|0,0:0|0:0,0:0:0:0:
173,226,196737,1,2,0:0:0:0:
320,184,196932,1,0,0:0:0:0:
212,316,197127,1,2,0:0:0:0:
248,120,197321,1,0,0:0:0:0:
308,328,197516,6,0,P|316:276|312:252,1,70,4|0,0:0|0:0,0:0:0:0:
184,344,197906,1,2,0:0:0:0:
172,192,198101,1,2,0:0:0:0:
348,252,198295,1,2,0:0:0:0:
148,268,198490,1,2,0:0:0:0:
244,148,198685,1,2,0:0:0:0:
92,124,198880,1,2,0:0:0:0:
271,217,199075,6,0,P|304:189|315:142,1,70,2|2,0:0|0:0,0:0:0:0:
208,28,199464,1,2,0:0:0:0:
436,56,199659,2,0,P|392:56|354:85,1,70,8|2,0:0|0:0,0:0:0:0:
256,240,200049,1,2,0:0:0:0:
436,208,200243,1,2,0:0:0:0:
244,148,200438,1,2,0:0:0:0:
332,384,200633,5,2,0:1:0:0:
436,84,200893,1,2,0:1:0:0:
124,144,201153,1,2,0:1:0:0:
424,324,201412,5,2,0:1:0:0:
295,33,201672,1,2,0:1:0:0:
108,290,201932,1,2,0:1:0:0:
424,324,202191,5,4,0:0:0:0:
100,252,202971,6,0,P|164:276|204:264,1,83.9999974365235,2|0,0:0|0:0,0:0:0:0:
280,188,203360,1,8,0:0:0:0:
302,177,203457,1,0,0:0:0:0:
327,172,203554,1,0,0:0:0:0:
352,174,203652,1,0,0:0:0:0:
376,180,203750,6,0,P|416:144|424:104,1,83.9999974365235,6|0,0:0|0:0,0:0:0:0:
512,276,204140,1,8,0:0:0:0:
336,260,204334,1,0,0:0:0:0:
336,260,204432,1,0,0:0:0:0:
336,260,204529,1,2,0:0:0:0:
488,176,204724,1,0,0:0:0:0:
412,364,204919,2,0,L|424:272,1,83.9999974365235,8|0,0:0|0:0,0:0:0:0:
316,148,205308,5,2,0:0:0:0:
427,253,205503,1,0,0:0:0:0:
196,216,205698,1,8,0:0:0:0:
340,128,205893,1,0,0:0:0:0:
340,128,205990,1,0,0:0:0:0:
340,128,206088,2,0,P|360:76|360:44,1,83.9999974365235,2|0,0:0|0:0,0:0:0:0:
196,216,206477,2,0,P|216:292|248:332,1,125.999996154785,8|0,0:0|0:0,0:0:0:0:
320,344,206867,5,2,0:0:0:0:
144,376,207062,1,0,0:0:0:0:
192,188,207256,1,8,0:0:0:0:
48,304,207451,1,0,0:0:0:0:
48,304,207549,1,0,0:0:0:0:
48,304,207646,2,0,P|96:304|136:292,1,83.9999974365235,2|0,0:0|0:0,0:0:0:0:
136,108,208036,2,0,P|88:108|48:120,1,83.9999974365235,8|0,0:0|0:0,0:0:0:0:
220,204,208425,5,2,0:0:0:0:
268,60,208620,1,0,0:0:0:0:
328,276,208815,1,8,0:0:0:0:
192,116,209010,1,0,0:0:0:0:
192,116,209107,1,0,0:0:0:0:
192,116,209204,1,2,0:0:0:0:
368,168,209399,1,0,0:0:0:0:
180,228,209594,1,8,0:0:0:0:
400,160,209789,1,0,0:0:0:0:
156,236,209984,6,0,P|112:212|92:184,1,83.9999974365235,6|0,0:0|0:0,0:0:0:0:
276,196,210373,1,8,0:0:0:0:
168,344,210568,1,0,0:0:0:0:
168,344,210665,1,0,0:0:0:0:
168,344,210763,2,0,P|117:341|87:325,1,83.9999974365235,2|0,0:0|0:0,0:0:0:0:
168,156,211153,1,8,0:0:0:0:
312,280,211347,1,0,0:0:0:0:
312,280,211445,1,0,0:0:0:0:
312,280,211542,6,0,P|364:276|412:280,1,83.9999974365235,2|0,0:0|0:0,0:0:0:0:
248,360,211932,1,8,0:0:0:0:
292,164,212127,1,0,0:0:0:0:
292,164,212224,1,0,0:0:0:0:
292,164,212321,1,2,0:0:0:0:
200,256,212516,1,0,0:0:0:0:
228,64,212711,1,8,0:0:0:0:
380,184,212906,1,0,0:0:0:0:
180,160,213101,6,0,P|120:144|96:124,1,83.9999974365235,2|0,0:0|0:0,0:0:0:0:
252,68,213490,2,0,P|312:84|336:104,1,83.9999974365235,8|0,0:0|0:0,0:0:0:0:
328,96,213782,1,0,0:0:0:0:
328,96,213880,1,2,0:0:0:0:
348,280,214075,2,0,P|385:201|424:112,1,167.999994873047
424,336,214659,5,2,0:0:0:0:
288,208,214854,1,0,0:0:0:0:
512,196,215049,1,8,0:0:0:0:
342,296,215243,1,2,0:0:0:0:
336,104,215438,1,2,0:0:0:0:
188,228,215633,1,0,0:0:0:0:
171,225,215730,1,0,0:0:0:0:
155,219,215827,1,10,0:0:0:0:
140,211,215925,1,0,0:0:0:0:
127,201,216022,1,0,0:0:0:0:
116,188,216120,1,0,0:0:0:0:
104,176,216217,6,0,P|64:144|20:140,1,83.9999974365235,6|0,0:0|0:0,0:0:0:0:
192,84,216607,1,8,0:0:0:0:
308,208,216802,1,0,0:0:0:0:
308,208,216899,1,0,0:0:0:0:
308,208,216997,2,0,P|312:264|308:296,1,83.9999974365235,2|0,0:0|0:0,0:0:0:0:
220,168,217386,1,8,0:0:0:0:
332,64,217581,1,0,0:0:0:0:
160,88,217776,6,0,P|112:96|72:108,1,83.9999974365235,2|0,0:0|0:0,0:0:0:0:
244,168,218165,2,0,P|292:160|332:148,1,83.9999974365235,8|0,0:0|0:0,0:0:0:0:
404,32,218555,1,2,0:0:0:0:
452,208,218750,1,0,0:0:0:0:
324,68,218945,1,8,0:0:0:0:
472,236,219140,1,0,0:0:0:0:
472,236,219237,1,0,0:0:0:0:
472,236,219334,6,0,P|416:268|368:276,1,83.9999974365235,2|0,0:0|0:0,0:0:0:0:
244,168,219724,1,8,0:0:0:0:
392,192,219919,1,0,0:0:0:0:
392,192,220016,1,0,0:0:0:0:
392,192,220114,1,2,0:0:0:0:
236,280,220308,1,0,0:0:0:0:
328,84,220503,1,8,0:0:0:0:
318,235,220698,1,0,0:0:0:0:
180,96,220893,6,0,P|164:56|164:8,1,83.9999974365235,2|0,0:0|0:0,0:0:0:0:
100,200,221282,1,8,0:0:0:0:
272,136,221477,1,0,0:0:0:0:
272,136,221575,1,0,0:0:0:0:
272,136,221672,2,0,P|265:178|240:219,1,83.9999974365235,2|2,0:0|0:0,0:0:0:0:
100,220,222062,1,8,0:0:0:0:
200,288,222256,1,0,0:0:0:0:
192,140,222451,6,0,P|227:68|297:64,1,140,12|0,0:0|0:0,0:0:0:0:
368,148,223036,1,2,0:0:0:0:
480,44,223230,2,0,P|460:120|440:192,1,140,8|0,0:0|0:0,0:0:0:0:
504,280,223815,1,2,0:0:0:0:
364,256,224010,6,0,P|400:280|424:316,1,70,0|2,0:0|0:0,0:0:0:0:
304,384,224399,2,0,P|282:346|276:303,1,70,2|0,0:0|0:0,0:0:0:0:
308,184,224789,1,8,0:0:0:0:
236,244,224984,1,2,0:0:0:0:
288,92,225178,1,0,0:0:0:0:
132,124,225373,1,0,0:0:0:0:
132,124,225471,1,2,0:0:0:0:
132,124,225568,6,0,P|96:136|12:68,1,140,6|0,0:0|0:0,0:0:0:0:
168,32,226153,1,2,0:0:0:0:
188,192,226347,2,0,L|164:332,1,140,8|0,0:0|0:0,0:0:0:0:
256,252,226932,1,2,0:0:0:0:
384,320,227127,6,0,B|440:328|436:352|496:348,2,93.3333333333333
444,184,227906,1,8,0:0:0:0:
364,68,228101,1,0,0:0:0:0:
496,116,228295,1,2,0:0:0:0:
292,140,228490,1,2,0:0:0:0:
292,140,228588,1,0,0:0:0:0:
292,140,228685,5,4,0:0:0:0:
480,332,229075,1,2,0:0:0:0:
448,172,229269,1,0,0:0:0:0:
380,296,229464,1,2,0:0:0:0:
304,176,229659,1,2,0:0:0:0:
472,152,229854,1,2,0:0:0:0:
384,80,230049,1,2,0:0:0:0:
296,264,230243,6,0,P|252:284|212:292,1,70,2|0,0:0|0:0,0:0:0:0:
132,184,230633,2,0,P|176:164|216:156,1,70,8|0,0:0|0:0,0:0:0:0:
104,284,231023,2,0,P|49:245|31:170,1,140,2|2,0:0|0:0,0:0:0:0:
180,88,231607,1,0,0:0:0:0:
180,88,231704,1,0,0:0:0:0:
180,88,231802,5,2,0:0:0:0:
56,100,231997,1,0,0:0:0:0:
248,16,232191,1,8,0:0:0:0:
244,136,232386,1,0,0:0:0:0:
124,32,232581,1,2,0:0:0:0:
296,80,232776,1,2,0:0:0:0:
120,144,232971,1,8,0:0:0:0:
248,16,233165,1,0,0:0:0:0:
240,168,233360,6,0,P|231:225|220:272,2,93.3333333333333,8|8|8,0:0|0:0|0:0,0:0:0:0:
316,64,234140,2,0,P|380:64|456:96,1,140,0|0,0:0|0:0,0:0:0:0:
148,148,234919,5,2,0:1:0:0:
336,300,235503,1,2,0:1:0:0:
144,288,235893,1,2,0:1:0:0:
240,216,236088,1,2,0:1:0:0:
252,332,236282,1,2,0:1:0:0:
256,196,236477,1,2,0:1:0:0:
448,228,236867,1,2,0:1:0:0:
384,156,237062,1,2,0:1:0:0:
128,296,237646,5,2,0:1:0:0:
40,168,238036,1,2,0:1:0:0:
144,188,238425,1,2,0:1:0:0:
24,324,238815,1,2,0:1:0:0:
72,244,239204,1,2,0:1:0:0:
200,348,239594,1,2,0:1:0:0:
360,120,240178,5,2,0:1:0:0:
360,120,240276,1,2,0:1:0:0:
360,120,240373,1,2,0:1:0:0:
404,312,240763,1,0,0:0:0:0:
444,200,240958,1,0,0:0:0:0:
444,200,241055,1,0,0:0:0:0:
444,200,241153,6,0,P|392:208|352:228,1,70,6|0,0:0|0:0,0:0:0:0:
204,180,241542,1,2,0:0:0:0:
296,264,241737,1,2,0:0:0:0:
260,92,241932,1,2,0:0:0:0:
192,320,242127,1,2,0:0:0:0:
332,152,242321,1,2,0:0:0:0:
116,232,242516,1,2,0:0:0:0:
116,232,242614,1,0,0:0:0:0:
116,232,242711,6,0,P|160:200|192:192,1,70,2|0,0:0|0:0,0:0:0:0:
368,320,243101,1,12,0:0:0:0:
212,368,243295,1,0,0:0:0:0:
251,231,243490,2,0,P|258:181|243:147,1,70,0|0,0:0|0:0,0:0:0:0:
124,108,243880,1,0,0:0:0:0:
240,32,244075,1,0,0:0:0:0:
240,32,244172,1,0,0:0:0:0:
240,32,244269,6,0,P|284:40|328:24,1,70,2|0,0:0|0:0,0:0:0:0:
424,108,244659,1,8,0:0:0:0:
356,240,244854,2,0,P|348:196|352:164,1,70,2|2,0:1|0:0,0:0:0:0:
220,236,245243,2,0,P|228:280|224:312,1,70,2|8,0:1|0:0,0:0:0:0:
84,248,245633,1,2,0:0:0:0:
172,120,245828,6,0,P|220:112|252:112,1,70,2|0,0:1|0:0,0:0:0:0:
352,220,246217,1,8,0:0:0:0:
416,56,246412,2,0,P|372:84|352:116,1,70,2|2,0:1|0:0,0:0:0:0:
488,188,246802,2,0,P|503:138|498:100,1,70,2|8,0:1|0:0,0:0:0:0:
380,216,247191,1,0,0:0:0:0:
268,112,247386,6,0,P|196:100|128:116,1,140,2|8,0:1|0:0,0:0:0:0:
56,284,247971,1,2,0:1:0:0:
56,284,248068,1,2,0:1:0:0:
56,284,248165,2,0,L|16:132,1,140,2|8,0:1|0:0,0:0:0:0:
168,232,248750,1,0,0:0:0:0:
288,112,248945,6,0,B|360:100|360:128|432:112,1,140,2|8,0:1|0:0,0:0:0:0:
280,16,249529,1,0,0:0:0:0:
280,16,249627,1,2,0:1:0:0:
280,16,249724,1,2,0:1:0:0:
159,163,249919,1,8,0:0:0:0:
160,176,250016,1,0,0:0:0:0:
162,190,250113,1,8,0:0:0:0:
164,204,250211,1,0,0:0:0:0:
166,218,250308,1,0,0:0:0:0:
168,232,250406,1,0,0:0:0:0:
171,247,250503,6,0,P|223:263|295:247,1,105,10|0,0:0|0:0,0:0:0:0:
304,248,250893,1,0,0:0:0:0:
412,108,251088,2,0,P|403:186|392:268,1,140,10|10,0:0|0:0,0:0:0:0:
492,176,251672,1,10,0:0:0:0:
416,80,251867,1,0,0:0:0:0:
264,120,252062,6,0,P|192:112|160:88,1,105,10|0,0:0|0:0,0:0:0:0:
140,80,252451,1,10,0:0:0:0:
24,208,252646,1,8,0:0:0:0:
148,176,252841,1,0,0:0:0:0:
0,104,253036,1,10,0:0:0:0:
152,268,253230,5,14,0:0:0:0:
256,192,253328,12,0,256737,0:0:0:0:
