osu file format v14

[General]
AudioFilename: audio.mp3
AudioLeadIn: 0
PreviewTime: 56477
Countdown: 0
SampleSet: Soft
StackLeniency: 0.7
Mode: 0
LetterboxInBreaks: 0
WidescreenStoryboard: 0

[Editor]
Bookmarks: 56477,122711,202971,256737
DistanceSpacing: 1
BeatDivisor: 4
GridSize: 4
TimelineZoom: 1

[Metadata]
Title:Everyday World
TitleUnicode:エブリデイワールド
Artist:Yukinoshita Yukino (CV.Hayami Saori) & Yuigahama Yui (CV.Touyama Nao)
ArtistUnicode:雪ノ下雪乃(CV.早見沙織)&由比ヶ浜結衣(CV.東山奈央)
Creator:Pentori
Version:Collab Normal
Source:やはり俺の青春ラブコメはまちがっている。続
Tags:Akitoshi Kibbleru Doormat oregairu zoku ending ed yahari ore no seishun love come wa machigatteiru my teen romantic comedy snafu full
BeatmapID:940177
BeatmapSetID:433114

[Difficulty]
HPDrainRate:3
CircleSize:3
OverallDifficulty:3
ApproachRate:4.5
SliderMultiplier:1
SliderTickRate:2

[Events]
//Background and Video events
0,0,"BG.jpg",0,0
//Break Periods
2,85509,93399
2,169665,177555
//Storyboard Layer 0 (Background)
//Storyboard Layer 1 (Fail)
//Storyboard Layer 2 (Pass)
//Storyboard Layer 3 (Foreground)
//Storyboard Sound Samples

[TimingPoints]
1153,389.61038961039,4,2,1,30,1,0
7386,-100,4,2,1,40,0,0
10503,-100,4,2,1,60,0,0
14594,-100,4,2,1,65,0,0
14984,-100,4,2,1,70,0,0
16737,-100,4,2,1,60,0,0
41672,-100,4,2,1,50,0,0
47906,-100,4,2,1,60,0,0
56477,-100,4,2,1,70,0,0
57256,-100,4,2,1,70,0,1
75958,-100,4,2,1,60,0,0
94659,-100,4,2,1,40,0,0
97776,-100,4,2,1,50,0,0
122711,-100,4,2,1,40,0,0
128945,-100,4,2,1,50,0,0
138295,-100,4,2,1,70,0,1
156997,-100,4,2,1,60,0,0
169464,-100,4,2,1,5,0,0
178815,-100,4,2,1,45,0,0
191282,-100,4,2,1,50,0,0
202191,-100,4,2,1,40,0,0
203750,-100,4,2,1,70,0,1
222451,-100,4,2,1,60,0,0
234140,-100,4,2,1,50,0,0
234919,-100,4,2,1,40,0,0
241153,-100,4,2,1,50,0,0
250503,-100,4,2,1,60,0,0
255178,-100,4,2,1,50,0,0
255568,-100,4,2,1,45,0,0
255958,-100,4,2,1,40,0,0
256153,-100,4,2,1,35,0,0
256347,-100,4,2,1,30,0,0
256445,-100,4,2,1,20,0,0
256542,-100,4,2,1,10,0,0

[Colours]
Combo1 : 0,130,130
Combo2 : 100,100,255
Combo3 : 37,193,239
Combo4 : 128,128,192

[HitObjects]
335,133,1153,6,0,P|383:125|446:138,2,100,2|2|2,0:0|0:0|0:0,0:0:0:0:
264,203,2322,1,2,0:0:0:0:
334,273,2711,2,0,P|342:321|329:384,2,100,2|2|2,0:0|0:0|0:0,0:0:0:0:
264,203,3880,2,0,L|202:209,1,50,2|0,0:0|0:0,0:0:0:0:
164,205,4270,6,0,B|153:147|153:147|158:96,2,100,2|2|2,0:0|0:0|0:0,0:0:0:0:
189,301,5439,1,2,0:0:0:0:
103,352,5828,2,0,B|45:363|45:363|-6:358,2,100,2|2|2,0:0|0:0|0:0,0:0:0:0:
189,301,6997,2,0,L|258:304,1,50,2|0,0:0|0:0,0:0:0:0:
288,298,7387,6,0,P|328:272|356:219,1,100,2|0,0:0|0:0,0:0:0:0:
373,129,8166,1,2,0:0:0:0:
309,51,8556,2,0,L|251:43,1,50,2|0,0:0|0:0,0:0:0:0:
209,42,8945,2,0,P|169:68|141:121,1,100,2|2,0:0|0:0,0:0:0:0:
137,162,9529,1,0,0:0:0:0:
119,260,9919,2,0,L|59:265,2,50,0|2|0,0:0|0:0|0:0,0:0:0:0:
154,295,10504,6,0,P|182:313|247:317,1,100,4|2,0:0|0:0,0:0:0:0:
296,307,11088,1,4,0:0:0:0:
390,275,11478,1,8,0:0:0:0:
390,275,11672,2,0,L|382:159,1,100,4|0,0:0|0:0,0:0:0:0:
378,125,12257,2,0,B|328:105|328:105|272:105,1,100,4|0,0:0|0:0,0:0:0:0:
232,112,12841,2,0,P|185:128|121:118,1,100,4|8,0:0|0:0,0:0:0:0:
91,99,13426,5,4,0:0:0:0:
256,192,13620,12,4,14984,0:0:0:0:
150,246,16737,6,0,P|195:264|264:262,1,100,6|2,0:0|0:0,0:0:0:0:
343,243,17517,2,0,L|349:141,1,100,2|2,0:0|0:0,0:0:0:0:
351,92,18101,1,0,0:0:0:0:
351,42,18296,2,0,P|302:28|239:34,1,100,2|2,0:0|0:0,0:0:0:0:
200,115,19075,2,0,P|151:129|88:123,1,100,2|2,0:0|0:0,0:0:0:0:
17,180,19854,6,0,B|12:214|12:214|27:294,1,100,2|2,0:0|0:0,0:0:0:0:
100,345,20633,2,0,P|150:354|208:336,1,100,2|2,0:0|0:0,0:0:0:0:
242,320,21217,2,0,P|292:311|350:329,1,100
385,341,21802,1,2,0:0:0:0:
470,289,22192,1,2,0:0:0:0:
470,289,22387,2,0,B|475:242|475:242|468:184,1,100
461,141,22971,6,0,P|405:138|346:115,1,100,2|2,0:0|0:0,0:0:0:0:
272,83,23750,2,0,P|216:86|157:109,1,100,2|2,0:0|0:0,0:0:0:0:
76,120,24530,2,0,B|62:73|62:73|70:14,2,100,2|2|2,0:0|0:0|0:0,0:0:0:0:
111,215,25698,1,2,0:0:0:0:
205,248,26088,6,0,P|248:291|274:380,2,150,2|0|2,0:0|0:0|0:0,0:0:0:0:
111,215,27646,1,2,0:0:0:0:
134,117,28036,2,0,L|174:86,1,50,2|0,0:0|0:0,0:0:0:0:
220,68,28425,2,0,B|271:74|271:74|322:106,1,100,2|8,0:0|0:0,0:0:0:0:
378,175,29205,6,0,P|416:207|440:267,1,100,6|8,0:0|0:0,0:0:0:0:
352,304,29984,2,0,P|314:272|290:212,1,100,2|8,0:0|0:0,0:0:0:0:
278,179,30568,1,0,0:0:0:0:
256,133,30763,2,0,B|216:122|216:122|143:126,1,100,2|8,0:0|0:0,0:0:0:0:
58,138,31543,2,0,P|51:89|66:27,1,100,2|8,0:0|0:0,0:0:0:0:
160,29,32322,6,0,B|200:40|200:40|273:36,1,100,2|8,0:0|0:0,0:0:0:0:
358,41,33101,2,0,P|371:92|357:154,1,100,2|8,0:0|0:0,0:0:0:0:
343,183,33685,1,0,0:0:0:0:
314,224,33880,2,0,L|319:326,1,100,2|8,0:0|0:0,0:0:0:0:
219,334,34659,2,0,L|214:232,1,100,2|8,0:0|0:0,0:0:0:0:
212,184,35244,1,0,0:0:0:0:
207,134,35439,6,0,P|156:122|97:127,2,100,2|8|2,0:0|0:0|0:0,0:0:0:0:
306,145,36607,2,0,L|321:84,1,50,8|0,0:0|0:0,0:0:0:0:
331,47,36997,2,0,B|381:33|381:33|443:42,1,100,2|8,0:0|0:0,0:0:0:0:
479,125,37776,2,0,B|493:175|493:175|484:237,1,100,2|8,0:0|0:0,0:0:0:0:
459,319,38556,6,0,P|408:325|354:313,1,100,2|8,0:0|0:0,0:0:0:0:
322,223,39334,2,0,P|271:217|217:229,1,100,2|8,0:0|0:0,0:0:0:0:
184,258,39919,1,0,0:0:0:0:
145,289,40114,2,0,P|94:295|40:283,1,100,2|8,0:0|0:0,0:0:0:0:
7,193,40893,2,0,L|10:128,1,50,8|0,0:0|0:0,0:0:0:0:
53,118,41283,2,0,L|50:53,1,50,2|2,0:0|0:0,0:0:0:0:
84,31,41672,6,0,P|185:26|280:66,1,200,6|0,0:0|0:0,0:0:0:0:
331,145,42841,2,0,L|383:155,1,50,0|2,0:0|0:0,0:0:0:0:
426,174,43231,2,0,B|462:205|462:205|481:266,1,100,10|0,0:0|0:0,0:0:0:0:
443,349,44010,2,0,P|395:370|329:362,1,100
251,344,44789,6,0,P|170:333|104:354,2,150,2|0|8,0:0|0:0|0:0,0:0:0:0:
349,369,46348,2,0,P|350:317|310:261,1,100,2|0,0:0|0:0,0:0:0:0:
283,252,46932,2,0,B|268:205|268:205|275:150,1,100,2|8,0:0|0:0,0:0:0:0:
288,106,47516,1,10,0:0:0:0:
202,53,47906,6,0,P|160:33|50:43,2,150,12|12|12,0:0|0:0|0:0,0:0:0:0:
288,106,49465,2,0,P|330:126|440:116,2,150,12|12|12,0:0|0:0|0:0,0:0:0:0:
195,144,51023,6,0,L|78:148,1,100,6|8,0:0|0:0,0:0:0:0:
94,247,51802,2,0,L|211:243,1,100,2|8,0:0|0:0,0:0:0:0:
244,239,52387,1,0,0:0:0:0:
293,244,52581,2,0,P|318:285|324:340,1,100,2|8,0:0|0:0,0:0:0:0:
415,377,53361,2,0,P|420:327|446:285,1,100,2|8,0:0|0:0,0:0:0:0:
473,243,53945,1,8,0:0:0:0:
491,196,54140,6,0,B|494:149|494:149|473:96,1,100,6|0,0:0|0:0,0:0:0:0:
390,48,54919,2,8,L|322:45,1,50
307,83,55309,2,8,L|239:86,1,50
215,113,55698,2,0,P|195:158|204:212,1,100,10|8,0:0|0:0,0:0:0:0:
296,172,56478,1,2,0:0:0:0:
392,140,56867,1,8,0:0:0:0:
380,240,57257,6,0,P|340:272|292:280,1,100,6|8,0:0|0:0,0:0:0:0:
192,276,58036,2,0,B|136:284|136:284|80:308,1,100,2|8,0:0|0:0,0:0:0:0:
52,320,58620,1,0,0:0:0:0:
4,332,58815,2,0,B|16:228,1,100,2|8,0:0|0:0,0:0:0:0:
64,144,59594,2,0,P|104:100|152:88,1,100,2|8,0:0|0:0,0:0:0:0:
240,96,60374,6,0,L|344:108,2,100,2|8|2,0:0|0:0|0:0,0:0:0:0:
169,169,61543,1,8,0:0:0:0:
104,244,61932,2,0,L|0:232,2,100,2|8|2,0:0|0:0|0:0,0:0:0:0:
204,260,63101,1,8,0:0:0:0:
304,268,63491,6,0,P|368:268|416:248,1,100,6|8,0:0|0:0,0:0:0:0:
424,212,64075,2,0,B|436:160|436:160|440:100,1,100
432,64,64659,1,8,0:0:0:0:
336,36,65049,2,0,P|286:45|220:64,1,100,0|8,0:0|0:0,0:0:0:0:
192,72,65633,1,0,0:0:0:0:
144,84,65828,2,0,L|124:24,2,50,0|0|8,0:0|0:0|0:0,0:0:0:0:
132,184,66607,6,0,P|76:228|64:256,2,100,2|8|2,0:0|0:0|0:0,0:0:0:0:
180,176,67581,2,0,B|232:172|232:172|272:144,1,100
292,100,68165,2,0,L|356:104,2,50,2|0|8,0:0|0:0|0:0,0:0:0:0:
196,68,68945,1,2,0:0:0:0:
100,100,69334,1,8,0:0:0:0:
32,172,69724,6,0,L|60:284,1,100,6|8,0:0|0:0,0:0:0:0:
148,292,70504,2,0,L|120:180,1,100,2|8,0:0|0:0,0:0:0:0:
112,148,71088,1,0,0:0:0:0:
100,100,71283,2,0,B|156:80|156:80|220:80,1,100,2|8,0:0|0:0,0:0:0:0:
264,156,72062,2,0,B|323:156|323:156|383:135,1,100,2|8,0:0|0:0,0:0:0:0:
404,116,72646,1,0,0:0:0:0:
444,84,72841,6,0,P|416:52|360:36,1,100,2|8,0:0|0:0,0:0:0:0:
268,72,73620,2,0,B|156:84,1,100,2|8,0:0|0:0,0:0:0:0:
124,104,74205,1,0,0:0:0:0:
84,132,74400,2,0,B|100:180|100:180|100:244,2,100,2|8|2,0:0|0:0|0:0,0:0:0:0:
68,32,75568,1,8,0:0:0:0:
160,68,75958,6,0,P|220:88|260:88,1,100,4|0,0:0|0:0,0:0:0:0:
356,100,76737,2,0,B|388:148|388:148|404:208,1,100,8|0,0:0|0:0,0:0:0:0:
408,240,77322,2,0,B|360:248|360:248|320:296|248:280,1,150,2|2,0:0|0:0,0:0:0:0:
283,184,78296,2,0,P|203:136|179:136,1,100,8|0,0:0|0:0,0:0:0:0:
100,160,79075,6,0,B|88:216|88:216|96:280,1,100,6|0,0:0|0:0,0:0:0:0:
112,356,79854,1,8,0:0:0:0:
208,324,80244,1,0,0:0:0:0:
252,304,80439,2,0,P|332:284|400:292,1,150,2|2,0:0|0:0,0:0:0:0:
476,228,81413,2,0,P|424:208|360:200,1,100,12|2,0:0|0:0,0:0:0:0:
332,112,82191,6,0,B|384:112|384:112|440:92,2,100,2|2|2,0:0|0:0|0:0,0:0:0:0:
232,108,83360,2,0,P|183:96|144:60,1,100,0|2,0:0|0:0,0:0:0:0:
230,8,84140,1,4,0:0:0:0:
317,57,84530,1,2,0:0:0:0:
336,156,84919,2,0,L|320:224,1,50
312,252,85309,5,0,0:0:0:0:
256,192,94659,12,0,96997,0:0:0:0:
296,188,97776,6,0,L|416:200,1,100,2|2,0:0|0:0,0:0:0:0:
496,188,98556,2,0,L|504:136,2,50,2|0|2,0:0|0:0|0:0,0:0:0:0:
484,236,99140,2,0,P|429:289|352:284,1,150,2|2,0:0|0:0,0:0:0:0:
260,264,100114,2,0,B|212:248|212:248|144:248,1,100,2|2,0:0|0:0,0:0:0:0:
64,248,100893,6,0,B|32:200|60:140|60:140|108:152|152:132,1,200,2|2,0:0|0:0,0:0:0:0:
240,100,102062,1,2,0:0:0:0:
284,80,102257,2,0,P|360:60|440:80,1,150,0|2,0:0|0:0,0:0:0:0:
472,96,103036,1,0,0:0:0:0:
428,184,103425,2,0,B|412:288,1,100
364,296,104010,6,0,P|304:292|256:276,1,100,2|2,0:0|0:0,0:0:0:0:
179,235,104789,2,0,P|211:199|267:183,1,100,2|2,0:0|0:0,0:0:0:0:
360,184,105568,2,0,P|416:192|468:220,2,100,2|2|2,0:0|0:0|0:0,0:0:0:0:
259,183,106737,1,2,0:0:0:0:
164,152,107127,6,0,P|108:144|56:116,1,100,2|2,0:0|0:0,0:0:0:0:
28,100,107711,1,0,0:0:0:0:
116,53,108101,2,0,P|149:66|182:66,1,50,0|2,0:0|0:0,0:0:0:0:
260,48,108685,2,0,L|272:-4,2,50,2|2|2,0:1|0:1|0:1,0:1:0:0:
264,148,109465,2,0,L|276:200,1,50,2|2,0:1|0:1,0:1:0:0:
304,240,109854,2,0,L|296:308,1,50,10|2,0:0|0:1,0:1:0:0:
276,336,110244,6,0,P|332:364|388:376,1,100,4|8,0:0|0:0,0:0:0:0:
448,312,111023,2,0,B|456:260|456:260|456:200,1,100,0|8,0:0|0:0,0:0:0:0:
448,164,111607,2,0,P|400:116|304:96,1,150,0|8,0:0|0:0,0:0:0:0:
224,92,112581,2,0,B|168:84|168:84|120:56,1,100,0|8,0:0|0:0,0:0:0:0:
32,84,113361,6,0,L|48:192,1,100,0|8,0:0|0:0,0:0:0:0:
132,236,114140,2,0,P|196:220|248:236,1,100,0|8,0:0|0:0,0:0:0:0:
272,248,114724,1,0,0:0:0:0:
316,272,114919,2,0,P|364:252|404:220,1,100,0|8,0:0|0:0,0:0:0:0:
464,144,115698,1,0,0:0:0:0:
452,96,115893,2,0,L|368:32,1,100
324,28,116478,6,0,P|272:32|212:52,1,100,2|8,0:0|0:0,0:0:0:0:
292,124,117257,2,0,P|244:137|194:141,1,100,0|8,0:0|0:0,0:0:0:0:
144,140,117841,1,0,0:0:0:0:
96,148,118036,2,0,P|56:196|52:248,1,100,0|8,0:0|0:0,0:0:0:0:
116,308,118815,2,0,L|176:328,1,50
200,292,119205,2,0,L|260:284,1,50,8|0,0:0|0:0,0:0:0:0:
288,252,119594,6,0,B|312:208|308:140,1,100,0|8,0:0|0:0,0:0:0:0:
324,56,120374,2,0,P|404:72|436:88,1,100,0|8,0:0|0:0,0:0:0:0:
448,120,120958,2,0,B|464:200|464:200|444:272,1,150,0|8,0:0|0:0,0:0:0:0:
380,344,121932,1,8,0:0:0:0:
335,321,122127,2,0,L|223:321,1,100,2|2,0:0|0:0,0:0:0:0:
189,300,122711,6,0,P|149:250|183:119,1,200,2|0,0:1|0:0,0:0:0:0:
264,80,123880,1,2,0:1:0:0:
264,80,124075,2,0,B|311:94|311:94|357:129,1,100
386,160,124659,1,2,0:1:0:0:
396,260,125049,2,0,P|386:306|341:352,1,100,2|0,0:1|0:0,0:0:0:0:
252,364,125828,6,0,L|142:350,1,100,2|0,0:1|0:0,0:0:0:0:
108,332,126413,2,0,P|93:287|101:228,1,100,2|0,0:1|0:0,0:0:0:0:
129,140,127191,1,0,0:0:0:0:
129,140,127387,2,0,P|60:116|20:42,2,150,2|0|2,0:1|0:0|0:1,0:0:0:0:
228,149,128945,6,0,B|273:103|273:103|291:15,2,150,12|12|12,0:0|0:0|0:0,0:0:0:0:
159,222,130504,2,0,B|114:268|114:268|96:356,2,150,12|12|12,0:0|0:0|0:0,0:0:0:0:
254,250,132062,6,0,P|303:260|354:250,1,100,12|8,0:0|0:0,0:0:0:0:
433,193,132841,2,0,L|426:129,1,50,2|0,0:0|0:0,0:0:0:0:
380,124,133231,2,0,L|387:60,1,50,8|0,0:0|0:0,0:0:0:0:
353,35,133620,2,0,B|305:28|305:28|247:39,1,100,2|8,0:0|0:0,0:0:0:0:
242,136,134400,2,0,B|194:143|194:143|136:132,1,100,2|8,0:0|0:0,0:0:0:0:
94,122,134984,1,8,0:0:0:0:
46,108,135179,6,0,P|17:146|17:211,1,100,6|0,0:0|0:0,0:0:0:0:
36,294,135958,2,8,L|92:302,1,50
123,333,136348,2,8,L|179:325,1,50
217,303,136737,2,0,B|228:270|228:270|225:198,1,100,14|8,0:0|0:0,0:0:0:0:
214,105,137517,1,2,0:0:0:0:
282,32,137906,1,8,0:0:0:0:
318,124,138296,6,0,P|359:129|430:116,1,100,6|8,0:0|0:0,0:0:0:0:
509,159,139075,2,0,L|499:281,1,100,2|8,0:0|0:0,0:0:0:0:
493,308,139659,1,0,0:0:0:0:
479,356,139854,2,0,B|428:362|428:362|372:351,1,100,2|8,0:0|0:0,0:0:0:0:
297,297,140633,2,0,B|245:291|245:291|189:302,1,100,2|8,0:0|0:0,0:0:0:0:
98,309,141413,6,0,P|72:269|67:206,1,100,2|8,0:0|0:0,0:0:0:0:
63,117,142192,2,0,L|5:120,2,50,2|2|8,0:0|0:0|0:0,0:0:0:0:
163,115,142971,2,0,P|199:133|258:136,1,100,2|8,0:0|0:0,0:0:0:0:
356,154,143750,2,0,P|355:203|334:248,1,100,2|8,0:0|0:0,0:0:0:0:
252,305,144530,6,0,B|211:316|200:292|140:308,1,100,6|8,0:0|0:0,0:0:0:0:
103,309,145114,2,0,P|65:281|46:222,1,100
43,183,145698,1,8,0:0:0:0:
79,89,146088,2,0,B|116:78|116:78|181:84,1,100,2|8,0:0|0:0,0:0:0:0:
226,89,146672,1,0,0:0:0:0:
275,92,146867,2,0,L|286:29,2,50,2|2|8,0:0|0:0|0:0,0:0:0:0:
262,191,147646,6,0,P|306:218|367:220,2,100,2|8|2,0:0|0:0|0:0,0:0:0:0:
216,170,148620,2,0,B|175:164|175:164|104:175,1,100,8|0,0:0|0:0,0:0:0:0:
67,173,149205,2,0,L|58:114,2,50,2|2|8,0:0|0:0|0:0,0:0:0:0:
91,270,149984,2,0,P|121:298|186:310,1,100,8|8,0:0|0:0,0:0:0:0:
225,299,150568,1,8,0:0:0:0:
270,279,150763,6,0,L|380:284,1,100,6|8,0:0|0:0,0:0:0:0:
469,278,151543,2,0,B|483:240|483:240|473:161,1,100,2|8,0:0|0:0,0:0:0:0:
464,131,152127,2,0,P|434:108|365:100,1,100
324,108,152711,1,8,0:0:0:0:
252,177,153101,2,0,P|222:200|153:208,1,100,2|8,0:0|0:0,0:0:0:0:
62,195,153880,6,0,B|55:141|55:141|64:87,1,100,6|8,0:0|0:0,0:0:0:0:
90,54,154465,2,0,P|141:58|199:50,1,100
238,43,155049,1,8,0:0:0:0:
336,26,155439,2,0,P|375:57|407:95,1,100,8|8,0:0|0:0,0:0:0:0:
426,141,156023,2,0,L|423:246,1,100,2|2,0:0|0:0,0:0:0:0:
419,290,156607,1,8,0:0:0:0:
338,349,156997,6,0,P|238:343|193:250,1,200,6|8,0:0|0:0,0:0:0:0:
201,163,158166,2,0,L|196:98,1,50,0|2,0:0|0:0,0:0:0:0:
165,73,158556,2,0,L|170:8,2,50,0|2|2,0:0|0:0|0:0,0:0:0:0:
102,151,159335,2,0,P|65:182|46:249,1,100,8|0,0:0|0:0,0:0:0:0:
43,279,159919,1,0,0:0:0:0:
52,328,160114,6,0,P|146:364|237:318,1,200,6|8,0:0|0:0,0:0:0:0:
305,257,161283,2,0,L|371:255,1,50,0|2,0:0|0:0,0:0:0:0:
390,220,161672,2,0,L|456:222,2,50,0|2|0,0:0|0:0|0:0,0:0:0:0:
306,164,162452,2,0,P|280:117|276:60,1,100,8|0,0:0|0:0,0:0:0:0:
180,37,163231,6,0,B|148:31|148:31|77:39,1,100,2|8,0:0|0:0,0:0:0:0:
19,117,164010,2,8,P|17:156|20:180,1,50
64,185,164400,2,8,P|66:224|63:248,1,50
54,284,164789,1,2,0:0:0:0:
121,357,165179,2,0,P|174:363|233:347,1,100,12|2,0:0|0:0,0:0:0:0:
262,327,165763,1,2,0:0:0:0:
294,289,165958,2,0,L|290:232,1,50,8|0,0:0|0:0,0:0:0:0:
283,189,166347,5,2,0:0:0:0:
256,192,166543,12,0,169465,0:0:0:0:
327,248,178815,6,0,P|389:275|477:231,2,150,2|2|2,0:1|0:1|0:1,0:0:0:0:
248,186,180374,2,0,P|186:159|98:203,2,150,2|2|2,0:1|0:1|0:1,0:1:0:0:
327,248,181932,6,0,B|373:196|373:196|374:109,2,150,2|2|2,0:1|0:1|0:1,0:1:0:0:
185,298,183685,2,0,L|74:290,1,100,2|0,0:1|0:0,0:0:0:0:
39,271,184270,2,0,P|20:230|26:158,1,100,2|2,0:1|0:1,0:1:0:0:
70,89,185049,6,0,B|141:71|141:71|224:84,2,150,2|2|2,0:1|0:1|0:1,0:1:0:0:
20,176,186607,2,0,L|28:325,2,150,2|2|2,0:1|0:1|0:1,0:1:0:0:
119,162,188166,6,0,B|187:188|200:145|275:172,1,150,2|2,0:1|0:1,0:1:0:0:
414,196,189335,2,0,P|423:149|407:81,1,100,2|0,0:1|0:0,0:0:0:0:
389,54,189919,2,0,B|356:44|356:44|273:49,1,100,2|0,0:1|0:0,0:0:0:0:
241,55,190504,1,2,0:1:0:0:
171,127,190893,1,0,0:0:0:0:
242,197,191283,6,0,P|250:243|235:303,2,100,6|2|2,0:0|0:0|0:0,0:0:0:0:
171,127,192452,2,0,L|115:123,1,50,2|8,0:0|0:0,0:0:0:0:
70,125,192841,2,0,B|48:164|48:164|56:237,2,100,2|2|2,0:0|0:0|0:0,0:0:0:0:
124,40,194010,1,2,0:0:0:0:
171,127,194400,6,0,P|223:128|277:110,1,100,2|2,0:0|0:0,0:0:0:0:
314,92,194984,2,0,B|352:82|352:82|421:91,1,100
460,100,195568,1,2,0:0:0:0:
491,195,195958,2,0,P|503:243|490:305,1,100,2|2,0:0|0:0,0:0:0:0:
421,359,196737,2,0,P|373:370|311:358,1,100,2|2,0:0|0:0,0:0:0:0:
279,339,197322,1,0,0:0:0:0:
245,301,197517,6,0,B|168:263|127:335|52:277,1,200,6|2,0:0|0:0,0:0:0:0:
25,181,198685,2,0,L|33:116,1,50,2|8,0:0|0:0,0:0:0:0:
54,86,199075,2,8,P|102:69|153:78,1,100
198,88,199659,1,8,0:0:0:0:
247,97,199854,2,0,L|266:36,2,50,8|8|8,0:0|0:0|0:0,0:0:0:0:
223,194,200633,6,0,P|297:183|345:113,2,150,6|8|8,0:0|0:0|0:0,0:0:0:0:
132,150,202192,2,0,L|127:258,1,100,6|0,0:0|0:0,0:0:0:0:
34,214,202971,2,0,L|39:106,1,100,2|8,0:0|0:0,0:0:0:0:
107,41,203750,6,0,B|143:30|143:30|228:35,1,100,6|8,0:0|0:0,0:0:0:0:
304,40,204529,2,0,B|272:96|272:144,1,100,2|8,0:0|0:0,0:0:0:0:
276,184,205114,1,0,0:0:0:0:
304,224,205308,2,0,P|352:240|400:236,1,100,2|8,0:0|0:0,0:0:0:0:
476,168,206088,2,0,P|500:224|496:268,1,100,2|8,0:0|0:0,0:0:0:0:
444,348,206867,5,2,0:0:0:0:
344,364,207257,2,0,L|332:308,1,50,8|0,0:0|0:0,0:0:0:0:
312,268,207646,2,0,B|276:252|276:252|204:248,1,100,2|8,0:0|0:0,0:0:0:0:
116,240,208426,1,2,0:0:0:0:
20,212,208815,2,0,B|24:156,1,50,8|0,0:0|0:0,0:0:0:0:
44,116,209205,2,0,P|96:100|156:116,1,100,2|8,0:0|0:0,0:0:0:0:
236,136,209984,6,0,B|292:144|292:144|341:172,1,100,6|8,0:0|0:0,0:0:0:0:
380,164,210568,2,0,P|416:116|424:76,1,100,2|0,0:0|0:0,0:0:0:0:
404,32,211153,1,8,0:0:0:0:
308,56,211543,2,0,P|256:52|192:40,1,100,2|8,0:0|0:0,0:0:0:0:
168,72,212127,2,0,L|156:24,2,50,2|0|0,0:0|0:0|0:0,0:0:0:0:
144,116,212711,1,8,0:0:0:0:
216,188,213101,6,0,P|228:244|208:300,1,100,2|8,0:0|0:0,0:0:0:0:
184,324,213685,2,0,L|124:336,1,50,2|0,0:0|0:0,0:0:0:0:
88,312,214075,2,0,L|32:300,1,50,0|8,0:0|0:0,0:0:0:0:
48,200,214659,2,0,B|56:148|56:148|80:100,1,100,2|8,0:0|0:0,0:0:0:0:
144,32,215439,1,2,0:0:0:0:
188,120,215828,1,8,0:0:0:0:
244,36,216218,6,0,L|352:56,1,100,6|8,0:0|0:0,0:0:0:0:
432,96,216997,2,0,P|440:152|428:192,1,100,2|8,0:0|0:0,0:0:0:0:
392,228,217581,2,0,L|276:248,1,100,2|0,0:0|0:0,0:0:0:0:
256,280,218166,2,0,B|276:332|276:332|268:392,2,100,8|2|8,0:0|0:0|0:0,0:0:0:0:
224,184,219335,6,0,P|176:144|128:132,1,100,2|8,0:0|0:0,0:0:0:0:
100,104,219919,1,0,0:0:0:0:
64,72,220114,2,0,L|-4:76,2,50,2|0|8,0:0|0:0|0:0,0:0:0:0:
156,36,220893,2,0,P|217:56|262:84,1,100,2|8,0:0|0:0,0:0:0:0:
296,76,221477,1,0,0:0:0:0:
348,80,221672,2,0,B|376:192,1,100,2|8,0:0|0:0,0:0:0:0:
448,244,222452,6,0,B|402:293|336:272,1,100,6|0,0:1|0:0,0:0:0:0:
260,288,223231,2,0,P|208:300|156:336,1,100,2|0,0:1|0:0,0:0:0:0:
128,352,223815,2,0,B|139:241,1,100,2|0,0:1|0:0,0:0:0:0:
142,202,224399,1,0,0:0:0:0:
52,244,224789,2,0,L|45:314,2,50,8|0|2,0:0|0:0|0:0,0:0:0:0:
68,144,225568,6,0,P|116:112|175:113,1,100,6|0,0:1|0:0,0:0:0:0:
240,56,226348,2,0,P|296:76|348:80,1,100,2|0,0:1|0:0,0:0:0:0:
384,68,226932,2,0,L|350:169,1,100,2|0,0:1|0:0,0:0:0:0:
336,208,227516,1,0,0:0:0:0:
320,308,227906,2,0,P|378:297|420:256,1,100,8|0,0:0|0:0,0:0:0:0:
452,180,228685,6,0,B|469:134|469:134|476:76,2,100,6|8|2,0:0|0:0|0:0,0:0:0:0:
352,188,229854,2,0,L|300:148,1,50,8|0,0:0|0:0,0:0:0:0:
268,132,230244,2,0,P|216:152|168:176,1,100,2|8,0:0|0:0,0:0:0:0:
80,204,231023,2,0,P|72:260|92:308,1,100,2|8,0:0|0:0,0:0:0:0:
116,340,231607,1,0,0:0:0:0:
168,340,231802,6,0,L|284:328,1,100,6|8,0:0|0:0,0:0:0:0:
276,228,232581,2,0,L|160:240,1,100,2|8,0:0|0:0,0:0:0:0:
80,208,233361,2,0,B|44:224|44:224|16:248,2,66.6666666666667,8|8|8,0:0|0:0|0:0,0:0:0:0:
140,176,234140,2,0,P|200:136|224:108,1,100,2|0,0:0|0:0,0:0:0:0:
304,64,234919,6,0,P|400:80|420:92,1,100,2|2,0:1|0:1,0:0:0:0:
468,156,235698,2,0,P|428:184|372:204,1,100,2|2,0:1|0:1,0:0:0:0:
332,216,236283,2,0,P|252:248|196:308,1,150,2|0,0:1|0:0,0:0:0:0:
136,364,237257,2,0,P|108:316|108:268,1,100,2|2,0:1|0:1,0:0:0:0:
128,176,238036,6,0,B|156:124|156:124|188:88,1,100,2|2,0:1|0:1,0:0:0:0:
276,52,238815,2,0,L|388:32,1,100,2|2,0:1|0:1,0:0:0:0:
424,28,239400,1,2,0:1:0:0:
416,276,240374,2,0,P|360:268|312:236,1,100
236,196,241153,6,0,P|189:214|136:252,2,100,6|2|2,0:1|0:0|0:0,0:0:0:0:
328,160,242321,2,0,B|375:142|375:142|416:92,1,100,2|2,0:0|0:0,0:0:0:0:
456,16,243101,1,8,0:0:0:0:
356,32,243490,2,0,B|324:70|324:70|277:88,1,100,2|2,0:0|0:0,0:0:0:0:
180,104,244269,6,0,P|124:92|88:60,1,100,8|2,0:0|0:0,0:0:0:0:
48,44,244854,2,0,L|56:156,1,100,8|8,0:0|0:0,0:0:0:0:
68,192,245439,2,0,L|136:216,1,50,2|0,0:0|0:0,0:0:0:0:
164,224,245828,1,8,0:0:0:0:
260,192,246218,1,2,0:0:0:0:
308,176,246413,2,0,P|380:160|428:168,1,100,8|8,0:0|0:0,0:0:0:0:
452,180,246997,2,0,P|476:152|484:128,1,50,2|2,0:0|0:0,0:0:0:0:
472,92,247386,5,8,0:0:0:0:
388,40,247776,2,0,P|308:60|272:52,1,100,2|8,0:0|0:0,0:0:0:0:
192,80,248556,2,0,P|132:104|80:132,1,100,2|8,0:0|0:0,0:0:0:0:
52,208,249335,2,0,L|16:268,2,50,2|0|8,0:0|0:0|0:0,0:0:0:0:
152,216,250114,2,0,P|184:200|208:192,1,50,8|2,0:0|0:0,0:0:0:0:
244,180,250504,6,0,P|288:152|304:96,1,100,10|8,0:0|0:0,0:0:0:0:
316,60,251088,2,0,P|362:42|412:37,1,100,8|0,0:0|0:0,0:0:0:0:
464,36,251672,1,10,0:0:0:0:
484,136,252062,2,0,L|464:248,1,100,8|2,0:0|0:0,0:0:0:0:
436,272,252646,2,0,P|368:284|328:268,1,100,8|2,0:0|0:0,0:0:0:0:
308,236,253231,5,14,0:0:0:0:
256,192,253426,12,0,256737,0:0:0:0:
