osu file format v14

[General]
AudioFilename: audio.mp3
AudioLeadIn: 0
PreviewTime: 56477
Countdown: 0
SampleSet: Soft
StackLeniency: 0.7
Mode: 0
LetterboxInBreaks: 0
WidescreenStoryboard: 0

[Editor]
DistanceSpacing: 1.5
BeatDivisor: 4
GridSize: 4
TimelineZoom: 1

[Metadata]
Title:Everyday World
TitleUnicode:エブリデイワールド
Artist:Yukinoshita Yukino (CV.Hayami Saori) & Yuigahama Yui (CV.Touyama Nao)
ArtistUnicode:雪ノ下雪乃(CV.早見沙織)&由比ヶ浜結衣(CV.東山奈央)
Creator:Pentori
Version:Advanced
Source:やはり俺の青春ラブコメはまちがっている。続
Tags:Akitoshi Kibbleru Doormat oregairu zoku ending ed yahari ore no seishun love come wa machigatteiru my teen romantic comedy snafu full
BeatmapID:943325
BeatmapSetID:433114

[Difficulty]
HPDrainRate:4
CircleSize:3.5
OverallDifficulty:5
ApproachRate:6
SliderMultiplier:1.1
SliderTickRate:1

[Events]
//Background and Video events
0,0,"BG.jpg",0,0
//Break Periods
2,88625,96726
2,169664,177765
//Storyboard Layer 0 (Background)
//Storyboard Layer 1 (Fail)
//Storyboard Layer 2 (Pass)
//Storyboard Layer 3 (Foreground)
//Storyboard Sound Samples

[TimingPoints]
1153,389.61038961039,4,2,1,50,1,0
7386,-100,4,2,1,60,0,0
16737,-100,4,2,1,50,0,0
41672,-100,4,2,1,40,0,0
47906,-100,4,2,1,50,0,0
56477,-90.9090909090909,4,2,1,70,0,0
57256,-90.9090909090909,4,2,1,70,0,1
75958,-90.9090909090909,4,2,1,60,0,0
88425,-90.9090909090909,4,2,1,5,0,0
97776,-100,4,2,1,50,0,0
122711,-100,4,2,1,40,0,0
128945,-100,4,2,1,50,0,0
137516,-90.9090909090909,4,2,1,50,0,0
138295,-90.9090909090909,4,2,1,70,0,1
156997,-100,4,2,1,60,0,0
169464,-100,4,2,1,5,0,0
178815,-111.111111111111,4,2,1,45,0,0
191088,-100,4,2,1,50,0,0
202971,-90.9090909090909,4,2,1,50,0,0
203750,-90.9090909090909,4,2,1,70,0,1
222451,-100,4,2,1,60,0,0
234140,-100,4,2,1,50,0,0
234919,-100,4,2,1,40,0,0
241153,-100,4,2,1,50,0,0
243101,-100,4,2,1,60,0,0
255178,-100,4,2,1,50,0,0
255568,-100,4,2,1,45,0,0
255958,-100,4,2,1,40,0,0
256153,-100,4,2,1,35,0,0
256347,-100,4,2,1,30,0,0
256445,-100,4,2,1,20,0,0
256542,-100,4,2,1,10,0,0

[Colours]
Combo1 : 0,130,130
Combo2 : 100,100,255
Combo3 : 37,193,239
Combo4 : 128,128,192

[HitObjects]
172,72,1153,6,0,P|144:56|120:32,2,55,6|0|2,0:0|0:0|0:0,0:0:0:0:
252,88,1737,2,0,P|304:60|352:68,1,110,0|0,0:0|0:0,0:0:0:0:
316,140,2322,1,2,0:0:0:0:
356,212,2516,2,0,L|484:204,2,110
220,304,3685,2,0,L|228:364,2,55,0|2|0,0:0|0:0|0:0,0:0:0:0:
156,252,4269,6,0,P|192:224|224:220,1,55,2|0,0:0|0:0,0:0:0:0:
284,236,4659,1,2,0:0:0:0:
336,300,4854,2,0,P|364:252|354:192,1,110
304,140,5438,1,2,0:0:0:0:
240,88,5633,2,0,P|180:96|112:108,2,110
404,64,6802,2,0,L|408:4,2,55,0|2|0,0:0|0:0|0:0,0:0:0:0:
388,144,7386,6,0,L|391:198,1,55,2|0,0:0|0:0,0:0:0:0:
400,280,7776,1,2,0:0:0:0:
324,248,7971,2,0,P|252:232|208:240,1,110
140,272,8555,1,2,0:0:0:0:
148,188,8750,2,0,P|156:96|160:56,2,110
92,344,9919,2,0,L|32:336,2,55,0|2|0,0:0|0:0|0:0,0:0:0:0:
184,324,10503,6,0,L|304:324,1,110,8|0,0:0|0:0,0:0:0:0:
376,276,11088,2,0,P|388:208|380:152,1,110,8|0,0:0|0:0,0:0:0:0:
328,92,11672,2,0,P|252:100|200:88,1,110,8|0,0:0|0:0,0:0:0:0:
140,48,12256,2,0,P|85:41|31:50,1,110,8|0,0:0|0:0,0:0:0:0:
4,140,12841,2,0,P|8:236|12:276,1,110,8|0,0:0|0:0,0:0:0:0:
72,320,13426,1,8,0:0:0:0:
248,260,13815,6,0,P|275:263|301:270,2,55,2|2|8,0:0|0:0|0:0,0:0:0:0:
204,192,14400,2,0,P|207:164|214:138,2,55,2|8|2,0:0|0:0|0:0,0:0:0:0:
164,264,14984,1,4,0:0:0:0:
236,100,16737,6,0,B|297:97|297:97|367:116,1,110,6|2,0:0|0:0,0:0:0:0:
276,260,17517,2,0,B|240:260|204:284,1,55,2|0,0:0|0:0,0:0:0:0:
268,340,17906,1,2,0:0:0:0:
344,308,18101,2,0,P|404:300|452:268,1,110,0|0,0:0|0:0,0:0:0:0:
504,216,18685,1,2,0:0:0:0:
364,128,19075,2,0,L|424:112,1,55,2|0,0:0|0:0,0:0:0:0:
368,48,19465,2,0,L|308:64,1,55,2|0,0:0|0:0,0:0:0:0:
236,84,19854,6,0,L|269:208,1,110,2|2,0:0|0:0,0:0:0:0:
324,343,20633,2,0,P|264:355|200:339,1,110,2|2,0:0|0:0,0:0:0:0:
152,292,21217,2,0,P|98:283|44:295,1,110,0|0,0:0|0:0,0:0:0:0:
20,216,21802,2,0,P|36:172|52:144,1,55,2|0,0:0|0:0,0:0:0:0:
80,92,22191,1,2,0:0:0:0:
136,32,22387,2,0,P|162:84|137:149,1,110,0|0,0:0|0:0,0:0:0:0:
116,208,22971,5,2,0:0:0:0:
260,284,23361,1,2,0:0:0:0:
396,192,23750,2,0,P|413:142|368:96,1,110,2|2,0:0|0:0,0:0:0:0:
216,96,24530,2,0,B|160:116|104:92,2,110,2|2|2,0:0|0:0|0:0,0:0:0:0:
368,32,25698,1,2,0:0:0:0:
320,192,26088,2,0,B|300:160|300:160|304:84,1,110,2|2,0:0|0:0,0:0:0:0:
368,32,26672,2,0,P|312:4|248:24,1,110,2|0,0:0|0:0,0:0:0:0:
192,48,27257,1,0,0:0:0:0:
80,172,27646,5,0,0:0:0:0:
136,236,27841,2,0,P|124:288|124:312,1,55,2|2,0:1|0:1,0:0:0:0:
208,288,28231,2,0,P|212:341|220:363,2,55,2|2|2,0:1|0:1|0:1,0:0:0:0:
216,204,28815,1,8,0:0:0:0:
372,144,29205,6,0,P|428:128|484:132,1,110,4|0,0:0|0:0,0:0:0:0:
408,280,29984,2,0,P|352:296|296:292,1,110,0|0,0:0|0:0,0:0:0:0:
224,268,30568,2,0,P|169:265|116:281,1,110,0|0,0:0|0:0,0:0:0:0:
44,324,31153,1,0,0:0:0:0:
96,168,31543,2,0,L|160:152,1,55,2|2,0:1|0:1,0:0:0:0:
228,132,31932,1,8,0:0:0:0:
372,212,32322,6,0,L|384:92,1,110,0|0,0:0|0:0,0:0:0:0:
230,30,33101,2,0,P|210:82|231:136,1,110,0|0,0:0|0:0,0:0:0:0:
294,82,33685,2,0,P|310:134|290:186,1,110,0|0,0:0|0:0,0:0:0:0:
226,234,34269,1,0,0:0:0:0:
352,340,34659,2,0,P|379:339|405:332,1,55,2|2,0:1|0:1,0:0:0:0:
484,308,35049,1,8,0:0:0:0:
335,236,35439,6,0,P|279:240|207:228,1,110,0|0,0:0|0:0,0:0:0:0:
152,88,36218,2,0,P|215:66|268:68,1,110,0|0,0:0|0:0,0:0:0:0:
293,136,36802,2,0,B|340:245,1,110,0|0,0:0|0:0,0:0:0:0:
420,248,37387,1,0,0:0:0:0:
256,252,37776,2,0,L|228:188,1,55,2|2,0:1|0:1,0:0:0:0:
200,128,38166,1,8,0:0:0:0:
48,64,38556,6,0,P|84:48|120:52,1,55,0|0,0:0|0:0,0:0:0:0:
96,132,38945,2,0,B|88:192|92:260,1,110,0|0,0:0|0:0,0:0:0:0:
212,352,39724,1,0,0:0:0:0:
292,328,39919,2,0,P|348:308|396:272,1,110,0|0,0:0|0:0,0:0:0:0:
452,224,40504,2,0,P|468:248|472:280,2,55,0|0|8,0:0|0:0|0:0,0:0:0:0:
372,196,41088,2,0,P|316:180|272:144,1,110,0|0,0:0|0:0,0:0:0:0:
208,104,41672,6,0,L|220:44,1,55,4|0,0:0|0:0,0:0:0:0:
144,16,42062,2,0,L|132:76,1,55,0|0,0:0|0:0,0:0:0:0:
112,148,42452,2,0,P|68:120|60:104,1,55,0|0,0:0|0:0,0:0:0:0:
12,56,42841,1,0,0:0:0:0:
12,56,43036,2,0,L|20:192,1,110,0|0,0:0|0:0,0:0:0:0:
28,248,43620,2,0,P|96:244|148:260,1,110,0|0,0:0|0:1,0:0:0:0:
296,300,44400,1,0,0:0:0:0:
396,168,44789,6,0,P|388:232|368:288,1,110,2|0,0:0|0:0,0:0:0:0:
296,300,45374,2,0,P|240:304|184:336,2,110,0|0|0,0:0|0:0|0:0,0:0:0:0:
376,308,46347,1,2,0:0:0:0:
456,328,46543,2,0,L|452:400,2,55,0|0|0,0:0|0:0|0:0,0:0:0:0:
444,248,47127,1,0,0:0:0:0:
388,192,47322,2,0,B|348:160|348:160|264:148,1,110,8|0,0:0|0:0,0:0:0:0:
220,108,47906,6,0,P|272:72|328:80,1,110,8|2,0:0|0:0,0:0:0:0:
396,96,48491,2,0,B|440:144|504:124,1,110,8|2,0:0|0:0,0:0:0:0:
468,48,49075,2,0,B|448:28|416:12,1,55,8|0,0:0|0:0,0:0:0:0:
344,32,49465,2,0,B|300:80|240:56,1,110,8|2,0:0|0:0,0:0:0:0:
184,0,50049,2,0,B|196:60|196:60|184:120,1,110,8|2,0:0|0:0,0:0:0:0:
228,180,50633,2,0,P|192:192|164:192,1,55,8|0,0:0|0:0,0:0:0:0:
108,244,51023,6,0,P|72:230|51:212,2,55,6|2|0,0:0|0:0|0:0,0:0:0:0:
180,284,51607,1,0,0:0:0:0:
248,328,51802,2,0,P|260:360|284:384,1,55,0|0,0:0|0:0,0:0:0:0:
328,316,52192,2,0,P|336:288|336:256,1,55,8|0,0:0|0:0,0:0:0:0:
344,180,52581,1,0,0:0:0:0:
208,88,52971,2,0,P|152:109|117:162,1,110,8|0,0:0|0:0,0:0:0:0:
104,312,53750,1,0,0:0:0:0:
212,187,54140,6,0,P|256:175|284:163,1,55,6|0,0:0|0:0,0:0:0:0:
312,239,54530,2,0,P|268:251|240:263,1,55,8|8,0:0|0:0,0:0:0:0:
176,264,54919,2,0,P|148:243|132:212,1,55,8|8,0:0|0:0,0:0:0:0:
108,148,55309,2,0,P|92:116|72:100,1,55,8|8,0:0|0:0,0:0:0:0:
20,44,55698,1,8,0:0:0:0:
184,72,56088,1,8,0:0:0:0:
340,168,56478,6,0,P|343:212|356:244,1,60.5000018463135,2|0,0:0|0:0,0:0:0:0:
388,312,56867,2,0,P|415:291|431:260,1,60.5000018463135,8|0,0:0|0:0,0:0:0:0:
432,176,57257,6,0,P|416:112|368:80,1,121.000003692627,4|8,0:0|0:0,0:0:0:0:
284,68,57841,1,0,0:0:0:0:
200,100,58036,2,0,B|166:134|166:134|142:218,1,121.000003692627,0|8,0:0|0:0,0:0:0:0:
122,294,58620,1,0,0:0:0:0:
212,276,58815,2,0,P|264:256|344:276,1,121.000003692627,2|8,0:0|0:0,0:0:0:0:
408,228,59399,1,0,0:0:0:0:
488,188,59594,2,0,P|491:142|480:110,1,60.5000018463135,0|0,0:0|0:0,0:0:0:0:
396,116,59984,2,0,P|368:78|339:61,1,60.5000018463135,8|0,0:0|0:0,0:0:0:0:
268,48,60373,6,0,P|208:56|144:80,1,121.000003692627,2|8,0:0|0:0,0:0:0:0:
108,156,60958,1,0,0:0:0:0:
144,240,61153,2,0,P|176:216|192:184,1,60.5000018463135,0|0,0:0|0:0,0:0:0:0:
256,140,61542,2,0,P|304:132|328:140,1,60.5000018463135,8|0,0:0|0:0,0:0:0:0:
392,180,61932,2,0,L|428:316,1,121.000003692627,2|8,0:0|0:0,0:0:0:0:
372,372,62516,1,0,0:0:0:0:
324,296,62711,2,0,L|288:160,1,121.000003692627,0|8,0:0|0:0,0:0:0:0:
172,92,63491,6,0,B|112:100|112:100|44:132,1,121.000003692627,4|8,0:0|0:0,0:0:0:0:
132,180,64075,2,0,B|192:172|192:172|260:140,1,121.000003692627,0|0,0:0|0:0,0:0:0:0:
336,160,64659,1,8,0:0:0:0:
420,192,64854,2,0,L|432:64,1,121.000003692627,0|0,0:0|0:0,0:0:0:0:
347,39,65439,1,8,0:0:0:0:
347,39,65633,2,0,L|335:167,1,121.000003692627,0|0,0:0|0:0,0:0:0:0:
424,308,66413,1,0,0:0:0:0:
424,308,66607,6,0,P|384:296|348:300,1,60.5000018463135,2|2,0:0|0:0,0:0:0:0:
292,348,66997,2,0,P|261:346|233:336,1,60.5000018463135,8|0,0:0|0:0,0:0:0:0:
148,304,67387,1,0,0:0:0:0:
64,268,67581,2,0,P|120:216|176:216,1,121.000003692627,0|0,0:0|0:0,0:0:0:0:
248,236,68166,2,0,P|276:192|276:164,1,60.5000018463135,2|2,0:0|0:0,0:0:0:0:
368,184,68556,2,0,P|361:132|343:110,1,60.5000018463135,8|0,0:0|0:0,0:0:0:0:
428,68,68945,2,0,P|389:32|361:27,1,60.5000018463135,0|0,0:0|0:0,0:0:0:0:
292,20,69335,1,8,0:0:0:0:
112,36,69724,6,0,P|56:60|8:112,1,121.000003692627,4|8,0:0|0:0,0:0:0:0:
16,192,70308,1,0,0:0:0:0:
104,208,70504,2,0,P|168:220|240:208,1,121.000003692627,0|8,0:0|0:0,0:0:0:0:
288,276,71088,2,0,P|312:228|292:156,1,121.000003692627,0|2,0:0|0:0,0:0:0:0:
260,84,71672,2,0,P|284:52|288:16,1,60.5000018463135,8|0,0:0|0:0,0:0:0:0:
200,20,72062,2,0,P|176:52|172:88,1,60.5000018463135,0|0,0:0|0:0,0:0:0:0:
156,160,72452,1,8,0:0:0:0:
292,284,72841,6,0,B|340:296|340:296|384:284|420:252,1,121.000003692627,2|8,0:0|0:0,0:0:0:0:
476,212,73426,1,0,0:0:0:0:
396,172,73620,2,0,P|396:140|408:108,1,60.5000018463135,0|0,0:0|0:0,0:0:0:0:
485,153,74010,2,0,P|485:185|473:217,1,60.5000018463135,8|0,0:0|0:0,0:0:0:0:
403,264,74400,2,0,B|456:312|456:312|480:364,2,121.000003692627,2|8|2,0:0|0:0|0:0,0:0:0:0:
260,152,75568,1,8,0:0:0:0:
88,208,75958,6,0,B|72:164|72:164|96:88,1,121.000003692627,6|0,0:0|0:0,0:0:0:0:
264,28,76737,2,0,B|316:52|336:12|384:36,1,121.000003692627,8|0,0:0|0:0,0:0:0:0:
448,96,77322,1,2,0:0:0:0:
448,96,77517,2,0,P|480:64|500:56,2,60.5000018463135,0|2|2,0:0|0:0|0:0,0:0:0:0:
380,264,78295,2,0,P|388:296|384:328,2,60.5000018463135,8|2|0,0:0|0:0|0:0,0:0:0:0:
324,192,78880,1,2,0:0:0:0:
324,192,79075,6,0,P|264:176|196:180,1,121.000003692627,6|0,0:0|0:0,0:0:0:0:
96,324,79854,2,0,P|156:340|224:336,1,121.000003692627,8|0,0:0|0:0,0:0:0:0:
272,268,80439,1,2,0:0:0:0:
272,268,80633,2,0,P|296:295|305:346,2,80.6666691284181,0|0|0,0:0|0:0|0:0,0:0:0:0:
152,248,81412,2,0,P|119:196|127:137,1,121.000003692627,8|2,0:0|0:0,0:0:0:0:
284,44,82192,6,0,P|340:48|356:60,1,60.5000018463135,6|2,0:0|0:0,0:0:0:0:
300,132,82581,2,0,P|341:171|345:190,1,60.5000018463135,2|2,0:0|0:0,0:0:0:0:
260,212,82971,2,0,P|215:244|195:246,1,60.5000018463135,8|8,0:0|0:0,0:0:0:0:
192,154,83361,2,0,P|136:150|121:138,1,60.5000018463135,8|8,0:0|0:0,0:0:0:0:
48,120,83750,1,0,0:0:0:0:
220,60,84140,1,4,0:0:0:0:
356,176,84529,2,0,P|364:139|355:101,1,60.5000018463135,0|0,0:0|0:0,0:0:0:0:
277,142,84919,2,0,P|269:179|278:217,1,60.5000018463135,0|0,0:0|0:0,0:0:0:0:
288,292,85308,5,2,0:0:0:0:
256,192,85503,12,2,88425,0:0:0:0:
416,120,97776,6,0,L|384:240,1,110,2|2,0:0|0:0,0:0:0:0:
364,304,98361,1,0,0:0:0:0:
308,244,98556,2,0,P|272:240|248:232,1,55,2|0,0:0|0:0,0:0:0:0:
176,204,98945,1,2,0:0:0:0:
176,204,99140,2,0,P|208:148|216:104,1,110,0|0,0:0|0:0,0:0:0:0:
220,20,99724,1,2,0:0:0:0:
376,76,100114,2,0,L|444:72,1,55,2|0,0:0|0:0,0:0:0:0:
420,156,100504,2,0,L|474:196,1,55,2|0,0:0|0:0,0:0:0:0:
404,244,100893,6,0,L|283:252,1,110,2|2,0:0|0:0,0:0:0:0:
128,248,101672,2,0,P|160:188|212:160,1,110,2|2,0:0|0:0,0:0:0:0:
276,148,102257,2,0,B|288:212|288:212|276:268,1,110,0|0,0:0|0:0,0:0:0:0:
240,328,102841,2,0,L|176:296,1,55,2|0,0:0|0:0,0:0:0:0:
120,260,103231,1,2,0:0:0:0:
68,196,103426,2,0,P|44:120|44:76,1,110,0|0,0:0|0:0,0:0:0:0:
104,32,104010,6,0,P|148:20|180:32,1,55,2|0,0:0|0:0,0:0:0:0:
184,100,104400,2,0,P|211:100|236:89,1,55,2|0,0:0|0:0,0:0:0:0:
272,16,104789,2,0,B|264:80|264:80|280:144,1,110,2|2,0:0|0:0,0:0:0:0:
352,272,105568,2,0,P|340:237|320:212,1,55,2|0,0:0|0:0,0:0:0:0:
264,272,105958,2,0,P|276:307|296:332,1,55,2|0,0:0|0:0,0:0:0:0:
232,384,106348,2,0,L|120:348,1,110,2|2,0:0|0:0,0:0:0:0:
64,200,107127,6,0,P|96:176|120:172,1,55,2|0,0:0|0:0,0:0:0:0:
108,92,107517,1,2,0:0:0:0:
108,92,107711,2,0,P|164:112|192:160,1,110,0|0,0:0|0:0,0:0:0:0:
216,232,108296,1,2,0:0:0:0:
364,160,108685,1,2,0:0:0:0:
364,160,108880,2,0,P|348:120|336:104,2,55,2|2|2,0:1|0:1|0:1,0:0:0:0:
396,236,109464,2,0,P|407:260|424:282,1,55,2|2,0:1|0:1,0:0:0:0:
476,348,109854,1,8,0:0:0:0:
492,184,110244,6,0,P|480:124|448:68,1,110,4|10,0:0|0:0,0:0:0:0:
308,8,111023,2,0,P|232:16|188:8,1,110,2|8,0:0|0:0,0:0:0:0:
116,8,111607,2,0,L|92:136,1,110,0|0,0:0|0:0,0:0:0:0:
76,196,112192,1,8,0:0:0:0:
240,204,112581,2,0,P|284:192|316:192,1,55,2|0,0:0|0:0,0:0:0:0:
292,276,112971,2,0,P|333:295|357:315,1,55,8|0,0:0|0:0,0:0:0:0:
396,364,113361,6,0,P|444:304|456:268,1,110,2|8,0:0|0:0,0:0:0:0:
408,116,114140,2,0,B|364:152|308:172,1,110,2|8,0:0|0:0,0:0:0:0:
232,188,114724,2,0,P|164:184|140:144,1,110,0|0,0:0|0:0,0:0:0:0:
104,80,115309,2,0,P|72:108|64:128,2,55,8|0|2,0:0|0:0|0:0,0:0:0:0:
184,60,115893,2,0,B|232:48|232:48|304:56,1,110,0|0,0:0|0:0,0:0:0:0:
372,80,116478,6,0,L|408:32,1,55,2|0,0:0|0:0,0:0:0:0:
456,104,116867,2,0,L|420:152,1,55,8|0,0:0|0:0,0:0:0:0:
340,156,117257,2,0,P|276:140|208:144,1,110,2|8,0:0|0:0,0:0:0:0:
152,152,117841,1,0,0:0:0:0:
72,160,118036,2,0,L|56:100,2,55,2|0|8,0:0|0:0|0:0,0:0:0:0:
132,316,118815,2,0,P|168:336|192:340,1,55,2|0,0:0|0:0,0:0:0:0:
200,260,119205,2,0,P|240:252|261:239,1,55,8|0,0:0|0:0,0:0:0:0:
320,196,119594,6,0,P|392:200|440:224,1,110,2|8,0:0|0:0,0:0:0:0:
504,192,120179,1,0,0:0:0:0:
452,128,120374,2,0,L|436:72,1,55,2|0,0:0|0:0,0:0:0:0:
376,20,120763,1,8,0:0:0:0:
376,20,120958,2,0,P|320:44|256:40,1,110,0|0,0:0|0:0,0:0:0:0:
192,24,121542,2,0,P|140:24|116:32,1,55,8|0,0:0|0:0,0:0:0:0:
56,44,121932,1,8,0:0:0:0:
40,124,122127,2,0,B|44:184|44:184|80:240,1,110,0|0,0:0|0:0,0:0:0:0:
120,292,122711,6,0,L|72:328,2,55,2|0|0,0:1|0:0|0:1,0:0:0:0:
244,180,123491,2,0,P|276:240|260:292,1,110,2|2,0:1|0:1,0:0:0:0:
216,340,124075,2,0,P|288:320|344:320,1,110,2|0,0:1|0:0,0:0:0:0:
404,320,124659,2,0,P|428:280|432:264,1,55,2|0,0:1|0:0,0:0:0:0:
372,212,125049,2,0,P|382:186|398:164,1,55,2|0,0:1|0:0,0:0:0:0:
472,128,125439,2,0,P|448:100|420:84,1,55,2|0,0:1|0:0,0:0:0:0:
352,96,125828,6,0,P|312:92|256:48,1,110,2|2,0:1|0:1,0:0:0:0:
192,0,126413,1,2,0:1:0:0:
184,164,126802,1,2,0:1:0:0:
88,28,127192,1,2,0:1:0:0:
88,28,127387,2,0,P|56:16|28:12,2,55,2|0|2,0:1|0:0|0:1,0:0:0:0:
156,76,127971,1,2,0:1:0:0:
112,236,128361,2,0,L|44:220,2,55,0|8|0,0:0|0:3|0:0,0:0:0:0:
192,248,128945,6,0,P|232:224|308:208,1,110,12|0,0:0|0:0,0:0:0:0:
372,224,129530,2,0,B|384:160|384:160|416:116,1,110,8|0,0:0|0:0,0:0:0:0:
464,60,130114,2,0,P|428:44|400:40,1,55,8|0,0:0|0:0,0:0:0:0:
332,28,130504,2,0,P|320:88|272:116,1,110,8|0,0:0|0:0,0:0:0:0:
200,124,131088,2,0,P|212:64|260:36,1,110,8|0,0:0|0:0,0:0:0:0:
282,113,131672,2,0,L|294:189,1,55,8|0,0:0|0:0,0:0:0:0:
248,240,132062,6,0,L|192:192,1,55,6|0,0:0|0:0,0:0:0:0:
160,272,132452,2,0,L|90:246,1,55,8|0,0:0|0:0,0:0:0:0:
92,332,132841,2,0,L|18:331,2,55,2|2|8,0:0|0:0|0:0,0:0:0:0:
172,356,133426,1,0,0:0:0:0:
256,348,133620,2,0,P|284:312|296:280,1,55,2|0,0:0|0:0,0:0:0:0:
316,224,134010,2,0,P|372:208|428:216,1,110,8|2,0:0|0:0,0:0:0:0:
412,296,134594,1,2,0:0:0:0:
488,264,134789,2,0,P|504:228|500:196,1,55,8|0,0:0|0:0,0:0:0:0:
460,144,135179,6,0,B|448:88|448:88|408:48,1,110,4|8,0:0|0:0,0:0:0:0:
344,0,135763,1,8,0:0:0:0:
260,8,135958,2,0,B|216:16|216:16|176:8,2,82.5,8|0|8,0:0|0:0|0:0,0:0:0:0:
344,0,136737,2,0,P|352:60|336:112,1,110,8|8,0:0|0:0,0:0:0:0:
176,192,137517,6,0,L|112:180,1,60.5000018463135,2|0,0:0|0:0,0:0:0:0:
136,268,137906,2,0,L|200:280,1,60.5000018463135,8|0,0:0|0:0,0:0:0:0:
244,356,138296,6,0,P|284:304|280:248,1,121.000003692627,4|8,0:0|0:0,0:0:0:0:
252,164,138880,1,0,0:0:0:0:
224,76,139075,2,0,P|268:72|288:76,1,60.5000018463135,0|0,0:0|0:0,0:0:0:0:
252,164,139465,2,0,P|208:168|188:164,2,60.5000018463135,8|0|2,0:0|0:0|0:0,0:0:0:0:
404,68,140244,2,0,P|384:124|408:184,1,121.000003692627,8|0,0:0|0:0,0:0:0:0:
472,124,140828,1,0,0:0:0:0:
404,68,141023,2,0,P|364:48|324:52,1,60.5000018463135,8|0,0:0|0:0,0:0:0:0:
260,40,141412,6,0,P|228:40|196:32,1,60.5000018463135,2|0,0:0|0:0,0:0:0:0:
132,96,141802,2,0,P|148:128|152:160,1,60.5000018463135,8|0,0:0|0:0,0:0:0:0:
196,232,142192,2,0,P|156:244|120:236,2,60.5000018463135,0|0|8,0:0|0:0|0:0,0:0:0:0:
364,160,142971,2,0,P|368:212|360:232,1,60.5000018463135,2|2,0:0|0:0,0:0:0:0:
328,300,143360,2,0,P|292:268|284:242,1,60.5000018463135,8|0,0:0|0:0,0:0:0:0:
200,290,143750,2,0,P|192:242|203:217,1,60.5000018463135,0|0,0:0|0:0,0:0:0:0:
260,168,144140,1,8,0:0:0:0:
136,36,144530,6,0,P|72:28|20:56,1,121.000003692627,4|8,0:0|0:0,0:0:0:0:
0,140,145114,2,0,L|124:148,1,121.000003692627
212,132,145698,1,8,0:0:0:0:
300,112,145893,2,0,P|372:116|410:157,1,121.000003692627,0|0,0:0|0:0,0:0:0:0:
328,200,146478,1,8,0:0:0:0:
328,200,146672,2,0,P|308:256|256:304,1,121.000003692627,0|0,0:0|0:0,0:0:0:0:
88,256,147452,1,0,0:0:0:0:
8,208,147646,6,0,P|56:168|120:168,1,121.000003692627,2|8,0:0|0:0,0:0:0:0:
196,200,148231,2,0,P|216:176|231:147,1,60.5000018463135,0|0,0:0|0:0,0:0:0:0:
264,68,148620,2,0,B|336:88|388:56,1,121.000003692627,0|0,0:0|0:0,0:0:0:0:
468,28,149205,2,0,P|472:64|464:96,1,60.5000018463135,2|2,0:0|0:0,0:0:0:0:
440,176,149594,1,8,0:0:0:0:
304,296,149984,2,0,P|344:288|376:292,1,60.5000018463135,0|0,0:0|0:0,0:0:0:0:
328,372,150374,2,0,P|288:380|256:376,1,60.5000018463135,8|0,0:0|0:0,0:0:0:0:
216,304,150763,6,0,P|184:252|184:188,1,121.000003692627,4|8,0:0|0:0,0:0:0:0:
188,104,151348,1,0,0:0:0:0:
188,104,151543,2,0,P|152:108|120:128,2,60.5000018463135,0|0|8,0:0|0:0|0:0,0:0:0:0:
268,152,152127,2,0,P|340:160|412:152,1,121.000003692627,0|2,0:0|0:0,0:0:0:0:
480,148,152711,2,0,P|464:108|452:92,1,60.5000018463135,8|0,0:0|0:0,0:0:0:0:
362,102,153101,2,0,P|378:142|390:158,1,60.5000018463135,0|0,0:0|0:0,0:0:0:0:
440,232,153491,2,0,P|456:257|466:285,1,60.5000018463135,8|0,0:0|0:0,0:0:0:0:
452,376,153880,6,0,P|392:344|328:344,1,121.000003692627,2|8,0:0|0:0,0:0:0:0:
268,288,154465,2,0,P|208:328|144:340,1,121.000003692627,0|0,0:0|0:0,0:0:0:0:
72,348,155049,1,8,0:0:0:0:
64,168,155439,2,0,P|84:128|104:112,1,60.5000018463135,2|2,0:0|0:0,0:0:0:0:
112,28,155828,2,0,P|148:44|168:68,1,60.5000018463135,8|0,0:0|0:0,0:0:0:0:
240,8,156218,2,0,P|257:43|257:74,1,60.5000018463135,2|0,0:0|0:0,0:0:0:0:
216,144,156607,2,0,P|256:156|292:148,1,60.5000018463135,8|0,0:0|0:0,0:0:0:0:
356,132,156997,5,6,0:0:0:0:
404,292,157387,2,0,P|420:252|420:232,1,55,0|2,0:0|0:0,0:0:0:0:
336,244,157776,2,0,P|320:284|320:304,1,55,8|0,0:0|0:0,0:0:0:0:
364,364,158166,1,0,0:0:0:0:
364,364,158361,2,0,P|408:376|440:368,2,55,2|0|2,0:0|0:0|0:0,0:0:0:0:
280,364,158945,1,2,0:0:0:0:
144,268,159335,2,0,L|88:248,1,55,8|0,0:0|0:0,0:0:0:0:
124,172,159724,2,0,L|93:120,1,55,0|0,0:0|0:0,0:0:0:0:
132,52,160114,6,0,P|172:40|248:52,1,110,6|0,0:0|0:0,0:0:0:0:
300,200,160893,2,0,P|260:212|184:200,1,110,8|0,0:0|0:0,0:0:0:0:
120,168,161478,1,2,0:0:0:0:
60,112,161672,2,0,P|40:152|40:192,2,73.3333333333333,0|2|0,0:0|0:0|0:0,0:0:0:0:
156,60,162452,2,0,L|272:68,1,110,8|2,0:0|0:0,0:0:0:0:
380,188,163231,6,0,L|448:168,1,55,6|0,0:0|0:0,0:0:0:0:
380,108,163620,2,0,L|312:128,1,55,0|2,0:0|0:0,0:0:0:0:
296,200,164010,2,0,P|280:236|268:249,1,55,2|2,0:0|0:0,0:0:0:0:
196,212,164400,2,0,P|178:233|169:259,1,55,8|8,0:0|0:0,0:0:0:0:
153,342,164789,1,8,0:0:0:0:
56,208,165179,1,4,0:0:0:0:
136,64,165568,2,0,L|192:52,1,55,0|0,0:0|0:0,0:0:0:0:
252,108,165958,2,0,L|200:136,1,55,0|0,0:0|0:0,0:0:0:0:
132,176,166347,5,2,0:0:0:0:
256,192,166542,12,0,169464,0:0:0:0:
112,120,178815,6,0,P|160:132|220:124,1,98.9999969787599,2|2,0:1|0:1,0:0:0:0:
284,108,179400,1,2,0:1:0:0:
418,277,180373,2,0,P|362:245|314:257,1,98.9999969787599,2|2,0:1|0:1,0:0:0:0:
268,296,180958,2,0,P|324:328|372:316,2,98.9999969787599,2|2|2,0:1|0:1|0:1,0:0:0:0:
212,240,181932,6,0,B|168:224|168:224|112:224,1,98.9999969787599,2|0,0:1|0:0,0:0:0:0:
62,165,182516,2,0,B|106:149|106:149|162:149,1,98.9999969787599,2|0,0:1|0:0,0:0:0:0:
236,165,183101,2,0,P|277:110|281:71,1,98.9999969787599,2|0,0:1|0:0,0:0:0:0:
302,5,183685,2,0,P|359:5|405:20,1,98.9999969787599,2|0,0:1|0:0,0:0:0:0:
448,80,184269,2,0,P|452:108|448:136,1,49.4999984893799,2|0,0:1|0:0,0:0:0:0:
372,132,184659,2,0,P|368:160|372:188,1,49.4999984893799,2|0,0:1|0:0,0:0:0:0:
424,240,185049,6,0,P|448:288|428:348,1,98.9999969787599,2|2,0:1|0:1,0:0:0:0:
368,296,185633,2,0,L|256:292,1,98.9999969787599,2|2,0:1|0:1,0:0:0:0:
188,292,186218,1,0,0:0:0:0:
108,168,186607,2,0,P|84:112|88:56,1,98.9999969787599,2|2,0:1|0:1,0:0:0:0:
152,32,187192,2,0,B|216:52|256:40,1,98.9999969787599,2|2,0:1|0:1,0:0:0:0:
396,76,187971,1,2,0:1:0:0:
396,76,188166,6,0,L|452:60,2,49.4999984893799,0|2|0,0:0|0:1|0:0,0:0:0:0:
324,108,188750,2,0,P|272:128|212:136,1,98.9999969787599,2|0,0:1|0:0,0:0:0:0:
156,168,189334,2,0,P|109:190|88:251,1,98.9999969787599,2|0,0:1|0:0,0:0:0:0:
166,246,189919,2,0,B|202:274|278:270,1,98.9999969787599,2|0,0:1|0:0,0:0:0:0:
340,276,190503,2,0,P|392:264|432:232,1,98.9999969787599,2|0,0:1|0:0,0:0:0:0:
460,160,191088,1,0,0:0:0:0:
420,88,191283,6,0,P|392:36|348:12,1,110,2|2,0:0|0:0,0:0:0:0:
272,40,191867,2,0,B|240:52|240:52|200:52|160:36,1,110,0|0,0:0|0:0,0:0:0:0:
88,64,192452,2,0,P|84:36|88:9,2,55,2|8|2,0:0|0:0|0:0,0:0:0:0:
84,148,193036,2,0,P|67:169|45:186,2,55,0|2|0,0:0|0:0|0:0,0:0:0:0:
160,112,193620,1,2,0:0:0:0:
160,112,193815,2,0,P|187:108|214:112,1,55,0|2,0:0|0:0,0:0:0:0:
292,140,194204,1,0,0:0:0:0:
372,168,194400,6,0,P|340:212|285:227,1,110,2|2,0:0|0:0,0:0:0:0:
208,212,194984,2,0,P|153:218|100:252,1,110,0|0,0:0|0:0,0:0:0:0:
44,300,195568,2,0,P|74:323|111:329,1,55,2|8,0:0|0:0,0:0:0:0:
168,300,195958,1,2,0:0:0:0:
248,312,196153,2,0,L|252:376,2,55,0|2|0,0:0|0:0|0:0,0:0:0:0:
264,232,196737,2,0,P|294:175|354:156,1,110,2|2,0:0|0:0,0:0:0:0:
349,238,197322,1,0,0:0:0:0:
414,187,197517,6,0,P|413:129|379:84,1,110,4|2,0:0|0:0,0:0:0:0:
229,29,198296,2,0,P|180:10|121:29,1,110,2|2,0:0|0:0,0:0:0:0:
5,137,199075,2,0,B|57:157|57:157|109:133,1,110,2|2,0:0|0:0,0:0:0:0:
177,93,199659,1,8,0:0:0:0:
298,204,200049,2,0,P|222:216|166:208,1,110,2|2,0:0|0:0,0:0:0:0:
108,228,200633,6,0,P|84:272|80:300,2,73.3333333333333,2|2|2,0:1|0:1|0:1,0:0:0:0:
116,116,201413,2,0,P|72:92|44:88,2,73.3333333333333,2|2|2,0:1|0:1|0:1,0:0:0:0:
208,176,202192,2,0,P|268:148|312:100,1,110,4|0,0:0|0:0,0:0:0:0:
476,160,202971,6,0,P|436:180|412:180,1,60.5000018463135,2|0,0:0|0:0,0:0:0:0:
416,272,203361,2,0,P|372:261|356:244,1,60.5000018463135,8|0,0:0|0:0,0:0:0:0:
296,316,203750,6,0,B|248:256|292:188,1,121.000003692627,6|8,0:0|0:0,0:0:0:0:
352,144,204334,1,0,0:0:0:0:
396,64,204530,2,0,P|392:28|372:0,1,60.5000018463135,2|0,0:0|0:0,0:0:0:0:
308,64,204919,2,0,P|284:96|276:124,1,60.5000018463135,8|0,0:0|0:0,0:0:0:0:
283,203,205308,1,2,0:0:0:0:
108,256,205698,2,0,B|116:324|112:376,2,121.000003692627,8|2|8,0:0|0:0|0:0,0:0:0:0:
32,92,206867,6,0,P|56:52|84:32,1,60.5000018463135,2|0,0:0|0:0,0:0:0:0:
124,116,207257,2,0,P|168:100|202:103,1,60.5000018463135,8|0,0:0|0:0,0:0:0:0:
184,192,207646,2,0,P|227:208|252:232,2,60.5000018463135,2|0|8,0:0|0:0|0:0,0:0:0:0:
4,180,208426,2,0,L|8:240,1,60.5000018463135,2|0,0:0|0:0,0:0:0:0:
92,276,208815,2,0,L|100:216,1,60.5000018463135,8|0,0:0|0:0,0:0:0:0:
164,152,209205,2,0,P|120:128|88:128,2,60.5000018463135,2|0|8,0:0|0:0|0:0,0:0:0:0:
320,244,209984,6,0,P|408:256|456:240,1,121.000003692627,6|8,0:0|0:0,0:0:0:0:
488,172,210568,2,0,L|508:44,1,121.000003692627,0|0,0:0|0:0,0:0:0:0:
424,16,211153,1,8,0:0:0:0:
336,40,211348,2,0,P|316:92|336:156,1,121.000003692627,0|0,0:0|0:0,0:0:0:0:
404,96,211932,1,8,0:0:0:0:
420,184,212127,2,0,L|480:196,1,60.5000018463135,0|2,0:0|0:0,0:0:0:0:
480,288,212517,2,0,B|440:300|440:300|348:280,1,121.000003692627,0|0,0:0|0:0,0:0:0:0:
272,264,213101,6,0,L|252:336,2,60.5000018463135,2|0|8,0:0|0:0|0:0,0:0:0:0:
292,172,213685,2,0,P|252:172|216:188,1,60.5000018463135,0|2,0:0|0:0,0:0:0:0:
164,240,214075,2,0,P|108:196|88:152,1,121.000003692627
68,68,214659,2,0,P|120:52|152:52,1,60.5000018463135,2|0,0:0|0:0,0:0:0:0:
216,44,215049,2,0,P|228:88|244:120,1,60.5000018463135,8|0,0:0|0:0,0:0:0:0:
316,60,215439,2,0,P|353:85|386:100,1,60.5000018463135,2|0,0:0|0:0,0:0:0:0:
412,12,215828,2,0,P|442:10|471:4,1,60.5000018463135,10|0,0:0|0:0,0:0:0:0:
460,96,216218,6,0,P|432:160|368:184,1,121.000003692627,6|8,0:0|0:0,0:0:0:0:
300,208,216802,1,0,0:0:0:0:
212,232,216997,2,0,B|176:364,1,121.000003692627,2|8,0:0|0:0,0:0:0:0:
116,288,217581,2,0,B|152:156,1,121.000003692627,0|0,0:0|0:0,0:0:0:0:
204,100,218166,2,0,P|144:120|76:92,2,121.000003692627,8|2|8,0:0|0:0|0:0,0:0:0:0:
368,20,219335,6,0,P|428:0|496:28,1,121.000003692627,2|8,0:0|0:0,0:0:0:0:
428,88,219919,2,0,L|424:156,1,60.5000018463135,0|2,0:0|0:0,0:0:0:0:
492,212,220309,2,0,L|445:261,1,60.5000018463135,0|8,0:0|0:0,0:0:0:0:
296,348,220893,2,0,P|232:340|192:296,1,121.000003692627,2|8,0:0|0:0,0:0:0:0:
276,260,221478,1,0,0:0:0:0:
276,260,221672,2,0,P|244:224|224:216,1,60.5000018463135,2|2,0:0|0:0,0:0:0:0:
144,232,222062,2,0,P|115:239|85:236,1,60.5000018463135,8|0,0:0|0:0,0:0:0:0:
20,188,222452,6,0,L|56:72,1,110,12|0,0:0|0:0,0:0:0:0:
128,44,223036,1,2,0:0:0:0:
128,44,223231,2,0,P|200:80|248:76,1,110,8|0,0:0|0:0,0:0:0:0:
312,84,223815,1,2,0:0:0:0:
392,96,224010,2,0,P|392:60|368:24,2,55,0|2|2,0:0|0:0|0:0,0:0:0:0:
244,24,224789,2,0,P|220:84|244:144,1,110,8|0,0:0|0:0,0:0:0:0:
264,200,225374,1,0,0:0:0:0:
264,200,225568,6,0,B|208:168|208:168|148:164,1,110,6|0,0:0|0:0,0:0:0:0:
32,264,226348,2,0,L|152:268,1,110,8|0,0:0|0:0,0:0:0:0:
220,296,226932,1,2,0:0:0:0:
300,320,227127,2,0,P|276:360|248:376,2,73.3333333333333,0|0|0,0:0|0:0|0:0,0:0:0:0:
336,216,227906,2,0,P|352:160|384:112,1,110,8|2,0:0|0:0,0:0:0:0:
504,232,228685,6,0,P|504:276|496:296,1,55,4|0,0:0|0:0,0:0:0:0:
420,256,229075,2,0,P|391:289|372:299,1,55,2|0,0:0|0:0,0:0:0:0:
344,220,229465,2,0,P|349:193|347:165,2,55,2|2|2,0:0|0:0|0:0,0:0:0:0:
304,292,230049,1,2,0:0:0:0:
304,292,230244,2,0,P|260:299|239:295,1,55,2|0,0:0|0:0,0:0:0:0:
220,220,230633,2,0,P|192:218|166:226,1,55,8|0,0:0|0:0,0:0:0:0:
128,300,231023,2,0,P|88:252|88:204,1,110,2|2,0:0|0:0,0:0:0:0:
112,128,231607,6,0,B|148:108|148:108|236:100,1,110,0|0,0:0|0:0,0:0:0:0:
300,100,232192,2,0,P|292:64|272:40,2,55,8|0|2,0:0|0:0|0:0,0:0:0:0:
364,156,232776,2,0,P|381:123|381:92,2,55,2|8|0,0:0|0:0|0:0,0:0:0:0:
284,176,233361,2,0,L|220:228,2,73.3333333333333,8|8|8,0:0|0:0|0:0,0:0:0:0:
368,104,234140,2,0,P|448:92|484:100,1,110,0|0,0:0|0:0,0:0:0:0:
412,248,234919,6,0,P|332:260|296:252,1,110,2|0,0:1|0:0,0:0:0:0:
228,228,235504,1,2,0:1:0:0:
164,176,235698,2,0,P|144:236|172:288,1,110,0|2,0:0|0:1,0:0:0:0:
224,328,236283,2,0,P|296:336|336:352,1,110,2|0,0:1|0:0,0:0:0:0:
408,376,236867,1,2,0:1:0:0:
448,216,237257,2,0,P|464:168|464:144,1,55,0|0,0:0|0:0,0:0:0:0:
380,160,237646,2,0,P|361:112|345:94,1,55,2|0,0:1|0:0,0:0:0:0:
300,52,238036,6,0,P|236:84|192:84,1,110,2|2,0:1|0:1,0:0:0:0:
32,84,238815,2,0,L|16:212,1,110,2|2,0:1|0:1,0:0:0:0:
8,276,239400,1,0,0:0:0:0:
8,276,239594,2,0,L|136:292,1,110,2|0,0:1|0:0,0:0:0:0:
256,376,240373,2,0,L|128:360,1,110,2|0,0:1|0:0,0:0:0:0:
188,204,241153,6,0,P|232:196|260:200,1,55,6|0,0:0|0:0,0:0:0:0:
320,220,241543,2,0,P|324:184|308:152,1,55,2|2,0:0|0:0,0:0:0:0:
392,132,241932,2,0,P|371:101|339:87,2,55,2|2|2,0:0|0:0|0:0,0:0:0:0:
428,208,242517,1,2,0:0:0:0:
428,208,242711,2,0,P|456:184|472:152,1,55,2|0,0:0|0:0,0:0:0:0:
492,88,243101,1,12,0:0:0:0:
336,40,243490,2,0,L|344:156,1,110,0|0,0:0|0:0,0:0:0:0:
312,228,244075,1,0,0:0:0:0:
312,228,244270,6,0,P|280:200|264:172,1,55,2|0,0:0|0:0,0:0:0:0:
224,124,244659,1,8,0:0:0:0:
224,124,244854,2,0,P|164:152|136:196,1,110,2|2,0:1|0:1,0:0:0:0:
112,264,245439,1,8,0:0:0:0:
252,352,245828,2,0,P|312:356|352:324,1,110,2|8,0:1|0:0,0:0:0:0:
284,276,246413,2,0,P|332:248|388:256,1,110,2|2,0:1|0:1,0:0:0:0:
456,296,246997,1,8,0:0:0:0:
396,144,247387,6,0,L|336:51,1,110,2|8,0:1|0:0,0:0:0:0:
266,4,247971,2,0,P|229:31|213:33,1,55,2|2,0:1|0:1,0:0:0:0:
136,32,248361,1,0,0:0:0:0:
136,32,248556,2,0,B|140:76|172:96,1,55,8|0,0:0|0:0,0:0:0:0:
212,140,248945,1,2,0:1:0:0:
140,288,249334,2,0,P|148:328|140:360,1,55,8|0,0:0|0:0,0:0:0:0:
64,320,249724,2,0,P|56:280|64:248,1,55,2|8,0:1|0:0,0:0:0:0:
116,204,250114,2,0,P|156:204|188:216,1,55,8|0,0:0|0:0,0:0:0:0:
228,268,250504,6,0,P|296:288|340:284,1,110,10|0,0:0|0:0,0:0:0:0:
416,264,251088,2,0,L|432:144,1,110,10|10,0:0|0:0,0:0:0:0:
440,72,251672,1,10,0:0:0:0:
276,60,252062,2,0,B|228:64|228:64|196:88|180:128,1,110,10|10,0:0|0:0,0:0:0:0:
152,184,252646,2,0,P|88:184|52:152,1,110,8|10,0:0|0:0,0:0:0:0:
12,88,253231,5,14,0:0:0:0:
256,192,253426,12,0,256737,0:0:0:0:
