osu file format v14

[General]
AudioFilename: audio.mp3
AudioLeadIn: 0
PreviewTime: 51254
Countdown: 0
SampleSet: Soft
StackLeniency: 0.7
Mode: 3
LetterboxInBreaks: 0
SpecialStyle: 0
WidescreenStoryboard: 1

[Editor]
DistanceSpacing: 1
BeatDivisor: 4
GridSize: 4
TimelineZoom: 1.6

[Metadata]
Title:Diamond no Jundo (TV Size)
TitleUnicode:ダイヤモンドの純度 (TV Size)
Artist:Yukinoshita Yukino (CV: Hayami Saori) & Yuigahama Yui (CV: Toyama Nao)
ArtistUnicode:雪ノ下雪乃(CV: 早見沙織)&由比ヶ浜結衣(CV: 東山奈央)
Creator:Nabi-
Version:Sun's Hard
Source:やはり俺の青春ラブコメはまちがっている。完
Tags:Drum-Hitnormal Dudehacker Paran Sun Touyama Oregairu My Youth Romantic Comedy Is Wrong As I Expected Yahari Ore no Seishun Rabukome wa Machigatteiru Teen Hamachi SNAFU Anime Season 3 ed ending j-pop jpop japanese
BeatmapID:2616656
BeatmapSetID:1247554

[Difficulty]
HPDrainRate:7.5
CircleSize:4
OverallDifficulty:7.5
ApproachRate:5
SliderMultiplier:1.4
SliderTickRate:1

[Events]
//Background and Video events
Video,1185,"OreGairuS3-ED1.mp4"
0,0,"dd.jpg",0,0
//Break Periods
//Storyboard Layer 0 (Background)
//Storyboard Layer 1 (Fail)
//Storyboard Layer 2 (Pass)
//Storyboard Layer 3 (Foreground)
//Storyboard Layer 4 (Overlay)
//Storyboard Sound Samples
Sample,40191,0,"High Tom.wav",70
Sample,43191,0,"High Tom.wav",70

[TimingPoints]
3254,370.37037037037,4,2,1,70,1,0
3254,-101.25,4,2,1,70,0,0
5846,399.933344442593,4,2,1,70,1,8
5846,-93.765625,4,2,1,70,0,0
6245,370.37037037037,4,2,1,70,1,0
6245,-101.25,4,2,1,70,0,0
7170,370.37037037037,4,2,1,70,1,8
7170,-101.25,4,2,1,70,0,0
7541,427.046263345196,4,2,1,70,1,8
7541,-87.8125,4,2,1,70,0,0
7754,372.670807453416,4,2,1,70,1,0
7754,-100.625,4,2,1,70,0,0
8126,368.098159509202,4,2,1,70,1,8
8126,-101.875,4,2,1,70,0,0
8494,372.670807453416,4,2,1,70,1,8
8494,-100.625,4,2,1,70,0,0
8866,388.349514563107,4,2,1,70,1,8
8866,-96.5625,4,2,1,70,0,0
9254,370.37037037037,4,2,1,70,1,0
9254,-101.25,4,2,1,70,0,0
11476,400,4,2,1,70,1,8
11476,-93.75,4,2,1,70,0,0
11868,389.61038961039,4,2,1,70,1,8
11868,-96.25,4,2,1,70,0,0
12254,370.37037037037,4,2,1,70,1,0
12254,-101.25,4,2,1,70,0,0
13556,375,4,2,1,70,1,8
13556,-100,4,2,1,70,0,0
13743,375,4,2,1,70,1,0
13743,-100,4,2,1,70,0,0
14306,379.746835443038,4,2,1,70,1,8
14306,-98.75,4,2,1,70,0,0
14495,379.746835443038,4,2,1,70,1,8
14495,-98.75,4,2,1,70,0,0
15254,375,4,2,1,70,1,0
15254,-100,4,2,1,70,0,0
51254,-100,4,2,1,70,0,1
61566,-100,4,2,1,70,0,0
63254,-100,4,2,1,70,0,1
68504,-100,4,2,1,70,0,0
69066,-100,4,2,1,70,0,1
75066,-100,4,2,1,70,0,0

[HitObjects]
192,192,3254,5,0,0:0:0:0:
448,192,3254,128,0,4735:0:0:0:0:
64,192,3624,1,0,0:0:0:0:
64,192,3809,128,0,4179:0:0:0:0:
320,192,4179,1,0,0:0:0:0:
320,192,4365,128,0,4735:0:0:0:0:
64,192,4735,1,0,0:0:0:0:
192,192,4735,128,0,6245:0:0:0:0:
320,192,5105,1,0,0:0:0:0:
320,192,5291,128,0,5661:0:0:0:0:
64,192,5661,1,0,0:0:0:0:
64,192,5846,128,0,6245:0:0:0:0:
320,192,6245,128,0,7355:0:0:0:0:
448,192,6245,1,0,0:0:0:0:
64,192,6615,1,0,0:0:0:0:
64,192,6800,128,0,7170:0:0:0:0:
192,192,7170,1,0,0:0:0:0:
192,192,7355,128,0,7754:0:0:0:0:
320,192,7541,1,0,0:0:0:0:
64,192,7754,1,0,0:0:0:0:
448,192,7754,128,0,8494:0:0:0:0:
192,192,8126,128,0,8866:0:0:0:0:
320,192,8494,128,0,9254:0:0:0:0:
64,192,8866,128,0,9254:0:0:0:0:
192,192,9254,1,2,0:0:0:0:
448,192,9254,128,0,9624:0:0:0:0:
192,192,9624,1,0,0:0:0:0:
192,192,9809,1,2,0:0:0:0:
448,192,9809,128,0,9994:0:0:0:0:
64,192,10179,1,0,0:0:0:0:
64,192,10365,128,2,12254:0:0:0:0:
320,192,10365,1,0,0:0:0:0:
448,192,11676,128,0,11868:0:0:0:0:
320,192,11868,128,0,12062:0:0:0:0:
192,192,12062,128,0,12254:0:0:0:0:
320,192,12254,1,4,0:0:0:0:
448,192,12254,128,2,13743:0:0:0:0:
64,192,13179,128,0,13365:0:0:0:0:
192,192,13365,128,0,13556:0:0:0:0:
320,192,13556,128,0,13743:0:0:0:0:
64,192,13743,128,2,15254:0:0:0:0:
192,192,13743,1,0,0:0:0:0:
192,192,14495,128,0,15254:0:0:0:0:
320,192,15254,1,4,0:0:0:0:
448,192,15254,1,2,0:0:0:0:
192,192,15441,1,0,0:0:0:0:
320,192,15629,1,2,0:0:0:0:
448,192,15629,128,0,15816:0:0:0:0:
64,192,15816,1,0,0:0:0:0:
320,192,16004,128,2,16191:0:0:0:0:
448,192,16004,1,0,0:0:0:0:
64,192,16191,128,0,16379:0:0:0:0:
192,192,16379,1,2,0:0:0:0:
448,192,16379,1,0,0:0:0:0:
320,192,16566,128,0,16754:0:0:0:0:
64,192,16754,1,2,0:0:0:0:
192,192,16754,1,0,0:0:0:0:
448,192,16941,128,0,17129:0:0:0:0:
64,192,17129,1,2,0:0:0:0:
320,192,17129,1,0,0:0:0:0:
192,192,17316,128,0,17504:0:0:0:0:
320,192,17504,1,2,0:0:0:0:
448,192,17504,128,0,17691:0:0:0:0:
192,192,17691,1,0,0:0:0:0:
64,192,17879,128,2,18066:0:0:0:0:
448,192,17879,1,0,0:0:0:0:
320,192,18066,1,0,0:0:0:0:
64,192,18254,1,2,0:0:0:0:
448,192,18254,1,0,0:0:0:0:
192,192,18441,1,0,0:0:0:0:
320,192,18629,128,2,18816:0:0:0:0:
448,192,18629,1,0,0:0:0:0:
64,192,18816,1,0,0:0:0:0:
192,192,19004,128,2,19191:0:0:0:0:
320,192,19004,1,0,0:0:0:0:
448,192,19191,128,0,19379:0:0:0:0:
64,192,19379,1,2,0:0:0:0:
192,192,19379,1,0,0:0:0:0:
320,192,19566,128,0,19754:0:0:0:0:
192,192,19754,1,2,0:0:0:0:
448,192,19754,1,0,0:0:0:0:
64,192,19941,128,0,20129:0:0:0:0:
320,192,20129,1,2,0:0:0:0:
448,192,20129,1,0,0:0:0:0:
192,192,20316,128,0,20504:0:0:0:0:
64,192,20504,1,2,0:0:0:0:
448,192,20504,128,0,20691:0:0:0:0:
320,192,20691,1,0,0:0:0:0:
64,192,20879,128,2,21066:0:0:0:0:
448,192,20879,1,0,0:0:0:0:
192,192,21066,1,0,0:0:0:0:
320,192,21254,1,2,0:0:0:0:
448,192,21254,1,0,0:0:0:0:
64,192,21441,1,0,0:0:0:0:
192,192,21629,1,2,0:0:0:0:
320,192,21629,128,0,21816:0:0:0:0:
64,192,21816,1,0,0:0:0:0:
320,192,22004,1,2,0:0:0:0:
448,192,22004,128,0,22191:0:0:0:0:
64,192,22191,128,0,22379:0:0:0:0:
192,192,22379,1,2,0:0:0:0:
448,192,22379,1,0,0:0:0:0:
320,192,22566,128,0,22754:0:0:0:0:
64,192,22754,1,2,0:0:0:0:
448,192,22754,1,0,0:0:0:0:
192,192,22941,128,0,23129:0:0:0:0:
64,192,23129,1,2,0:0:0:0:
320,192,23129,1,0,0:0:0:0:
448,192,23316,128,0,23504:0:0:0:0:
192,192,23504,1,2,0:0:0:0:
320,192,23504,1,0,0:0:0:0:
64,192,23691,128,0,23879:0:0:0:0:
192,192,23879,1,2,0:0:0:0:
448,192,23879,1,0,0:0:0:0:
320,192,24066,128,0,24254:0:0:0:0:
64,192,24254,1,2,0:0:0:0:
448,192,24254,1,0,0:0:0:0:
320,192,24441,1,0,0:0:0:0:
64,192,24629,1,2,0:0:0:0:
192,192,24629,1,0,0:0:0:0:
320,192,24816,1,0,0:0:0:0:
192,192,25004,1,2,0:0:0:0:
448,192,25004,1,0,0:0:0:0:
64,192,25191,128,0,25379:0:0:0:0:
320,192,25379,128,2,25566:0:0:0:0:
448,192,25379,1,0,0:0:0:0:
192,192,25566,128,0,25754:0:0:0:0:
64,192,25754,1,2,0:0:0:0:
448,192,25754,128,0,25941:0:0:0:0:
192,192,25941,1,0,0:0:0:0:
64,192,26129,1,2,0:0:0:0:
448,192,26129,1,0,0:0:0:0:
320,192,26316,1,0,0:0:0:0:
64,192,26504,1,8,0:0:0:0:
192,192,26504,1,0,0:0:0:0:
448,192,26691,1,2,0:0:0:0:
64,192,26879,1,8,0:0:0:0:
192,192,26879,1,0,0:0:0:0:
64,192,27066,1,8,0:0:0:0:
192,192,27066,1,0,0:0:0:0:
320,192,27160,1,8,0:0:0:0:
64,192,27254,128,2,27629:0:0:0:0:
448,192,27254,1,4,0:0:0:0:
320,192,27441,1,0,0:0:0:0:
192,192,27629,1,8,0:0:0:0:
448,192,27629,1,0,0:0:0:0:
192,192,27816,128,0,28191:0:0:0:0:
64,192,28004,1,2,0:0:0:0:
448,192,28004,1,0,0:0:0:0:
320,192,28191,128,0,28566:0:0:0:0:
64,192,28379,1,8,0:0:0:0:
192,192,28379,1,0,0:0:0:0:
448,192,28566,128,0,28941:0:0:0:0:
64,192,28754,1,2,0:0:0:0:
320,192,28754,1,0,0:0:0:0:
192,192,28941,1,0,0:0:0:0:
320,192,29129,1,8,0:0:0:0:
448,192,29129,1,0,0:0:0:0:
64,192,29316,1,0,0:0:0:0:
320,192,29504,128,2,29879:0:0:0:0:
192,192,29504,1,0,0:0:0:0:
64,192,29691,1,2,0:0:0:0:
192,192,29691,1,0,0:0:0:0:
64,192,29879,1,8,0:0:0:0:
448,192,29879,128,0,30254:0:0:0:0:
320,192,30066,1,0,0:0:0:0:
64,192,30254,1,2,0:0:0:0:
192,192,30254,128,0,30629:0:0:0:0:
448,192,30441,1,0,0:0:0:0:
64,192,30629,1,8,0:0:0:0:
320,192,30629,1,0,0:0:0:0:
320,192,30816,128,0,31191:0:0:0:0:
64,192,31004,1,2,0:0:0:0:
448,192,31004,1,0,0:0:0:0:
192,192,31191,128,0,31566:0:0:0:0:
320,192,31379,1,8,0:0:0:0:
448,192,31379,1,0,0:0:0:0:
64,192,31566,128,0,31941:0:0:0:0:
192,192,31754,1,2,0:0:0:0:
448,192,31754,1,0,0:0:0:0:
320,192,31941,1,0,0:0:0:0:
64,192,32129,1,8,0:0:0:0:
192,192,32129,1,0,0:0:0:0:
448,192,32316,1,0,0:0:0:0:
192,192,32504,1,2,0:0:0:0:
320,192,32504,1,0,0:0:0:0:
320,192,32691,1,2,0:0:0:0:
448,192,32691,1,0,0:0:0:0:
64,192,32879,1,8,0:0:0:0:
448,192,32879,128,0,33254:0:0:0:0:
320,192,33066,1,0,0:0:0:0:
64,192,33254,1,2,0:0:0:0:
192,192,33254,1,4,0:0:0:0:
320,192,33441,128,0,33816:0:0:0:0:
192,192,33629,1,8,0:0:0:0:
448,192,33629,1,0,0:0:0:0:
64,192,33816,128,0,34191:0:0:0:0:
192,192,34004,1,2,0:0:0:0:
320,192,34004,1,0,0:0:0:0:
448,192,34191,128,0,34566:0:0:0:0:
64,192,34379,1,8,0:0:0:0:
192,192,34379,1,0,0:0:0:0:
320,192,34566,128,0,34941:0:0:0:0:
192,192,34754,1,2,0:0:0:0:
448,192,34754,1,0,0:0:0:0:
64,192,34941,128,0,35316:0:0:0:0:
320,192,35129,1,8,0:0:0:0:
448,192,35129,1,0,0:0:0:0:
192,192,35316,128,0,35691:0:0:0:0:
320,192,35504,1,2,0:0:0:0:
448,192,35504,1,0,0:0:0:0:
320,192,35691,128,2,36066:0:0:0:0:
64,192,35691,1,0,0:0:0:0:
64,192,35879,1,8,0:0:0:0:
192,192,35879,1,0,0:0:0:0:
448,192,36066,128,0,36441:0:0:0:0:
64,192,36254,1,2,0:0:0:0:
320,192,36254,1,0,0:0:0:0:
192,192,36441,1,0,0:0:0:0:
192,192,36629,128,8,37004:0:0:0:0:
448,192,36629,1,0,0:0:0:0:
64,192,36816,1,0,0:0:0:0:
320,192,37004,1,2,0:0:0:0:
448,192,37004,1,0,0:0:0:0:
192,192,37191,1,0,0:0:0:0:
64,192,37379,1,8,0:0:0:0:
448,192,37379,1,0,0:0:0:0:
320,192,37566,1,0,0:0:0:0:
192,192,37754,1,2,0:0:0:0:
448,192,37754,1,0,0:0:0:0:
320,192,37941,1,8,0:0:0:0:
448,192,37941,1,0,0:0:0:0:
64,192,38129,1,2,0:0:0:0:
192,192,38129,1,0,0:0:0:0:
64,192,38316,1,2,0:0:0:0:
192,192,38316,1,0,0:0:0:0:
320,192,38504,1,8,0:0:0:0:
448,192,38504,1,0,0:0:0:0:
64,192,38691,1,2,0:0:0:0:
320,192,38691,1,0,0:0:0:0:
64,192,38879,1,8,0:0:0:0:
448,192,38879,128,0,39254:0:0:0:0:
64,192,39254,1,8,0:0:0:0:
320,192,39254,1,0,0:0:0:70:Mid Tom.wav
64,192,39441,1,8,0:0:0:0:
192,192,39441,1,0,0:0:0:70:Mid Tom.wav
320,192,39629,1,0,0:0:0:0:
320,192,39816,128,0,40191:0:0:0:0:
64,192,40191,128,8,40566:0:0:0:0:
192,192,40191,1,0,0:0:0:50:LR_CymbalG.wav
320,192,40566,128,2,40941:0:0:0:0:
448,192,40566,1,4,0:0:0:0:
192,192,40566,1,0,0:0:0:0:
64,192,40941,1,8,0:0:0:0:
448,192,40941,1,0,0:0:0:0:
192,192,41129,1,0,0:0:0:0:
320,192,41316,1,0,0:0:0:70:Mid Tom.wav
448,192,41316,1,0,0:0:0:0:
192,192,41504,1,0,0:0:0:70:High Tom.wav
64,192,41629,1,0,0:0:0:70:High Tom.wav
320,192,41754,1,0,0:0:0:70:High Tom.wav
448,192,41879,1,0,0:0:0:70:Mid Tom.wav
192,192,42004,1,0,0:0:0:70:Mid Tom.wav
320,192,42129,1,0,0:0:0:70:Low Tom.wav
64,192,42254,1,8,0:0:0:0:
448,192,42254,1,0,0:0:0:70:Mid Tom.wav
320,192,42441,1,8,0:0:0:0:
448,192,42441,1,0,0:0:0:70:Mid Tom.wav
192,192,42629,1,0,0:0:0:0:
192,192,42816,128,0,43191:0:0:0:0:
64,192,43191,1,8,0:0:0:0:
448,192,43191,128,0,43566:0:0:0:50:LR_CymbalG.wav
192,192,43566,1,2,0:0:0:0:
320,192,43566,128,4,43941:0:0:0:0:
64,192,43566,1,0,0:0:0:0:
64,192,43941,1,0,0:0:0:70:High Tom.wav
448,192,43941,1,0,0:0:0:0:
192,192,44035,1,0,0:0:0:70:Mid Tom.wav
320,192,44129,1,2,0:0:0:0:
64,192,44316,1,0,0:0:0:70:High Tom.wav
192,192,44316,1,0,0:0:0:0:
448,192,44410,1,0,0:0:0:70:Mid Tom.wav
320,192,44504,1,2,0:0:0:0:
64,192,44691,1,0,0:0:0:70:Mid Tom.wav
448,192,44691,1,0,0:0:0:0:
320,192,44785,1,0,0:0:0:70:Mid Tom.wav
192,192,44879,1,2,0:0:0:0:
320,192,45066,1,0,0:0:0:70:Low Tom.wav
448,192,45066,1,0,0:0:0:0:
64,192,45160,1,0,0:0:0:70:Low Tom.wav
192,192,45254,1,2,0:0:0:0:
320,192,45254,1,4,0:0:0:0:
448,192,45254,1,0,0:0:0:0:
64,192,45629,1,2,0:0:0:0:
192,192,45629,1,0,0:0:0:0:
192,192,45816,1,8,0:0:0:0:
448,192,45816,1,0,0:0:0:0:
64,192,46004,1,2,0:0:0:0:
320,192,46004,1,0,0:0:0:0:
192,192,46191,1,0,0:0:0:70:Mid Tom.wav
320,192,46191,1,0,0:0:0:0:
64,192,46379,1,2,0:0:0:0:
448,192,46379,1,0,0:0:0:0:
64,192,46566,1,8,0:0:0:0:
192,192,46566,1,4,0:0:0:0:
448,192,46566,1,0,0:0:0:0:
192,192,46754,1,2,0:0:0:0:
320,192,46754,1,0,0:0:0:0:
192,192,47129,1,2,0:0:0:0:
64,192,47129,1,0,0:0:0:0:
64,192,47316,1,8,0:0:0:0:
448,192,47316,1,0,0:0:0:0:
192,192,47504,1,2,0:0:0:0:
320,192,47504,1,0,0:0:0:0:
192,192,47691,1,0,0:0:0:70:Mid Tom.wav
448,192,47691,1,0,0:0:0:0:
64,192,47879,1,8,0:0:0:0:
320,192,47879,1,0,0:0:0:0:
64,192,48066,128,4,48441:0:0:0:0:
192,192,48066,1,2,0:0:0:0:
448,192,48066,1,0,0:0:0:0:
320,192,48441,1,2,0:0:0:0:
448,192,48441,1,0,0:0:0:0:
192,192,48629,1,8,0:0:0:0:
448,192,48629,1,0,0:0:0:0:
64,192,48816,128,2,49191:0:0:0:0:
192,192,48816,1,4,0:0:0:0:
320,192,48816,1,0,0:0:0:0:
320,192,49191,1,2,0:0:0:0:
448,192,49191,1,0,0:0:0:0:
192,192,49379,1,8,0:0:0:0:
320,192,49379,1,0,0:0:0:0:
64,192,49566,128,2,49941:0:0:0:0:
192,192,49566,1,4,0:0:0:0:
448,192,49566,1,0,0:0:0:0:
320,192,49941,1,8,0:0:0:0:
448,192,49941,1,0,0:0:0:0:
320,192,50129,1,8,0:0:0:0:
448,192,50129,1,0,0:0:0:0:
320,192,50316,1,8,0:0:0:0:
448,192,50316,1,0,0:0:0:0:
64,192,50504,1,8,0:0:0:0:
192,192,50504,1,0,0:0:0:50:LR_CymbalG.wav
192,192,50691,1,2,0:0:0:0:
448,192,50691,1,0,0:0:0:0:
64,192,50879,1,8,0:0:0:0:
320,192,50879,1,0,0:0:0:50:LR_CymbalG.wav
448,192,50879,1,0,0:0:0:0:
64,192,51066,1,8,0:0:0:0:
192,192,51066,1,0,0:0:0:0:
320,192,51160,1,8,0:0:0:0:
64,192,51254,1,2,0:0:0:0:
192,192,51254,1,4,0:0:0:0:
448,192,51254,1,0,0:0:0:0:
64,192,51629,128,8,52191:0:0:0:0:
320,192,51629,1,0,0:0:0:0:
448,192,51629,128,0,51816:0:0:0:0:
192,192,51816,1,0,0:0:0:0:
192,192,52004,128,2,52191:0:0:0:0:
448,192,52004,1,0,0:0:0:0:
320,192,52191,1,0,0:0:0:0:
64,192,52379,1,8,0:0:0:0:
192,192,52379,1,0,0:0:0:0:
448,192,52379,1,0,0:0:0:0:
448,192,52566,128,0,52941:0:0:0:0:
64,192,52754,1,2,0:0:0:0:
320,192,52754,1,0,0:0:0:0:
192,192,52941,1,0,0:0:0:0:
64,192,53129,1,8,0:0:0:0:
192,192,53129,128,0,53504:0:0:0:0:
448,192,53129,1,0,0:0:0:0:
320,192,53504,1,2,0:0:0:0:
448,192,53504,128,0,53879:0:0:0:0:
64,192,53691,1,2,0:0:0:0:
192,192,53691,1,0,0:0:0:0:
64,192,53879,128,8,54254:0:0:0:0:
320,192,53879,1,0,0:0:0:0:
192,192,54066,1,0,0:0:0:0:
448,192,54254,1,2,0:0:0:0:
320,192,54254,1,0,0:0:0:0:
64,192,54629,128,8,55191:0:0:0:0:
192,192,54629,128,0,54816:0:0:0:0:
320,192,54629,1,0,0:0:0:0:
448,192,54816,1,0,0:0:0:0:
192,192,55004,1,2,0:0:0:0:
448,192,55004,128,0,55191:0:0:0:0:
320,192,55191,1,0,0:0:0:0:
64,192,55379,1,8,0:0:0:0:
192,192,55379,1,0,0:0:0:0:
448,192,55379,1,0,0:0:0:0:
192,192,55566,128,0,55941:0:0:0:0:
64,192,55754,1,2,0:0:0:0:
448,192,55754,1,0,0:0:0:0:
320,192,55941,1,0,0:0:0:0:
192,192,56129,1,8,0:0:0:0:
320,192,56129,128,0,56504:0:0:0:0:
448,192,56129,1,0,0:0:0:0:
192,192,56504,1,2,0:0:0:0:
448,192,56504,128,0,56879:0:0:0:0:
64,192,56691,1,2,0:0:0:0:
320,192,56691,1,0,0:0:0:0:
64,192,56879,1,8,0:0:0:0:
192,192,56879,128,0,57254:0:0:0:0:
448,192,57066,1,0,0:0:0:0:
320,192,57254,1,0,0:0:0:0:
64,192,57254,1,2,0:0:0:0:
448,192,57254,1,4,0:0:0:0:
64,192,57629,128,8,58379:0:0:0:0:
192,192,57629,1,0,0:0:0:0:
448,192,57629,1,0,0:0:0:0:
320,192,58004,1,0,0:0:0:0:
448,192,58004,128,2,58379:0:0:0:0:
320,192,58379,128,8,58754:0:0:0:0:
192,192,58379,1,0,0:0:0:0:
64,192,58754,1,2,0:0:0:0:
448,192,58754,128,0,59504:0:0:0:0:
192,192,59129,1,8,0:0:0:0:
64,192,59129,128,0,59504:0:0:0:0:
320,192,59504,128,2,59879:0:0:0:0:
192,192,59691,1,2,0:0:0:0:
64,192,59691,1,0,0:0:0:0:
64,192,59879,128,8,60254:0:0:0:0:
448,192,59879,1,0,0:0:0:0:
320,192,60066,1,0,0:0:0:0:
192,192,60254,1,2,0:0:0:0:
448,192,60254,128,0,61004:0:0:0:0:
64,192,60629,1,8,0:0:0:0:
320,192,60629,1,0,0:0:0:0:
320,192,60816,1,0,0:0:0:0:
64,192,61004,128,2,61379:0:0:0:0:
192,192,61004,1,0,0:0:0:0:
320,192,61191,1,2,0:0:0:0:
192,192,61379,1,8,0:0:0:0:
448,192,61379,1,0,0:0:0:0:
64,192,61566,1,2,0:0:0:0:
320,192,61566,128,4,61941:0:0:0:0:
448,192,61566,1,0,0:0:0:0:
64,192,61941,1,8,0:0:0:0:
192,192,61941,1,0,0:0:0:50:LR_CymbalG.wav
64,192,62129,1,8,0:0:0:0:
320,192,62129,1,0,0:0:0:50:LR_CymbalG.wav
448,192,62129,1,0,0:0:0:0:
192,192,62316,1,2,0:0:0:0:
448,192,62316,1,0,0:0:0:0:
64,192,62504,1,8,0:0:0:0:
320,192,62504,1,0,0:0:0:0:
448,192,62597,1,8,0:0:0:0:
64,192,62691,1,0,0:0:0:0:
192,192,62785,1,8,0:0:0:0:
320,192,62879,1,0,0:0:0:70:Mid Tom.wav
448,192,62879,1,0,0:0:0:0:
192,192,62972,1,0,0:0:0:70:Low Tom.wav
320,192,63066,1,0,0:0:0:70:Low Tom.wav
448,192,63160,1,0,0:0:0:70:Low Tom.wav
64,192,63254,1,2,0:0:0:0:
192,192,63254,1,4,0:0:0:0:
320,192,63254,1,0,0:0:0:0:
192,192,63629,1,8,0:0:0:0:
320,192,63629,128,0,63816:0:0:0:0:
448,192,63629,128,0,64191:0:0:0:0:
64,192,63816,1,0,0:0:0:0:
64,192,64004,128,2,64191:0:0:0:0:
320,192,64004,1,0,0:0:0:0:
192,192,64191,1,0,0:0:0:0:
64,192,64379,1,8,0:0:0:0:
320,192,64379,1,0,0:0:0:0:
448,192,64379,1,0,0:0:0:0:
320,192,64566,128,0,64941:0:0:0:0:
64,192,64754,1,2,0:0:0:0:
448,192,64754,1,0,0:0:0:0:
192,192,64941,1,0,0:0:0:0:
64,192,65129,1,8,0:0:0:0:
192,192,65129,128,0,65504:0:0:0:0:
320,192,65129,1,0,0:0:0:0:
64,192,65504,128,2,65879:0:0:0:0:
448,192,65504,1,0,0:0:0:0:
192,192,65691,1,2,0:0:0:0:
320,192,65691,1,0,0:0:0:0:
320,192,65879,128,8,66254:0:0:0:0:
448,192,65879,1,0,0:0:0:0:
64,192,66066,1,0,0:0:0:0:
64,192,66254,1,2,0:0:0:0:
192,192,66254,1,0,0:0:0:0:
64,192,66629,1,8,0:0:0:0:
192,192,66629,128,0,66816:0:0:0:0:
448,192,66629,128,0,67191:0:0:0:0:
320,192,66816,1,0,0:0:0:0:
64,192,67004,1,2,0:0:0:0:
320,192,67004,128,0,67191:0:0:0:0:
192,192,67191,1,0,0:0:0:0:
64,192,67379,1,8,0:0:0:0:
320,192,67379,1,0,0:0:0:0:
448,192,67379,1,0,0:0:0:0:
64,192,67566,128,0,67941:0:0:0:0:
192,192,67754,1,2,0:0:0:0:
448,192,67754,1,0,0:0:0:0:
320,192,67941,1,0,0:0:0:0:
64,192,68129,1,8,0:0:0:0:
320,192,68129,128,0,68504:0:0:0:0:
448,192,68129,1,0,0:0:0:0:
192,192,68316,1,0,0:0:0:0:
64,192,68504,1,0,0:0:0:70:Mid Tom.wav
448,192,68504,1,0,0:0:0:0:
320,192,68691,1,0,0:0:0:0:
192,192,68785,1,8,0:0:0:0:
64,192,68879,1,8,0:0:0:0:
448,192,68879,1,0,0:0:0:0:
192,192,69066,1,4,0:0:0:0:
448,192,69066,128,0,69441:0:0:0:0:
320,192,69066,128,2,69441:0:0:0:0:
64,192,69441,1,2,0:0:0:0:
192,192,69441,1,0,0:0:0:0:
64,192,69629,1,8,0:0:0:0:
320,192,69629,1,0,0:0:0:0:
448,192,69629,1,0,0:0:0:0:
192,192,69816,128,0,70191:0:0:0:0:
64,192,70004,1,2,0:0:0:0:
448,192,70004,1,0,0:0:0:0:
320,192,70191,1,0,0:0:0:0:
64,192,70379,1,8,0:0:0:0:
192,192,70379,1,0,0:0:0:0:
448,192,70379,1,0,0:0:0:0:
64,192,70566,128,2,70941:0:0:0:0:
320,192,70566,1,4,0:0:0:0:
448,192,70566,128,0,70941:0:0:0:0:
192,192,70941,1,2,0:0:0:0:
320,192,70941,1,0,0:0:0:0:
64,192,71129,1,8,0:0:0:0:
320,192,71129,128,0,71504:0:0:0:0:
64,192,71504,1,2,0:0:0:0:
192,192,71504,1,0,0:0:0:0:
192,192,71691,1,2,0:0:0:0:
320,192,71691,1,0,0:0:0:0:
64,192,71879,1,8,0:0:0:0:
320,192,71879,1,0,0:0:0:50:LR_CymbalG.wav
448,192,71879,1,0,0:0:0:0:
192,192,72066,1,0,0:0:0:0:
320,192,72160,1,0,0:0:0:0:
192,192,72254,128,4,72629:0:0:0:0:
448,192,72254,1,0,0:0:0:0:
64,192,72254,128,2,72629:0:0:0:0:
320,192,72629,1,8,0:0:0:0:
448,192,72629,1,0,0:0:0:0:
192,192,72816,1,0,0:0:0:0:
64,192,73004,1,2,0:0:0:0:
448,192,73004,1,0,0:0:0:0:
192,192,73191,1,2,0:0:0:0:
320,192,73191,1,0,0:0:0:0:
64,192,73379,1,8,0:0:0:0:
320,192,73379,1,0,0:0:0:0:
192,192,73566,1,4,0:0:0:0:
448,192,73566,128,0,73941:0:0:0:0:
64,192,73566,128,2,73941:0:0:0:0:
192,192,73941,1,2,0:0:0:0:
320,192,73941,1,0,0:0:0:0:
192,192,74129,1,8,0:0:0:0:
448,192,74129,1,0,0:0:0:0:
64,192,74316,1,0,0:0:0:0:
192,192,74504,1,2,0:0:0:0:
320,192,74504,1,0,0:0:0:70:Low Tom.wav
64,192,74691,1,8,0:0:0:30:
448,192,74691,1,0,0:0:0:0:
320,192,74785,1,8,0:0:0:50:
64,192,74879,1,8,0:0:0:0:
192,192,74879,1,0,0:0:0:0:
64,192,75066,1,2,0:0:0:0:
320,192,75066,1,4,0:0:0:0:
448,192,75066,1,0,0:0:0:0:
64,192,75441,1,8,0:0:0:0:
192,192,75441,1,0,0:0:0:0:
64,192,75629,1,8,0:0:0:0:
192,192,75629,1,0,0:0:0:0:
64,192,75816,1,8,0:0:0:0:
192,192,75816,1,0,0:0:0:0:
320,192,76004,1,8,0:0:0:0:
448,192,76004,1,0,0:0:0:0:
448,192,76191,1,8,0:0:0:0:
320,192,76191,1,0,0:0:0:0:
448,192,76379,1,8,0:0:0:0:
320,192,76379,1,0,0:0:0:0:
64,192,76566,1,8,0:0:0:0:
448,192,76566,1,0,0:0:0:0:
192,192,76754,1,2,0:0:0:0:
320,192,76754,1,0,0:0:0:0:
64,192,76941,1,2,0:0:0:0:
448,192,76941,1,0,0:0:0:0:
320,192,77035,1,2,0:0:0:0:
64,192,77129,1,8,0:0:0:0:
192,192,77129,1,4,0:0:0:0:
448,192,77129,1,0,0:0:0:0:
192,192,77504,128,0,77879:0:0:0:0:
320,192,77879,128,0,78254:0:0:0:0:
64,192,78254,1,2,0:0:0:0:
192,192,78254,1,4,0:0:0:0:
448,192,78254,1,0,0:0:0:0:
320,192,78629,1,8,0:0:0:0:
448,192,78629,1,0,0:0:0:0:
448,192,78816,1,0,0:0:0:0:
64,192,79004,1,2,0:0:0:0:
320,192,79004,1,0,0:0:0:0:
320,192,79191,1,0,0:0:0:0:
64,192,79379,1,8,0:0:0:0:
192,192,79379,1,0,0:0:0:0:
320,192,79566,1,0,0:0:0:0:
192,192,79660,1,0,0:0:0:0:
64,192,79754,1,2,0:0:0:0:
448,192,79754,1,0,0:0:0:0:
320,192,79941,1,0,0:0:0:0:
64,192,80129,1,8,0:0:0:0:
192,192,80129,1,0,0:0:0:0:
64,192,80316,1,0,0:0:0:0:
192,192,80504,1,2,0:0:0:0:
448,192,80504,1,0,0:0:0:0:
192,192,80691,1,2,0:0:0:0:
64,192,80879,1,8,0:0:0:0:
320,192,80879,1,4,0:0:0:0:
448,192,80879,1,0,0:0:0:0:
64,192,81254,1,2,0:0:0:0:
192,192,81254,1,4,0:0:0:0:
448,192,81254,1,0,0:0:0:0:
320,192,81441,1,0,0:0:0:0:
192,192,81629,1,8,0:0:0:0:
64,192,81629,1,0,0:0:0:0:
64,192,81816,1,2,0:0:0:0:
320,192,81816,1,4,0:0:0:0:
448,192,81816,1,0,0:0:0:0:
192,192,82004,1,0,0:0:0:0:
320,192,82191,1,8,0:0:0:0:
448,192,82191,1,0,0:0:0:0:
64,192,82379,128,2,88754:0:0:0:0:
192,192,82379,128,4,88754:0:0:0:0:
448,192,82379,128,0,88754:0:0:0:0:
