osu file format v14

[General]
AudioFilename: audio.ogg
AudioLeadIn: 0
PreviewTime: 55889
Countdown: 0
SampleSet: Soft
StackLeniency: 0.7
Mode: 3
LetterboxInBreaks: 0
SpecialStyle: 0
WidescreenStoryboard: 1

[Editor]
Bookmarks: 73811
DistanceSpacing: 2.2
BeatDivisor: 4
GridSize: 8
TimelineZoom: 1

[Metadata]
Title:Everyday World (TV Size)
TitleUnicode:エブリデイワールド (TV Size)
Artist:Yukinoshita Yukino (CV: Hayami Saori) & Yuigahama Yui (CV: Touyama Nao)
ArtistUnicode:雪ノ下雪乃(CV: 早見沙織)&由比ヶ浜結衣(CV: 東山奈央)
Creator:Savageeeee
Version:7K Lonely Desperation
Source:やはり俺の青春ラブコメはまちがっている。続
Tags:amiichii mirea raisky757 ed ending yahari ore no seishun love comedy wa machigatteiru zoku jpop j pop j-pop japanese anime GNCA-0387
BeatmapID:4173452
BeatmapSetID:2004882

[Difficulty]
HPDrainRate:8
CircleSize:7
OverallDifficulty:8
ApproachRate:5
SliderMultiplier:1.4
SliderTickRate:1

[Events]
//Background and Video events
0,0,"yukino.jpg",0,0
//Break Periods
//Storyboard Layer 0 (Background)
//Storyboard Layer 1 (Fail)
//Storyboard Layer 2 (Pass)
//Storyboard Layer 3 (Foreground)
//Storyboard Layer 4 (Overlay)
//Storyboard Sound Samples

[TimingPoints]
565,389.61038961039,4,2,1,50,1,0
56668,-100,4,2,1,60,0,1
84720,-100,4,2,1,50,0,0

[HitObjects]
36,192,565,5,2,0:0:0:0:
256,192,565,1,0,0:0:0:0:
475,192,565,128,0,759:0:0:0:0:
329,192,759,128,0,954:0:0:0:0:
109,192,954,1,2,0:0:0:0:
182,192,954,128,0,1149:0:0:0:0:
402,192,954,1,0,0:0:0:0:
36,192,1149,128,0,1539:0:0:0:0:
329,192,1344,1,2,0:0:0:0:
402,192,1344,1,0,0:0:0:0:
475,192,1344,1,0,0:0:0:0:
182,192,1539,128,0,1733:0:0:0:0:
109,192,1733,1,2,0:0:0:0:
256,192,1733,128,0,1928:0:0:0:0:
475,192,1733,1,0,0:0:0:0:
329,192,1928,128,0,2318:0:0:0:0:
36,192,2123,1,2,0:0:0:0:
109,192,2123,1,0,0:0:0:0:
402,192,2123,128,0,2318:0:0:0:0:
182,192,2318,128,0,2707:0:0:0:0:
256,192,2513,128,2,2707:0:0:0:0:
329,192,2513,1,0,0:0:0:0:
475,192,2513,1,0,0:0:0:0:
36,192,2707,128,0,3097:0:0:0:0:
109,192,2902,128,2,3097:0:0:0:0:
182,192,2902,1,0,0:0:0:0:
402,192,2902,1,0,0:0:0:0:
329,192,3097,128,0,3292:0:0:0:0:
109,192,3292,1,2,0:0:0:0:
256,192,3292,128,0,3487:0:0:0:0:
475,192,3292,1,0,0:0:0:0:
182,192,3487,128,0,3681:0:0:0:0:
36,192,3681,128,2,3876:0:0:0:0:
329,192,3681,1,0,0:0:0:0:
475,192,3681,1,0,0:0:0:0:
256,192,3876,128,0,4071:0:0:0:0:
109,192,4071,1,2,0:0:0:0:
329,192,4071,128,0,4266:0:0:0:0:
402,192,4071,1,0,0:0:0:0:
475,192,4266,128,0,4655:0:0:0:0:
36,192,4461,1,2,0:0:0:0:
109,192,4461,1,0,0:0:0:0:
182,192,4461,1,0,0:0:0:0:
329,192,4655,128,0,4850:0:0:0:0:
36,192,4850,1,2,0:0:0:0:
256,192,4850,128,0,5045:0:0:0:0:
402,192,4850,1,0,0:0:0:0:
182,192,5045,128,0,5435:0:0:0:0:
109,192,5240,128,2,5435:0:0:0:0:
402,192,5240,1,0,0:0:0:0:
475,192,5240,1,0,0:0:0:0:
329,192,5435,128,0,5824:0:0:0:0:
36,192,5629,1,2,0:0:0:0:
182,192,5629,1,0,0:0:0:0:
256,192,5629,128,0,5824:0:0:0:0:
475,192,5824,128,0,6214:0:0:0:0:
109,192,6019,1,2,0:0:0:0:
329,192,6019,1,0,0:0:0:0:
402,192,6019,128,0,6214:0:0:0:0:
182,192,6214,128,0,6409:0:0:0:0:
36,192,6409,1,2,0:0:0:0:
256,192,6409,128,0,6603:0:0:0:0:
402,192,6409,1,0,0:0:0:0:
109,192,6603,1,0,0:0:0:0:
329,192,6603,128,0,6798:0:0:0:0:
182,192,6701,1,0,0:0:0:0:
36,192,6798,1,2,0:0:0:0:
402,192,6798,128,0,7967:0:0:0:0:
475,192,6798,128,0,6993:0:0:0:0:
256,192,6993,128,0,7188:0:0:0:0:
109,192,7188,128,2,7383:0:0:0:0:
182,192,7188,1,0,0:0:0:0:
329,192,7188,1,0,0:0:0:0:
36,192,7383,128,0,7772:0:0:0:0:
182,192,7577,1,2,0:0:0:0:
475,192,7577,1,0,0:0:0:0:
109,192,7772,128,0,7967:0:0:0:0:
256,192,7772,128,0,7967:0:0:0:0:
36,192,7967,1,2,0:0:0:0:
182,192,7967,128,0,8162:0:0:0:0:
329,192,7967,128,0,8162:0:0:0:0:
256,192,8162,128,0,8357:0:0:0:0:
475,192,8162,128,0,8552:0:0:0:0:
182,192,8357,1,2,0:0:0:0:
329,192,8357,128,0,9331:0:0:0:0:
402,192,8357,128,0,8552:0:0:0:0:
36,192,8552,128,0,8941:0:0:0:0:
109,192,8746,128,2,8941:0:0:0:0:
402,192,8746,1,0,0:0:0:0:
475,192,8746,1,0,0:0:0:0:
256,192,8941,128,0,9331:0:0:0:0:
109,192,9136,1,2,0:0:0:0:
182,192,9136,128,0,9331:0:0:0:0:
36,192,9136,1,0,0:0:0:0:
475,192,9331,1,0,0:0:0:15:Hat open.wav
402,192,9428,1,0,0:0:0:25:Hat open.wav
36,192,9526,1,2,0:0:0:0:
109,192,9526,1,0,0:0:0:40:Hat open.wav
329,192,9526,1,0,0:0:0:0:
182,192,9623,1,0,0:0:0:0:
256,192,9720,1,0,0:0:0:0:
329,192,9818,1,0,0:0:0:0:
36,192,9915,128,4,10013:0:0:0:0:
109,192,9915,128,8,10013:0:0:0:0:
182,192,9915,128,0,10013:0:0:0:0:
475,192,9915,128,0,10305:0:0:0:0:
109,192,10110,1,2,0:0:0:0:
182,192,10110,1,0,0:0:0:0:
256,192,10110,1,0,0:0:0:0:
182,192,10305,1,2,0:0:0:0:
256,192,10305,1,0,0:0:0:0:
329,192,10305,1,0,0:0:0:0:
36,192,10500,128,8,10889:0:0:0:0:
109,192,10500,128,4,10597:0:0:0:0:
402,192,10500,128,0,10597:0:0:0:0:
475,192,10500,128,0,10597:0:0:0:0:
256,192,10694,1,2,0:0:0:0:
329,192,10694,1,0,0:0:0:0:
402,192,10694,1,0,0:0:0:0:
182,192,10889,1,2,0:0:0:0:
256,192,10889,1,0,0:0:0:0:
329,192,10889,1,0,0:0:0:0:
36,192,11084,128,8,11181:0:0:0:0:
109,192,11084,128,4,11181:0:0:0:0:
402,192,11084,128,0,11474:0:0:0:0:
475,192,11084,128,0,11181:0:0:0:0:
36,192,11279,1,2,0:0:0:0:
109,192,11279,1,0,0:0:0:0:
256,192,11279,1,0,0:0:0:0:
182,192,11474,1,2,0:0:0:0:
256,192,11474,1,0,0:0:0:0:
329,192,11474,1,0,0:0:0:0:
36,192,11668,128,8,11766:0:0:0:0:
109,192,11668,128,4,12058:0:0:0:0:
402,192,11668,128,0,11766:0:0:0:0:
475,192,11668,128,0,11766:0:0:0:0:
256,192,11863,1,2,0:0:0:0:
402,192,11863,1,0,0:0:0:0:
475,192,11863,1,0,0:0:0:0:
182,192,12058,1,2,0:0:0:0:
256,192,12058,1,0,0:0:0:0:
329,192,12058,1,0,0:0:0:0:
36,192,12253,128,8,12350:0:0:0:0:
109,192,12253,128,4,12350:0:0:0:0:
402,192,12253,128,0,12642:0:0:0:0:
475,192,12253,128,0,12350:0:0:0:0:
36,192,12448,1,2,0:0:0:0:
109,192,12448,1,0,0:0:0:0:
182,192,12448,1,0,0:0:0:0:
182,192,12642,1,2,0:0:0:0:
256,192,12642,1,0,0:0:0:0:
329,192,12642,1,0,0:0:0:0:
36,192,12837,128,8,12935:0:0:0:0:
109,192,12837,128,4,12935:0:0:0:0:
402,192,12837,128,0,12935:0:0:0:0:
475,192,12837,128,0,14396:0:0:0:0:
109,192,13227,1,0,0:0:0:30:soft-hitclap.wav
182,192,13227,1,0,0:0:0:0:
109,192,13422,1,0,0:0:0:40:soft-hitclap.wav
256,192,13422,1,0,0:0:0:0:
36,192,13616,1,8,0:0:0:0:
256,192,13616,1,2,0:0:0:0:
329,192,13616,1,0,0:0:0:0:
109,192,13811,1,8,0:0:0:0:
329,192,13811,1,2,0:0:0:0:
402,192,13811,1,0,0:0:0:0:
182,192,14006,1,8,0:0:0:0:
256,192,14006,1,2,0:0:0:0:
402,192,14006,1,0,0:0:0:0:
36,192,14201,1,8,0:0:0:0:
182,192,14201,1,2,0:0:0:0:
329,192,14201,1,0,0:0:0:0:
36,192,14396,128,2,16052:0:0:0:0:
109,192,14396,128,4,16052:0:0:0:0:
256,192,14396,1,0,0:0:0:0:
329,192,14396,1,0,0:0:0:0:
36,192,16149,1,2,0:0:0:0:
256,192,16149,1,4,0:0:0:0:
402,192,16149,1,0,0:0:0:0:
475,192,16149,1,0,0:0:0:0:
402,192,16344,1,0,0:0:0:0:
109,192,16539,1,2,0:0:0:0:
256,192,16539,1,0,0:0:0:0:
329,192,16539,1,0,0:0:0:0:
109,192,16733,1,0,0:0:0:0:
36,192,16928,1,2,0:0:0:0:
182,192,16928,1,0,0:0:0:0:
475,192,16928,1,0,0:0:0:0:
475,192,17123,1,0,0:0:0:0:
109,192,17318,1,2,0:0:0:0:
329,192,17318,1,0,0:0:0:0:
402,192,17318,1,0,0:0:0:0:
329,192,17513,1,0,0:0:0:0:
36,192,17707,1,2,0:0:0:0:
182,192,17707,1,0,0:0:0:0:
256,192,17707,1,0,0:0:0:0:
36,192,17902,1,0,0:0:0:0:
182,192,18097,1,2,0:0:0:0:
402,192,18097,1,0,0:0:0:0:
475,192,18097,1,0,0:0:0:0:
402,192,18292,1,0,0:0:0:0:
36,192,18487,1,2,0:0:0:0:
109,192,18487,1,0,0:0:0:0:
329,192,18487,1,0,0:0:0:0:
109,192,18681,1,0,0:0:0:0:
182,192,18876,1,2,0:0:0:0:
256,192,18876,1,0,0:0:0:0:
475,192,18876,1,0,0:0:0:0:
329,192,18974,1,0,0:0:0:0:
402,192,19071,1,0,0:0:0:0:
36,192,19266,1,2,0:0:0:0:
109,192,19266,1,0,0:0:0:0:
182,192,19266,1,0,0:0:0:0:
475,192,19266,1,0,0:0:0:0:
109,192,19461,1,0,0:0:0:0:
256,192,19655,1,2,0:0:0:0:
329,192,19655,1,0,0:0:0:0:
402,192,19655,1,0,0:0:0:0:
329,192,19850,1,0,0:0:0:0:
36,192,20045,1,2,0:0:0:0:
182,192,20045,1,0,0:0:0:0:
475,192,20045,1,0,0:0:0:0:
182,192,20240,1,0,0:0:0:0:
109,192,20435,1,2,0:0:0:0:
329,192,20435,1,0,0:0:0:0:
402,192,20435,1,0,0:0:0:0:
402,192,20629,1,0,0:0:0:0:
36,192,20824,1,2,0:0:0:0:
182,192,20824,1,0,0:0:0:0:
256,192,20824,1,0,0:0:0:0:
256,192,21019,1,0,0:0:0:0:
109,192,21214,1,2,0:0:0:0:
329,192,21214,1,0,0:0:0:0:
475,192,21214,1,0,0:0:0:0:
109,192,21409,1,0,0:0:0:0:
182,192,21603,1,2,0:0:0:0:
402,192,21603,1,0,0:0:0:0:
475,192,21603,1,0,0:0:0:0:
402,192,21798,1,0,0:0:0:0:
36,192,21993,1,2,0:0:0:0:
256,192,21993,1,0,0:0:0:0:
329,192,21993,1,0,0:0:0:0:
182,192,22090,1,0,0:0:0:0:
109,192,22188,1,0,0:0:0:0:
36,192,22383,128,2,22577:0:0:0:0:
329,192,22383,1,0,0:0:0:0:
402,192,22383,1,0,0:0:0:0:
475,192,22383,1,0,0:0:0:0:
402,192,22577,1,0,0:0:0:0:
109,192,22772,1,2,0:0:0:0:
182,192,22772,1,0,0:0:0:0:
256,192,22772,1,0,0:0:0:0:
182,192,22967,128,0,23162:0:0:0:0:
36,192,23162,1,2,0:0:0:0:
329,192,23162,1,0,0:0:0:0:
475,192,23162,1,0,0:0:0:0:
329,192,23357,1,0,0:0:0:0:
36,192,23552,1,2,0:0:0:0:
109,192,23552,1,0,0:0:0:0:
402,192,23552,1,0,0:0:0:0:
182,192,23746,1,0,0:0:0:0:
109,192,23941,1,2,0:0:0:0:
256,192,23941,1,0,0:0:0:0:
402,192,23941,1,0,0:0:0:0:
475,192,23941,128,0,24136:0:0:0:0:
256,192,24136,1,0,0:0:0:0:
36,192,24331,1,2,0:0:0:0:
109,192,24331,1,0,0:0:0:0:
329,192,24331,1,0,0:0:0:0:
36,192,24526,128,0,24720:0:0:0:0:
256,192,24720,1,2,0:0:0:0:
402,192,24720,1,0,0:0:0:0:
475,192,24720,1,0,0:0:0:0:
402,192,24915,1,0,0:0:0:0:
36,192,25110,1,2,0:0:0:0:
109,192,25110,1,0,0:0:0:0:
329,192,25110,1,0,0:0:0:0:
182,192,25207,1,0,0:0:0:0:
256,192,25305,1,0,0:0:0:0:
36,192,25500,1,2,0:0:0:0:
182,192,25500,128,0,25694:0:0:0:0:
402,192,25500,1,0,0:0:0:0:
475,192,25500,1,0,0:0:0:0:
475,192,25694,1,0,0:0:0:0:
109,192,25889,1,2,0:0:0:0:
256,192,25889,1,0,0:0:0:0:
329,192,25889,1,0,0:0:0:0:
329,192,26084,128,0,26279:0:0:0:0:
36,192,26279,1,2,0:0:0:0:
182,192,26279,1,0,0:0:0:0:
402,192,26279,1,0,0:0:0:0:
182,192,26474,1,0,0:0:0:0:
256,192,26668,1,2,0:0:0:0:
109,192,26668,1,0,0:0:0:0:
475,192,26668,1,0,0:0:0:0:
36,192,26863,1,0,0:0:0:0:
109,192,26961,1,0,0:0:0:0:
256,192,27058,1,2,0:0:0:0:
329,192,27058,1,0,0:0:0:0:
402,192,27058,1,0,0:0:0:0:
475,192,27058,128,0,27837:0:0:0:0:
182,192,27253,128,0,27448:0:0:0:0:
109,192,27448,128,2,27642:0:0:0:0:
329,192,27448,1,0,0:0:0:0:
36,192,27642,128,0,27837:0:0:0:0:
109,192,27837,1,2,0:0:0:0:
182,192,27837,128,0,28032:0:0:0:0:
256,192,27837,128,0,28616:0:0:0:0:
402,192,27837,1,0,0:0:0:0:
329,192,28032,128,0,28227:0:0:0:0:
36,192,28227,1,2,0:0:0:0:
109,192,28227,1,8,0:0:0:0:
402,192,28227,128,0,28422:0:0:0:0:
182,192,28422,1,2,0:0:0:0:
475,192,28422,128,0,28616:0:0:0:0:
329,192,28519,1,2,0:0:0:0:
36,192,28616,128,2,29396:0:0:0:0:
109,192,28616,1,4,0:0:0:0:
182,192,28616,1,0,0:0:0:0:
402,192,28616,1,0,0:0:0:0:
256,192,29006,1,2,0:0:0:0:
329,192,29006,128,0,29103:0:0:0:0:
475,192,29006,1,0,0:0:0:0:
182,192,29201,128,0,29396:0:0:0:0:
109,192,29396,1,2,0:0:0:0:
402,192,29396,128,0,29980:0:0:0:0:
475,192,29396,1,0,0:0:0:0:
36,192,29785,1,2,0:0:0:0:
109,192,29785,1,0,0:0:0:0:
329,192,29785,128,0,29980:0:0:0:0:
182,192,29980,128,0,30565:0:0:0:0:
329,192,30175,128,2,30272:0:0:0:0:
36,192,30175,1,0,0:0:0:0:
475,192,30175,1,0,0:0:0:0:
109,192,30370,128,0,30467:0:0:0:0:
256,192,30565,1,2,0:0:0:0:
402,192,30565,1,0,0:0:0:0:
475,192,30565,128,0,30662:0:0:0:0:
329,192,30759,128,0,30857:0:0:0:0:
36,192,30954,128,2,31344:0:0:0:0:
182,192,30954,1,0,0:0:0:0:
475,192,30954,1,0,0:0:0:0:
109,192,31149,128,0,31344:0:0:0:0:
256,192,31344,128,8,31539:0:0:0:0:
329,192,31344,1,0,0:0:0:0:
402,192,31344,1,0,0:0:0:0:
182,192,31539,1,0,0:0:0:0:
109,192,31636,1,0,0:0:0:0:
36,192,31733,1,2,0:0:0:0:
402,192,31733,1,0,0:0:0:0:
475,192,31733,128,0,32318:0:0:0:0:
329,192,31928,1,0,0:0:0:0:
36,192,32123,1,2,0:0:0:0:
109,192,32123,1,0,0:0:0:0:
182,192,32123,1,0,0:0:0:0:
329,192,32318,128,0,32415:0:0:0:0:
109,192,32513,1,2,0:0:0:0:
182,192,32513,128,0,33097:0:0:0:0:
475,192,32513,1,0,0:0:0:0:
329,192,32707,1,0,0:0:0:0:
256,192,32902,128,2,33097:0:0:0:0:
402,192,32902,1,0,0:0:0:0:
475,192,32902,1,0,0:0:0:0:
36,192,33097,128,0,34071:0:0:0:0:
109,192,33292,1,2,0:0:0:0:
182,192,33292,128,0,33389:0:0:0:0:
402,192,33292,1,0,0:0:0:0:
329,192,33487,128,0,33584:0:0:0:0:
109,192,33681,128,2,33779:0:0:0:0:
182,192,33681,1,0,0:0:0:0:
475,192,33681,1,0,0:0:0:0:
329,192,33876,128,0,33974:0:0:0:0:
109,192,34071,1,2,0:0:0:0:
182,192,34071,1,0,0:0:0:0:
475,192,34071,1,0,0:0:0:0:
402,192,34266,128,0,34461:0:0:0:0:
109,192,34461,1,8,0:0:0:0:
256,192,34461,1,0,0:0:0:0:
329,192,34461,1,0,0:0:0:0:
36,192,34655,128,0,34850:0:0:0:0:
182,192,34753,1,0,0:0:0:0:
329,192,34850,1,2,0:0:0:0:
402,192,34850,1,0,0:0:0:0:
475,192,34850,128,0,35435:0:0:0:0:
256,192,35045,1,0,0:0:0:0:
36,192,35240,1,2,0:0:0:0:
109,192,35240,1,0,0:0:0:0:
182,192,35240,1,0,0:0:0:0:
329,192,35435,128,0,35532:0:0:0:0:
36,192,35629,128,2,36019:0:0:0:0:
109,192,35629,1,0,0:0:0:0:
402,192,35629,1,0,0:0:0:0:
256,192,35824,128,0,36019:0:0:0:0:
329,192,36019,128,2,36214:0:0:0:0:
182,192,36019,1,0,0:0:0:0:
475,192,36019,1,0,0:0:0:0:
402,192,36214,128,0,36409:0:0:0:0:
36,192,36409,1,2,0:0:0:0:
109,192,36409,1,0,0:0:0:0:
475,192,36409,128,0,36993:0:0:0:0:
256,192,36603,1,0,0:0:0:0:
36,192,36798,1,2,0:0:0:0:
109,192,36798,1,0,0:0:0:0:
329,192,36798,1,0,0:0:0:0:
182,192,36993,128,0,37090:0:0:0:0:
329,192,37188,128,2,37577:0:0:0:0:
402,192,37188,1,0,0:0:0:0:
475,192,37188,1,0,0:0:0:0:
256,192,37383,128,0,37577:0:0:0:0:
36,192,37577,1,8,0:0:0:0:
109,192,37577,128,0,37967:0:0:0:0:
182,192,37577,1,0,0:0:0:0:
256,192,37772,1,0,0:0:0:0:
329,192,37870,1,0,0:0:0:0:
36,192,37967,1,2,0:0:0:0:
402,192,37967,1,0,0:0:0:0:
475,192,37967,128,0,38357:0:0:0:0:
109,192,38357,1,2,0:0:0:0:
182,192,38357,128,0,38552:0:0:0:0:
329,192,38357,1,0,0:0:0:0:
256,192,38552,128,0,38649:0:0:0:0:
109,192,38746,1,2,0:0:0:0:
182,192,38746,128,0,38941:0:0:0:0:
402,192,38746,1,0,0:0:0:0:
329,192,38941,1,0,0:0:0:0:
256,192,39136,1,2,0:0:0:0:
402,192,39136,128,0,39331:0:0:0:0:
475,192,39136,1,0,0:0:0:0:
36,192,39331,128,0,39526:0:0:0:0:
109,192,39526,1,2,0:0:0:0:
182,192,39526,1,0,0:0:0:0:
256,192,39526,1,0,0:0:0:0:
475,192,39526,128,0,40305:0:0:0:0:
329,192,39720,1,0,0:0:0:0:
36,192,39915,1,2,0:0:0:0:
109,192,39915,1,0,0:0:0:0:
402,192,39915,1,0,0:0:0:0:
182,192,40110,1,0,0:0:0:0:
36,192,40305,1,8,0:0:0:0:
329,192,40305,1,0,0:0:0:0:
256,192,40305,1,0,0:0:0:0:
182,192,40500,1,0,0:0:0:50:Tom1.wav
402,192,40500,1,0,0:0:0:0:
182,192,40694,1,0,0:0:0:50:Tom2.wav
329,192,40694,1,0,0:0:0:0:
109,192,40889,1,0,0:0:0:50:Tom3.wav
329,192,40889,1,0,0:0:0:0:
36,192,41084,128,2,42448:0:0:0:0:
109,192,41084,1,4,0:0:0:0:
402,192,41084,1,0,0:0:0:0:
475,192,41084,1,0,0:0:0:0:
256,192,41279,128,0,41376:0:0:0:0:
329,192,41474,128,0,41571:0:0:0:0:
402,192,41668,128,0,41766:0:0:0:0:
109,192,42058,128,0,42155:0:0:0:0:
182,192,42253,128,0,42350:0:0:0:0:
256,192,42448,128,2,42545:0:0:0:0:
475,192,42448,1,0,0:0:0:0:
329,192,42642,1,2,0:0:0:0:
402,192,42642,1,0,0:0:0:0:
475,192,42642,128,0,44006:0:0:0:0:
182,192,42837,128,0,42935:0:0:0:0:
109,192,43032,128,0,43129:0:0:0:0:
36,192,43227,128,0,43324:0:0:0:40:Hat open.wav
256,192,43616,1,0,0:0:0:0:
329,192,43811,1,0,0:0:0:0:
402,192,44006,1,0,0:0:0:0:
36,192,44201,1,2,0:0:0:0:
109,192,44201,128,0,45565:0:0:0:0:
182,192,44201,1,0,0:0:0:0:
475,192,44396,128,0,44493:0:0:0:0:
402,192,44590,128,0,44688:0:0:0:0:
329,192,44785,128,0,44883:0:0:0:40:Hat open.wav
256,192,45175,128,0,45272:0:0:0:0:
182,192,45370,128,0,45467:0:0:0:0:
36,192,45565,128,2,45662:0:0:0:0:
402,192,45565,1,0,0:0:0:0:
329,192,45759,1,2,0:0:0:0:
402,192,45759,128,0,46733:0:0:0:0:
475,192,45759,1,0,0:0:0:0:
182,192,45954,128,0,46052:0:0:0:0:
256,192,46149,128,0,46246:0:0:0:0:
109,192,46344,1,2,0:0:0:0:
329,192,46344,128,0,46441:0:0:0:40:Hat open.wav
182,192,46539,128,0,46636:0:0:0:0:
36,192,46733,1,8,0:0:0:0:
329,192,46733,1,0,0:0:0:0:
475,192,46733,128,0,46831:0:0:0:0:
36,192,46928,1,0,0:0:0:50:Tom1.wav
182,192,46928,1,0,0:0:0:0:
402,192,46928,128,0,47026:0:0:0:0:
182,192,47123,1,0,0:0:0:50:Tom2.wav
329,192,47123,128,0,47220:0:0:0:0:
36,192,47318,1,8,0:0:0:0:
109,192,47318,1,4,0:0:0:0:
402,192,47318,1,0,0:0:0:0:
475,192,47318,1,0,0:0:0:0:
36,192,47513,1,2,0:0:0:0:
109,192,47513,1,0,0:0:0:0:
182,192,47513,1,0,0:0:0:0:
36,192,47707,1,2,0:0:0:0:
109,192,47707,1,0,0:0:0:0:
256,192,47707,1,0,0:0:0:0:
256,192,47902,1,8,0:0:0:0:
329,192,47902,1,0,0:0:0:40:Hat open.wav
402,192,47902,1,0,0:0:0:0:
475,192,47902,1,0,0:0:0:0:
182,192,48097,1,2,0:0:0:0:
402,192,48097,1,0,0:0:0:0:
475,192,48097,1,0,0:0:0:0:
109,192,48292,1,2,0:0:0:0:
402,192,48292,1,0,0:0:0:0:
475,192,48292,1,0,0:0:0:0:
36,192,48487,1,8,0:0:0:0:
109,192,48487,1,4,0:0:0:0:
256,192,48487,1,0,0:0:0:0:
329,192,48487,1,0,0:0:0:0:
36,192,48681,1,2,0:0:0:0:
182,192,48681,1,0,0:0:0:0:
256,192,48681,1,0,0:0:0:0:
109,192,48876,1,8,0:0:0:0:
329,192,48876,1,4,0:0:0:0:
402,192,48876,1,0,0:0:0:0:
475,192,48876,1,0,0:0:0:0:
256,192,49071,1,2,0:0:0:0:
402,192,49071,1,0,0:0:0:0:
475,192,49071,1,0,0:0:0:0:
182,192,49266,1,2,0:0:0:0:
402,192,49266,1,0,0:0:0:0:
475,192,49266,1,0,0:0:0:0:
36,192,49461,1,8,0:0:0:0:
109,192,49461,1,0,0:0:0:40:Hat open.wav
182,192,49461,1,0,0:0:0:0:
329,192,49461,1,0,0:0:0:0:
36,192,49655,1,2,0:0:0:0:
109,192,49655,1,0,0:0:0:0:
256,192,49655,1,0,0:0:0:0:
36,192,49850,1,2,0:0:0:0:
109,192,49850,1,0,0:0:0:0:
402,192,49850,1,0,0:0:0:0:
182,192,50045,1,8,0:0:0:0:
256,192,50045,1,4,0:0:0:0:
402,192,50045,1,0,0:0:0:0:
475,192,50045,1,0,0:0:0:0:
36,192,50240,1,8,0:0:0:0:
109,192,50240,1,0,0:0:0:0:
182,192,50240,1,0,0:0:0:0:
256,192,50337,1,8,0:0:0:0:
36,192,50435,128,2,51993:0:0:0:0:
329,192,50435,1,4,0:0:0:0:
402,192,50435,1,0,0:0:0:0:
475,192,50435,1,0,0:0:0:0:
182,192,50824,1,8,0:0:0:0:
256,192,50824,1,0,0:0:0:0:
402,192,50824,1,0,0:0:0:0:
182,192,51019,1,0,0:0:0:0:
329,192,51019,1,0,0:0:0:0:
256,192,51214,1,2,0:0:0:0:
402,192,51214,1,0,0:0:0:0:
475,192,51214,1,0,0:0:0:0:
109,192,51409,1,2,0:0:0:0:
256,192,51409,1,0,0:0:0:0:
329,192,51409,1,0,0:0:0:0:
109,192,51603,1,8,0:0:0:0:
182,192,51603,1,0,0:0:0:0:
402,192,51603,1,0,0:0:0:0:
329,192,51798,1,0,0:0:0:0:
109,192,51993,1,2,0:0:0:0:
182,192,51993,1,0,0:0:0:0:
402,192,51993,1,0,0:0:0:0:
475,192,51993,128,0,53552:0:0:0:0:
256,192,52188,1,0,0:0:0:0:
36,192,52383,128,8,52772:0:0:0:0:
256,192,52383,1,0,0:0:0:0:
329,192,52383,1,0,0:0:0:0:
182,192,52577,1,0,0:0:0:0:
109,192,52772,128,2,53162:0:0:0:0:
329,192,52772,1,0,0:0:0:0:
402,192,52772,1,0,0:0:0:0:
329,192,52967,1,2,0:0:0:0:
36,192,53162,1,8,0:0:0:0:
182,192,53162,128,0,53552:0:0:0:0:
256,192,53162,1,0,0:0:0:0:
329,192,53357,1,0,0:0:0:50:Tom2.wav
402,192,53357,1,0,0:0:0:0:
256,192,53454,1,0,0:0:0:50:Tom2.wav
36,192,53552,1,2,0:0:0:0:
109,192,53552,1,4,0:0:0:0:
329,192,53552,1,0,0:0:0:0:
402,192,53552,1,0,0:0:0:0:
36,192,53941,1,0,0:0:0:30:soft-hitclap.wav
256,192,53941,1,0,0:0:0:0:
475,192,53941,1,0,0:0:0:0:
109,192,54136,1,0,0:0:0:40:soft-hitclap.wav
256,192,54136,1,0,0:0:0:0:
402,192,54136,1,0,0:0:0:0:
109,192,54331,1,8,0:0:0:0:
182,192,54331,1,2,0:0:0:0:
329,192,54331,1,0,0:0:0:0:
402,192,54331,1,0,0:0:0:0:
36,192,54526,1,8,0:0:0:0:
182,192,54526,1,2,0:0:0:0:
256,192,54526,1,0,0:0:0:0:
475,192,54526,1,0,0:0:0:0:
109,192,54720,1,8,0:0:0:0:
329,192,54720,1,2,0:0:0:0:
402,192,54720,1,0,0:0:0:0:
256,192,54720,1,0,0:0:0:0:
36,192,54915,1,0,0:0:0:50:Tom2.wav
182,192,54915,1,0,0:0:0:0:
475,192,54915,1,0,0:0:0:0:
329,192,54915,1,0,0:0:0:0:
36,192,55110,128,2,55500:0:0:0:0:
109,192,55110,1,4,0:0:0:0:
402,192,55110,1,0,0:0:0:0:
475,192,55110,128,0,55500:0:0:0:0:
109,192,55500,128,2,55889:0:0:0:0:
256,192,55500,1,0,0:0:0:0:
402,192,55500,128,0,55889:0:0:0:0:
182,192,55889,128,2,56279:0:0:0:0:
256,192,55889,1,8,0:0:0:0:
329,192,55889,128,0,56279:0:0:0:0:
36,192,56279,1,2,0:0:0:0:
402,192,56279,1,8,0:0:0:0:
475,192,56279,1,0,0:0:0:0:
256,192,56376,1,0,0:0:0:50:Tom1.wav
329,192,56376,1,0,0:0:0:0:
109,192,56474,1,0,0:0:0:50:Tom2.wav
182,192,56474,1,0,0:0:0:0:
402,192,56571,1,0,0:0:0:50:Tom3.wav
475,192,56571,1,0,0:0:0:0:
36,192,56668,128,2,57058:0:0:0:0:
109,192,56668,1,4,0:0:0:0:
256,192,56668,1,0,0:0:0:0:
329,192,56668,1,0,0:0:0:0:
329,192,57058,1,8,0:0:0:0:
402,192,57058,128,0,57448:0:0:0:0:
475,192,57058,1,0,0:0:0:0:
256,192,57253,1,0,0:0:0:0:
182,192,57350,1,8,0:0:0:0:
36,192,57448,1,2,0:0:0:0:
109,192,57448,128,0,58032:0:0:0:0:
475,192,57448,1,0,0:0:0:0:
256,192,57642,1,2,0:0:0:0:
329,192,57642,1,0,0:0:0:0:
475,192,57642,1,0,0:0:0:0:
182,192,57837,128,8,58032:0:0:0:0:
256,192,57837,1,0,0:0:0:0:
402,192,57837,1,0,0:0:0:0:
329,192,58032,128,0,58616:0:0:0:0:
36,192,58227,1,2,0:0:0:0:
109,192,58227,1,0,0:0:0:0:
475,192,58227,1,0,0:0:0:0:
256,192,58422,1,0,0:0:0:0:
36,192,58616,128,8,59006:0:0:0:0:
109,192,58616,128,0,59006:0:0:0:0:
402,192,58616,1,0,0:0:0:0:
182,192,58811,1,0,0:0:0:0:
256,192,58909,1,8,0:0:0:0:
329,192,59006,1,2,0:0:0:0:
402,192,59006,128,0,59396:0:0:0:0:
475,192,59006,128,0,59396:0:0:0:0:
109,192,59201,1,2,0:0:0:0:
182,192,59201,1,0,0:0:0:0:
329,192,59201,1,0,0:0:0:0:
36,192,59396,1,8,0:0:0:0:
182,192,59396,128,0,59785:0:0:0:0:
256,192,59396,128,0,59785:0:0:0:0:
329,192,59590,1,0,0:0:0:0:
402,192,59688,1,0,0:0:0:0:
36,192,59785,128,2,61344:0:0:0:0:
109,192,59785,128,0,61344:0:0:0:0:
475,192,59785,1,0,0:0:0:0:
182,192,59980,1,0,0:0:0:0:
329,192,60175,1,8,0:0:0:0:
402,192,60175,1,0,0:0:0:0:
475,192,60175,1,0,0:0:0:0:
256,192,60370,1,0,0:0:0:0:
329,192,60467,1,8,0:0:0:0:
182,192,60565,1,2,0:0:0:0:
402,192,60565,1,0,0:0:0:0:
475,192,60565,1,0,0:0:0:0:
256,192,60759,1,2,0:0:0:0:
329,192,60759,1,0,0:0:0:0:
402,192,60759,1,0,0:0:0:0:
182,192,60954,1,8,0:0:0:0:
256,192,60954,1,0,0:0:0:0:
475,192,60954,1,0,0:0:0:0:
329,192,61149,1,0,0:0:0:0:
182,192,61344,1,2,0:0:0:0:
402,192,61344,128,0,61539:0:0:0:0:
475,192,61344,128,0,61733:0:0:0:0:
256,192,61539,1,0,0:0:0:0:
36,192,61733,128,8,62123:0:0:0:0:
109,192,61733,128,0,61928:0:0:0:0:
329,192,61733,1,0,0:0:0:0:
182,192,61928,1,0,0:0:0:0:
256,192,62026,1,8,0:0:0:0:
329,192,62123,128,2,62513:0:0:0:0:
402,192,62123,128,0,62318:0:0:0:0:
475,192,62123,1,0,0:0:0:0:
36,192,62318,1,2,0:0:0:0:
109,192,62318,1,0,0:0:0:0:
256,192,62318,1,0,0:0:0:0:
109,192,62513,128,8,62707:0:0:0:0:
182,192,62513,128,0,62902:0:0:0:0:
475,192,62513,1,0,0:0:0:0:
256,192,62707,1,8,0:0:0:0:
329,192,62805,1,8,0:0:0:0:
36,192,62902,1,2,0:0:0:0:
109,192,62902,1,4,0:0:0:0:
402,192,62902,1,0,0:0:0:0:
475,192,62902,128,0,63487:0:0:0:0:
256,192,63097,1,0,0:0:0:0:
109,192,63292,1,8,0:0:0:0:
329,192,63292,1,0,0:0:0:0:
402,192,63292,128,0,63487:0:0:0:0:
36,192,63487,128,0,63876:0:0:0:0:
182,192,63584,1,8,0:0:0:0:
329,192,63681,1,2,0:0:0:0:
402,192,63681,1,0,0:0:0:0:
475,192,63681,1,0,0:0:0:0:
182,192,63876,128,2,64266:0:0:0:0:
256,192,63876,1,0,0:0:0:0:
402,192,63876,1,0,0:0:0:0:
36,192,64071,1,8,0:0:0:0:
109,192,64071,1,0,0:0:0:0:
329,192,64071,1,0,0:0:0:0:
475,192,64266,128,0,65045:0:0:0:0:
36,192,64461,1,2,0:0:0:0:
109,192,64461,1,0,0:0:0:0:
402,192,64461,1,0,0:0:0:0:
182,192,64655,1,0,0:0:0:0:
256,192,64850,1,8,0:0:0:0:
329,192,64850,1,0,0:0:0:0:
402,192,64850,128,0,65045:0:0:0:0:
109,192,65045,128,0,65435:0:0:0:0:
182,192,65142,1,8,0:0:0:0:
329,192,65240,1,2,0:0:0:0:
475,192,65240,1,0,0:0:0:0:
36,192,65435,1,2,0:0:0:0:
402,192,65435,128,0,66019:0:0:0:0:
475,192,65435,1,0,0:0:0:0:
109,192,65629,1,8,0:0:0:0:
182,192,65629,1,0,0:0:0:0:
256,192,65629,1,0,0:0:0:0:
329,192,65824,128,0,66019:0:0:0:0:
36,192,66019,128,2,66798:0:0:0:0:
109,192,66019,128,0,66798:0:0:0:0:
182,192,66214,1,0,0:0:0:0:
329,192,66409,1,8,0:0:0:0:
402,192,66409,1,0,0:0:0:0:
475,192,66409,1,0,0:0:0:0:
256,192,66603,1,0,0:0:0:0:
329,192,66701,1,8,0:0:0:0:
182,192,66798,1,2,0:0:0:0:
402,192,66798,1,0,0:0:0:0:
475,192,66798,1,0,0:0:0:0:
256,192,66993,1,2,0:0:0:0:
329,192,66993,128,0,67577:0:0:0:0:
475,192,66993,1,0,0:0:0:0:
36,192,67188,1,8,0:0:0:0:
109,192,67188,1,0,0:0:0:0:
182,192,67188,1,0,0:0:0:0:
256,192,67383,128,0,67577:0:0:0:0:
36,192,67577,1,2,0:0:0:0:
402,192,67577,1,0,0:0:0:0:
475,192,67577,1,0,0:0:0:0:
109,192,67772,1,8,0:0:0:0:
182,192,67772,1,0,0:0:0:0:
402,192,67772,1,0,0:0:0:0:
109,192,67967,1,8,0:0:0:0:
256,192,67967,1,0,0:0:0:0:
329,192,67967,1,0,0:0:0:0:
36,192,68162,1,2,0:0:0:0:
182,192,68162,1,0,0:0:0:0:
475,192,68162,1,0,0:0:0:0:
109,192,68357,1,2,0:0:0:0:
402,192,68357,1,0,0:0:0:0:
256,192,68357,1,0,0:0:0:0:
256,192,68552,1,8,0:0:0:0:
36,192,68552,1,0,0:0:0:0:
475,192,68552,1,0,0:0:0:0:
182,192,68649,1,8,0:0:0:0:
329,192,68649,1,0,0:0:0:0:
402,192,68746,1,8,0:0:0:0:
109,192,68746,1,0,0:0:0:0:
36,192,68844,1,8,0:0:0:0:
475,192,68844,1,0,0:0:0:0:
329,192,68941,1,8,0:0:0:0:
256,192,68941,1,0,0:0:0:0:
182,192,69039,1,8,0:0:0:0:
109,192,69039,1,0,0:0:0:0:
36,192,69136,1,2,0:0:0:0:
475,192,69136,1,4,0:0:0:0:
402,192,69136,1,0,0:0:0:0:
329,192,69136,128,0,69526:0:0:0:0:
36,192,69526,1,8,0:0:0:0:
109,192,69526,128,4,69915:0:0:0:0:
182,192,69526,1,0,0:0:0:0:
256,192,69720,1,0,0:0:0:0:
329,192,69818,1,8,0:0:0:0:
36,192,69915,1,2,0:0:0:0:
402,192,69915,128,0,70500:0:0:0:0:
475,192,69915,1,0,0:0:0:0:
36,192,70110,1,2,0:0:0:0:
182,192,70110,1,0,0:0:0:0:
256,192,70110,1,0,0:0:0:0:
109,192,70305,1,8,0:0:0:0:
256,192,70305,1,0,0:0:0:0:
329,192,70305,128,0,70500:0:0:0:0:
182,192,70500,128,0,71084:0:0:0:0:
36,192,70694,1,2,0:0:0:0:
402,192,70694,1,0,0:0:0:0:
475,192,70694,1,0,0:0:0:0:
256,192,70889,1,0,0:0:0:0:
109,192,71084,1,8,0:0:0:0:
402,192,71084,128,0,71474:0:0:0:0:
475,192,71084,128,0,71474:0:0:0:0:
329,192,71279,1,0,0:0:0:0:
256,192,71376,1,8,0:0:0:0:
36,192,71474,128,2,71863:0:0:0:0:
109,192,71474,128,0,71863:0:0:0:0:
182,192,71474,1,0,0:0:0:0:
182,192,71668,1,2,0:0:0:0:
329,192,71668,1,0,0:0:0:0:
402,192,71668,1,0,0:0:0:0:
256,192,71863,128,8,72253:0:0:0:0:
329,192,71863,128,0,72253:0:0:0:0:
475,192,71863,1,0,0:0:0:0:
182,192,72058,1,8,0:0:0:0:
109,192,72155,1,8,0:0:0:0:
36,192,72253,1,2,0:0:0:0:
402,192,72253,128,0,72642:0:0:0:0:
475,192,72253,128,0,72642:0:0:0:0:
256,192,72448,1,0,0:0:0:0:
36,192,72642,128,8,72837:0:0:0:0:
109,192,72642,128,0,72837:0:0:0:0:
182,192,72642,1,0,0:0:0:0:
256,192,72837,128,0,73616:0:0:0:0:
329,192,72837,128,0,73616:0:0:0:0:
36,192,73032,1,2,0:0:0:0:
402,192,73032,1,0,0:0:0:0:
475,192,73032,1,0,0:0:0:0:
109,192,73227,1,2,0:0:0:0:
182,192,73227,1,0,0:0:0:0:
475,192,73227,1,0,0:0:0:0:
36,192,73422,1,8,0:0:0:0:
109,192,73422,1,0,0:0:0:0:
402,192,73422,1,0,0:0:0:0:
182,192,73616,1,0,0:0:0:0:
36,192,73811,128,2,74201:0:0:0:0:
329,192,73811,1,0,0:0:0:0:
402,192,73811,1,0,0:0:0:0:
475,192,73811,1,0,0:0:0:0:
109,192,74006,1,2,0:0:0:0:
256,192,74006,1,0,0:0:0:0:
402,192,74006,1,0,0:0:0:0:
109,192,74201,1,8,0:0:0:0:
182,192,74201,128,4,74590:0:0:0:0:
329,192,74201,1,0,0:0:0:0:
475,192,74201,1,0,0:0:0:0:
256,192,74396,1,0,0:0:0:50:Tom2.wav
402,192,74493,1,0,0:0:0:50:Tom2.wav
36,192,74590,1,0,0:0:0:50:Tom1.wav
329,192,74590,128,0,74980:0:0:0:0:
36,192,74785,1,0,0:0:0:50:Tom2.wav
109,192,74785,1,0,0:0:0:0:
182,192,74980,1,0,0:0:0:50:Tom3.wav
475,192,74980,128,0,75370:0:0:0:0:
182,192,75175,1,0,0:0:0:50:Tom3.wav
256,192,75175,1,0,0:0:0:0:
36,192,75370,128,2,76733:0:0:0:0:
109,192,75370,1,4,0:0:0:0:
402,192,75370,1,0,0:0:0:0:
329,192,75370,1,0,0:0:0:0:
402,192,75759,128,0,76149:0:0:0:0:
109,192,75954,1,2,0:0:0:0:
182,192,75954,1,0,0:0:0:0:
182,192,76149,1,8,0:0:0:0:
256,192,76149,128,4,76539:0:0:0:0:
475,192,76149,1,0,0:0:0:0:
402,192,76344,1,0,0:0:0:0:
109,192,76539,128,0,76733:0:0:0:0:
329,192,76539,1,0,0:0:0:0:
256,192,76733,1,2,0:0:0:0:
402,192,76733,1,0,0:0:0:0:
475,192,76733,128,0,77318:0:0:0:0:
182,192,76928,1,0,0:0:0:0:
36,192,77123,1,2,0:0:0:0:
109,192,77123,1,0,0:0:0:0:
256,192,77123,1,0,0:0:0:0:
109,192,77318,1,2,0:0:0:0:
182,192,77318,1,0,0:0:0:0:
329,192,77318,1,0,0:0:0:0:
182,192,77707,128,8,77902:0:0:0:0:
402,192,77707,1,0,0:0:0:0:
475,192,77707,1,0,0:0:0:0:
329,192,77902,1,0,0:0:0:50:Tom1.wav
402,192,77902,1,0,0:0:0:0:
109,192,78097,128,0,78292:0:0:0:0:
182,192,78292,1,0,0:0:0:50:Tom2.wav
256,192,78389,1,0,0:0:0:50:Tom2.wav
36,192,78487,1,2,0:0:0:0:
109,192,78487,1,4,0:0:0:0:
402,192,78487,1,0,0:0:0:0:
475,192,78487,128,0,78876:0:0:0:0:
182,192,78876,128,0,79266:0:0:0:0:
329,192,79071,1,2,0:0:0:0:
402,192,79071,1,0,0:0:0:0:
36,192,79266,1,8,0:0:0:0:
329,192,79266,128,0,79655:0:0:0:0:
475,192,79266,1,0,0:0:0:0:
36,192,79655,128,0,79753:0:0:0:0:
402,192,79655,128,0,80045:0:0:0:0:
36,192,79850,128,2,80435:0:0:0:0:
182,192,79850,1,0,0:0:0:0:
256,192,79850,1,0,0:0:0:0:
329,192,80045,1,0,0:0:0:0:
109,192,80045,1,0,0:0:0:0:
182,192,80240,1,2,0:0:0:0:
402,192,80240,1,0,0:0:0:0:
475,192,80240,1,0,0:0:0:0:
256,192,80435,1,2,0:0:0:0:
329,192,80435,1,0,0:0:0:0:
475,192,80435,1,0,0:0:0:0:
109,192,80629,1,0,0:0:0:0:
36,192,80824,1,8,0:0:0:0:
182,192,80824,1,4,0:0:0:0:
402,192,80824,1,0,0:0:0:0:
475,192,80824,128,0,81214:0:0:0:0:
109,192,81019,1,0,0:0:0:50:Tom1.wav
182,192,81019,1,0,0:0:0:0:
109,192,81214,128,0,81603:0:0:0:50:Tom2.wav
329,192,81214,1,0,0:0:0:0:
256,192,81409,1,0,0:0:0:50:Tom3.wav
329,192,81409,1,0,0:0:0:0:
36,192,81603,128,2,81701:0:0:0:0:
182,192,81603,1,4,0:0:0:0:
402,192,81603,128,0,81701:0:0:0:0:
475,192,81603,128,0,83162:0:0:0:0:
109,192,81993,1,0,0:0:0:30:soft-hitclap.wav
256,192,81993,1,0,0:0:0:0:
109,192,82188,1,0,0:0:0:40:soft-hitclap.wav
182,192,82188,1,0,0:0:0:0:
36,192,82383,1,8,0:0:0:0:
182,192,82383,1,2,0:0:0:0:
329,192,82383,1,0,0:0:0:0:
109,192,82577,1,8,0:0:0:0:
329,192,82577,1,2,0:0:0:0:
402,192,82577,1,0,0:0:0:0:
182,192,82772,1,8,0:0:0:0:
256,192,82772,1,2,0:0:0:0:
402,192,82772,1,0,0:0:0:0:
36,192,82967,1,8,0:0:0:0:
182,192,82967,1,2,0:0:0:0:
329,192,82967,1,0,0:0:0:0:
36,192,83162,128,2,83357:0:0:0:0:
109,192,83162,128,0,83357:0:0:0:0:
36,192,83552,128,8,84720:0:0:0:0:
182,192,83552,1,0,0:0:0:0:
402,192,83552,128,0,84526:0:0:0:0:
475,192,83552,128,0,84526:0:0:0:0:
329,192,83941,128,0,84526:0:0:0:0:
109,192,84331,128,0,84720:0:0:0:0:
182,192,84526,128,0,84720:0:0:0:0:
256,192,84720,1,2,0:0:0:0:
329,192,84720,128,4,84915:0:0:0:0:
402,192,84720,128,0,84915:0:0:0:0:
475,192,84720,128,0,84915:0:0:0:0:
182,192,84915,1,0,0:0:0:0:
256,192,85013,1,8,0:0:0:0:
329,192,85013,1,0,0:0:0:0:
36,192,85110,1,8,0:0:0:0:
109,192,85110,1,0,0:0:0:0:
402,192,85110,1,0,0:0:0:0:
475,192,85110,1,0,0:0:0:0:
182,192,85305,128,2,85889:0:0:0:0:
256,192,85305,128,4,85889:0:0:0:0:
329,192,85305,128,0,85889:0:0:0:0:
109,192,85694,1,0,0:0:0:50:Tom1.wav
36,192,85694,1,0,0:0:0:0:
475,192,85889,1,0,0:0:0:50:Tom2.wav
402,192,85889,1,0,0:0:0:0:
36,192,86279,128,2,86668:0:0:0:0:
109,192,86279,128,4,86668:0:0:0:0:
182,192,86279,128,0,86668:0:0:0:0:
475,192,86668,1,8,0:0:0:0:
329,192,86668,1,0,0:0:0:0:
402,192,86668,1,0,0:0:0:0:
402,192,86863,128,4,87253:0:0:0:0:
475,192,86863,128,2,87253:0:0:0:0:
329,192,86863,128,0,87253:0:0:0:0:
256,192,86863,1,0,0:0:0:0:
109,192,87253,1,2,0:0:0:0:
182,192,87253,1,0,0:0:0:0:
36,192,87448,128,8,89006:0:0:0:0:
109,192,87448,128,4,88909:0:0:0:0:
182,192,87448,128,0,88811:0:0:0:0:
256,192,87448,128,0,88714:0:0:0:0:
475,192,87448,1,0,0:0:0:0:
