osu file format v14

[General]
AudioFilename: audio.ogg
AudioLeadIn: 0
PreviewTime: 55889
Countdown: 0
SampleSet: Soft
StackLeniency: 0.7
Mode: 3
LetterboxInBreaks: 0
SpecialStyle: 0
WidescreenStoryboard: 1

[Editor]
DistanceSpacing: 2.2
BeatDivisor: 2
GridSize: 8
TimelineZoom: 1

[Metadata]
Title:Everyday World (TV Size)
TitleUnicode:エブリデイワールド (TV Size)
Artist:Yukinoshita Yukino (CV: Hayami Saori) & Yuigahama Yui (CV: Touyama Nao)
ArtistUnicode:雪ノ下雪乃(CV: 早見沙織)&由比ヶ浜結衣(CV: 東山奈央)
Creator:Savageeeee
Version:4K Normal
Source:やはり俺の青春ラブコメはまちがっている。続
Tags:amiichii mirea raisky757 ed ending yahari ore no seishun love comedy wa machigatteiru zoku jpop j pop j-pop japanese anime GNCA-0387
BeatmapID:4169563
BeatmapSetID:2004882

[Difficulty]
HPDrainRate:7
CircleSize:4
OverallDifficulty:7
ApproachRate:5
SliderMultiplier:1.4
SliderTickRate:1

[Events]
//Background and Video events
0,0,"yui.jpg",0,0
//Break Periods
//Storyboard Layer 0 (Background)
//Storyboard Layer 1 (Fail)
//Storyboard Layer 2 (Pass)
//Storyboard Layer 3 (Foreground)
//Storyboard Layer 4 (Overlay)
//Storyboard Sound Samples
Sample,9526,0,"Hat open.wav",40
Sample,46344,0,"Hat open.wav",40

[TimingPoints]
565,389.61038961039,4,2,1,50,1,0
56668,-100,4,2,1,60,0,1
84720,-100,4,2,1,50,0,0

[HitObjects]
320,192,565,5,2,0:0:0:0:
448,192,565,1,0,0:0:0:0:
192,192,759,1,0,0:0:0:0:
320,192,954,1,2,0:0:0:0:
64,192,1149,1,0,0:0:0:0:
448,192,1539,1,0,0:0:0:0:
320,192,1733,1,2,0:0:0:0:
192,192,1928,1,0,0:0:0:0:
448,192,2318,1,0,0:0:0:0:
64,192,2707,1,0,0:0:0:0:
192,192,3097,1,0,0:0:0:0:
320,192,3292,1,2,0:0:0:0:
448,192,3487,1,0,0:0:0:0:
64,192,3681,1,2,0:0:0:0:
192,192,3681,1,0,0:0:0:0:
320,192,3876,1,0,0:0:0:0:
192,192,4071,1,2,0:0:0:0:
448,192,4266,1,0,0:0:0:0:
64,192,4655,1,0,0:0:0:0:
192,192,4850,1,2,0:0:0:0:
320,192,5045,1,0,0:0:0:0:
64,192,5435,1,0,0:0:0:0:
448,192,5824,1,0,0:0:0:0:
320,192,6214,1,0,0:0:0:0:
192,192,6409,1,2,0:0:0:0:
64,192,6603,1,0,0:0:0:0:
320,192,6798,1,2,0:0:0:0:
448,192,6798,1,0,0:0:0:0:
192,192,6993,1,0,0:0:0:0:
320,192,7188,1,2,0:0:0:0:
64,192,7383,1,0,0:0:0:0:
192,192,7772,1,0,0:0:0:0:
320,192,7967,1,2,0:0:0:0:
448,192,8162,1,0,0:0:0:0:
64,192,8552,1,0,0:0:0:0:
320,192,8941,1,0,0:0:0:0:
192,192,9331,1,0,0:0:0:15:Hat open.wav
448,192,9526,1,2,0:0:0:0:
320,192,9720,1,0,0:0:0:0:
64,192,9915,1,4,0:0:0:0:
192,192,9915,1,8,0:0:0:0:
320,192,10110,1,2,0:0:0:0:
320,192,10305,1,2,0:0:0:0:
192,192,10500,1,8,0:0:0:0:
448,192,10500,1,4,0:0:0:0:
64,192,10694,1,2,0:0:0:0:
64,192,10889,1,2,0:0:0:0:
192,192,11084,1,8,0:0:0:0:
320,192,11084,1,4,0:0:0:0:
448,192,11279,1,2,0:0:0:0:
448,192,11474,1,2,0:0:0:0:
64,192,11668,1,8,0:0:0:0:
192,192,11668,1,4,0:0:0:0:
320,192,11863,1,2,0:0:0:0:
320,192,12058,1,2,0:0:0:0:
64,192,12253,1,8,0:0:0:0:
448,192,12253,1,4,0:0:0:0:
192,192,12448,1,2,0:0:0:0:
192,192,12642,1,2,0:0:0:0:
320,192,12837,1,8,0:0:0:0:
448,192,12837,128,4,14396:0:0:0:0:
64,192,13227,1,0,0:0:0:30:soft-hitclap.wav
64,192,13422,1,0,0:0:0:40:soft-hitclap.wav
64,192,13616,1,10,0:0:0:0:
320,192,13811,1,10,0:0:0:0:
320,192,14006,1,10,0:0:0:0:
320,192,14201,1,10,0:0:0:0:
192,192,14396,128,2,16149:0:0:0:0:
64,192,14396,1,4,0:0:0:0:
64,192,16149,1,2,0:0:0:0:
448,192,16149,1,4,0:0:0:0:
320,192,16539,1,2,0:0:0:0:
192,192,16928,1,2,0:0:0:0:
448,192,17318,1,2,0:0:0:0:
320,192,17513,1,0,0:0:0:0:
64,192,17707,1,2,0:0:0:0:
192,192,17707,1,0,0:0:0:0:
448,192,18097,1,2,0:0:0:0:
192,192,18487,1,2,0:0:0:0:
320,192,18876,1,2,0:0:0:0:
64,192,19266,1,2,0:0:0:0:
448,192,19266,1,0,0:0:0:0:
192,192,19655,1,2,0:0:0:0:
320,192,20045,1,2,0:0:0:0:
64,192,20435,1,2,0:0:0:0:
192,192,20629,1,0,0:0:0:0:
320,192,20824,1,2,0:0:0:0:
448,192,20824,1,0,0:0:0:0:
64,192,21214,1,2,0:0:0:0:
448,192,21603,1,2,0:0:0:0:
320,192,21798,1,0,0:0:0:0:
192,192,21993,1,2,0:0:0:0:
64,192,22383,1,2,0:0:0:0:
448,192,22383,1,0,0:0:0:0:
320,192,22772,1,2,0:0:0:0:
192,192,23162,1,2,0:0:0:0:
320,192,23552,1,2,0:0:0:0:
64,192,23941,1,2,0:0:0:0:
448,192,23941,1,0,0:0:0:0:
192,192,24331,1,2,0:0:0:0:
320,192,24720,1,2,0:0:0:0:
192,192,25110,1,2,0:0:0:0:
320,192,25500,1,2,0:0:0:0:
448,192,25500,1,0,0:0:0:0:
192,192,25889,1,2,0:0:0:0:
64,192,26084,1,0,0:0:0:0:
448,192,26084,1,0,0:0:0:0:
320,192,26279,1,2,0:0:0:0:
192,192,26668,1,2,0:0:0:0:
320,192,27058,1,2,0:0:0:0:
448,192,27058,1,0,0:0:0:0:
64,192,27253,1,0,0:0:0:0:
192,192,27448,1,2,0:0:0:0:
320,192,27642,1,0,0:0:0:0:
64,192,27837,1,2,0:0:0:0:
192,192,27837,1,0,0:0:0:0:
448,192,28032,1,0,0:0:0:0:
320,192,28227,128,10,28422:0:0:0:0:
192,192,28422,128,2,28616:0:0:0:0:
64,192,28616,1,2,0:0:0:0:
448,192,28616,1,4,0:0:0:0:
192,192,29006,1,2,0:0:0:0:
320,192,29396,1,2,0:0:0:0:
64,192,29785,1,2,0:0:0:0:
320,192,29980,1,0,0:0:0:0:
192,192,30175,1,2,0:0:0:0:
448,192,30370,1,0,0:0:0:0:
320,192,30565,1,2,0:0:0:0:
192,192,30759,1,0,0:0:0:0:
64,192,30954,1,2,0:0:0:0:
192,192,31344,1,8,0:0:0:0:
448,192,31344,1,0,0:0:0:0:
320,192,31539,1,0,0:0:0:0:
64,192,31733,1,2,0:0:0:0:
192,192,31733,1,0,0:0:0:0:
448,192,32123,1,2,0:0:0:0:
64,192,32513,1,2,0:0:0:0:
320,192,32902,1,2,0:0:0:0:
192,192,33097,1,0,0:0:0:0:
448,192,33292,1,2,0:0:0:0:
64,192,33487,1,0,0:0:0:0:
192,192,33681,1,2,0:0:0:0:
320,192,33876,1,0,0:0:0:0:
448,192,34071,1,2,0:0:0:0:
64,192,34461,1,8,0:0:0:0:
320,192,34461,1,0,0:0:0:0:
192,192,34655,1,0,0:0:0:0:
320,192,34850,1,2,0:0:0:0:
448,192,34850,1,0,0:0:0:0:
192,192,35240,1,2,0:0:0:0:
448,192,35629,1,2,0:0:0:0:
64,192,35824,1,0,0:0:0:0:
192,192,36019,1,2,0:0:0:0:
320,192,36214,1,0,0:0:0:0:
64,192,36409,1,2,0:0:0:0:
448,192,36409,1,0,0:0:0:0:
192,192,36798,1,2,0:0:0:0:
320,192,36993,1,0,0:0:0:0:
64,192,37188,1,2,0:0:0:0:
192,192,37577,1,8,0:0:0:0:
448,192,37577,1,0,0:0:0:0:
320,192,37772,1,0,0:0:0:0:
64,192,37967,1,2,0:0:0:0:
192,192,37967,1,0,0:0:0:0:
448,192,38357,1,2,0:0:0:0:
320,192,38746,1,2,0:0:0:0:
64,192,38941,1,0,0:0:0:0:
192,192,39136,1,2,0:0:0:0:
320,192,39331,1,0,0:0:0:0:
64,192,39526,1,2,0:0:0:0:
448,192,39526,1,0,0:0:0:0:
192,192,39720,1,0,0:0:0:0:
320,192,39915,1,2,0:0:0:0:
192,192,40110,1,0,0:0:0:0:
320,192,40305,1,8,0:0:0:0:
448,192,40305,1,0,0:0:0:0:
64,192,40500,1,0,0:0:0:50:Tom1.wav
192,192,40694,1,0,0:0:0:50:Tom2.wav
320,192,40889,1,0,0:0:0:50:Tom3.wav
64,192,41084,1,2,0:0:0:0:
448,192,41084,1,4,0:0:0:0:
192,192,41279,1,0,0:0:0:0:
320,192,41474,1,0,0:0:0:0:
192,192,41668,1,0,0:0:0:0:
448,192,42058,1,0,0:0:0:0:
320,192,42253,1,0,0:0:0:0:
64,192,42448,1,2,0:0:0:0:
192,192,42448,1,0,0:0:0:0:
320,192,42642,1,2,0:0:0:0:
448,192,42642,1,0,0:0:0:0:
64,192,42837,1,0,0:0:0:0:
192,192,43032,1,0,0:0:0:0:
320,192,43227,1,0,0:0:0:40:Hat open.wav
448,192,43616,1,0,0:0:0:0:
320,192,43811,1,0,0:0:0:0:
192,192,44006,1,0,0:0:0:0:
64,192,44201,1,2,0:0:0:0:
448,192,44201,1,0,0:0:0:0:
192,192,44396,1,0,0:0:0:0:
320,192,44590,1,0,0:0:0:0:
448,192,44785,1,0,0:0:0:40:Hat open.wav
64,192,45175,1,0,0:0:0:0:
320,192,45370,1,0,0:0:0:0:
64,192,45565,1,2,0:0:0:0:
192,192,45565,1,0,0:0:0:0:
320,192,45759,1,2,0:0:0:0:
448,192,45759,1,0,0:0:0:0:
64,192,45954,1,0,0:0:0:0:
192,192,46149,1,0,0:0:0:0:
320,192,46344,1,2,0:0:0:0:
64,192,46539,1,0,0:0:0:0:
448,192,46733,1,8,0:0:0:0:
320,192,46928,1,0,0:0:0:50:Tom1.wav
192,192,47123,1,0,0:0:0:50:Tom2.wav
64,192,47318,1,8,0:0:0:0:
448,192,47318,1,4,0:0:0:0:
320,192,47513,1,2,0:0:0:0:
320,192,47707,1,2,0:0:0:0:
64,192,47902,1,8,0:0:0:0:
192,192,47902,1,0,0:0:0:40:Hat open.wav
448,192,48097,1,2,0:0:0:0:
448,192,48292,1,2,0:0:0:0:
64,192,48487,1,8,0:0:0:0:
320,192,48487,1,4,0:0:0:0:
192,192,48681,1,2,0:0:0:0:
320,192,48876,1,8,0:0:0:0:
448,192,48876,1,4,0:0:0:0:
64,192,49071,1,2,0:0:0:0:
64,192,49266,1,2,0:0:0:0:
192,192,49461,1,8,0:0:0:0:
320,192,49461,1,0,0:0:0:40:Hat open.wav
448,192,49655,1,2,0:0:0:0:
448,192,49850,1,2,0:0:0:0:
64,192,50045,1,8,0:0:0:0:
192,192,50045,1,4,0:0:0:0:
320,192,50240,128,8,50435:0:0:0:0:
64,192,50435,1,2,0:0:0:0:
448,192,50435,1,4,0:0:0:0:
192,192,50824,1,8,0:0:0:0:
320,192,50824,1,0,0:0:0:0:
64,192,51214,1,2,0:0:0:0:
192,192,51409,1,2,0:0:0:0:
320,192,51603,1,8,0:0:0:0:
448,192,51603,1,0,0:0:0:0:
192,192,51798,1,0,0:0:0:0:
64,192,51993,1,2,0:0:0:0:
448,192,51993,1,0,0:0:0:0:
320,192,52188,1,0,0:0:0:0:
64,192,52383,1,8,0:0:0:0:
192,192,52383,1,0,0:0:0:0:
320,192,52772,1,2,0:0:0:0:
192,192,52967,1,2,0:0:0:0:
64,192,53162,1,8,0:0:0:0:
448,192,53162,1,0,0:0:0:0:
192,192,53357,128,0,53552:0:0:0:50:Tom2.wav
320,192,53552,1,2,0:0:0:0:
448,192,53552,1,4,0:0:0:0:
64,192,53941,1,0,0:0:0:30:soft-hitclap.wav
192,192,54136,1,0,0:0:0:40:soft-hitclap.wav
320,192,54331,1,8,0:0:0:0:
448,192,54331,1,2,0:0:0:0:
64,192,54526,1,8,0:0:0:0:
192,192,54526,1,2,0:0:0:0:
320,192,54720,1,8,0:0:0:0:
448,192,54720,1,2,0:0:0:0:
64,192,54915,1,0,0:0:0:50:Tom2.wav
192,192,54915,1,0,0:0:0:0:
320,192,55110,1,2,0:0:0:0:
448,192,55110,1,4,0:0:0:0:
320,192,55500,1,2,0:0:0:0:
448,192,55500,1,0,0:0:0:0:
64,192,55889,1,2,0:0:0:0:
192,192,55889,1,8,0:0:0:0:
320,192,56279,128,10,56474:0:0:0:0:
192,192,56474,128,0,56668:0:0:0:50:Tom2.wav
64,192,56668,1,2,0:0:0:0:
448,192,56668,1,4,0:0:0:0:
192,192,57058,1,8,0:0:0:0:
320,192,57058,1,0,0:0:0:0:
64,192,57253,1,0,0:0:0:0:
448,192,57448,1,2,0:0:0:0:
320,192,57642,1,2,0:0:0:0:
64,192,57837,1,8,0:0:0:0:
192,192,57837,1,0,0:0:0:0:
320,192,58032,1,0,0:0:0:0:
64,192,58227,1,2,0:0:0:0:
448,192,58227,1,0,0:0:0:0:
192,192,58616,1,8,0:0:0:0:
320,192,58616,1,0,0:0:0:0:
448,192,58811,1,0,0:0:0:0:
64,192,59006,1,2,0:0:0:0:
192,192,59201,1,2,0:0:0:0:
320,192,59396,1,8,0:0:0:0:
448,192,59396,1,0,0:0:0:0:
192,192,59590,1,0,0:0:0:0:
64,192,59785,1,2,0:0:0:0:
448,192,59785,1,0,0:0:0:0:
192,192,60175,1,8,0:0:0:0:
320,192,60175,1,0,0:0:0:0:
64,192,60370,1,0,0:0:0:0:
448,192,60565,1,2,0:0:0:0:
320,192,60759,1,2,0:0:0:0:
64,192,60954,1,8,0:0:0:0:
192,192,60954,1,0,0:0:0:0:
320,192,61149,1,0,0:0:0:0:
64,192,61344,128,2,61733:0:0:0:0:
448,192,61344,1,0,0:0:0:0:
192,192,61733,128,8,62123:0:0:0:0:
448,192,61733,1,0,0:0:0:0:
64,192,62123,1,2,0:0:0:0:
320,192,62123,128,0,62513:0:0:0:0:
64,192,62513,1,8,0:0:0:0:
448,192,62513,128,0,62902:0:0:0:0:
192,192,62902,1,2,0:0:0:0:
320,192,62902,1,4,0:0:0:0:
192,192,63292,1,8,0:0:0:0:
448,192,63292,1,0,0:0:0:0:
320,192,63487,1,0,0:0:0:0:
64,192,63681,1,2,0:0:0:0:
192,192,63876,1,2,0:0:0:0:
320,192,64071,1,8,0:0:0:0:
448,192,64071,1,0,0:0:0:0:
64,192,64266,1,0,0:0:0:0:
192,192,64461,1,2,0:0:0:0:
448,192,64461,1,0,0:0:0:0:
64,192,64850,1,8,0:0:0:0:
320,192,64850,1,0,0:0:0:0:
192,192,65045,1,0,0:0:0:0:
448,192,65240,1,2,0:0:0:0:
320,192,65435,1,2,0:0:0:0:
64,192,65629,1,8,0:0:0:0:
192,192,65629,1,0,0:0:0:0:
448,192,65824,1,0,0:0:0:0:
64,192,66019,1,2,0:0:0:0:
320,192,66019,1,0,0:0:0:0:
192,192,66409,1,8,0:0:0:0:
448,192,66409,1,0,0:0:0:0:
64,192,66603,1,0,0:0:0:0:
320,192,66798,1,2,0:0:0:0:
192,192,66993,1,2,0:0:0:0:
64,192,67188,1,8,0:0:0:0:
448,192,67188,1,0,0:0:0:0:
320,192,67383,1,0,0:0:0:0:
64,192,67577,1,2,0:0:0:0:
192,192,67577,1,0,0:0:0:0:
320,192,67772,1,8,0:0:0:0:
448,192,67772,1,0,0:0:0:0:
64,192,67967,1,8,0:0:0:0:
192,192,67967,1,0,0:0:0:0:
320,192,68162,1,2,0:0:0:0:
448,192,68357,1,2,0:0:0:0:
64,192,68552,128,8,68746:0:0:0:0:
192,192,68746,128,8,68941:0:0:0:0:
320,192,68941,128,8,69136:0:0:0:0:
64,192,69136,1,2,0:0:0:0:
448,192,69136,1,4,0:0:0:0:
64,192,69526,1,8,0:0:0:0:
192,192,69526,1,4,0:0:0:0:
320,192,69720,1,0,0:0:0:0:
448,192,69915,1,2,0:0:0:0:
192,192,70110,1,2,0:0:0:0:
64,192,70305,1,8,0:0:0:0:
320,192,70305,1,0,0:0:0:0:
448,192,70500,1,0,0:0:0:0:
64,192,70694,1,2,0:0:0:0:
192,192,70694,1,0,0:0:0:0:
320,192,71084,1,8,0:0:0:0:
448,192,71084,1,0,0:0:0:0:
192,192,71279,1,0,0:0:0:0:
64,192,71474,1,2,0:0:0:0:
320,192,71668,1,2,0:0:0:0:
192,192,71863,1,8,0:0:0:0:
448,192,71863,1,0,0:0:0:0:
64,192,72058,1,8,0:0:0:0:
320,192,72253,1,2,0:0:0:0:
448,192,72253,1,0,0:0:0:0:
64,192,72642,1,8,0:0:0:0:
192,192,72642,1,0,0:0:0:0:
448,192,72837,1,0,0:0:0:0:
64,192,73032,1,2,0:0:0:0:
192,192,73227,1,2,0:0:0:0:
320,192,73422,1,8,0:0:0:0:
448,192,73422,1,0,0:0:0:0:
192,192,73616,1,0,0:0:0:0:
64,192,73811,1,2,0:0:0:0:
448,192,73811,128,0,74201:0:0:0:0:
64,192,74201,1,8,0:0:0:0:
320,192,74201,128,4,74590:0:0:0:0:
192,192,74590,128,0,74980:0:0:0:50:Tom1.wav
448,192,74590,1,0,0:0:0:0:
64,192,74980,128,0,75370:0:0:0:50:Tom3.wav
448,192,74980,1,0,0:0:0:0:
192,192,75370,1,2,0:0:0:0:
320,192,75370,1,4,0:0:0:0:
448,192,75954,1,2,0:0:0:0:
64,192,76149,1,8,0:0:0:0:
192,192,76149,1,4,0:0:0:0:
320,192,76539,1,0,0:0:0:0:
64,192,76733,1,2,0:0:0:0:
192,192,76928,1,0,0:0:0:0:
320,192,77123,1,2,0:0:0:0:
448,192,77123,1,0,0:0:0:0:
64,192,77318,1,2,0:0:0:0:
192,192,77318,1,0,0:0:0:0:
64,192,77707,1,8,0:0:0:0:
448,192,77707,1,0,0:0:0:0:
320,192,77902,1,0,0:0:0:50:Tom1.wav
192,192,78292,128,0,78487:0:0:0:50:Tom2.wav
64,192,78487,1,2,0:0:0:0:
448,192,78487,1,4,0:0:0:0:
192,192,79071,1,2,0:0:0:0:
320,192,79266,1,8,0:0:0:0:
448,192,79266,1,0,0:0:0:0:
64,192,79655,1,0,0:0:0:0:
448,192,79850,1,2,0:0:0:0:
320,192,80045,1,0,0:0:0:0:
64,192,80240,1,2,0:0:0:0:
192,192,80240,1,0,0:0:0:0:
320,192,80435,1,2,0:0:0:0:
448,192,80435,1,0,0:0:0:0:
64,192,80824,1,8,0:0:0:0:
448,192,80824,1,4,0:0:0:0:
320,192,81019,1,0,0:0:0:50:Tom1.wav
192,192,81214,1,0,0:0:0:50:Tom2.wav
64,192,81409,1,0,0:0:0:50:Tom3.wav
320,192,81603,1,2,0:0:0:0:
448,192,81603,1,4,0:0:0:0:
192,192,81993,1,0,0:0:0:30:soft-hitclap.wav
192,192,82188,1,0,0:0:0:40:soft-hitclap.wav
448,192,82383,1,10,0:0:0:0:
448,192,82577,1,10,0:0:0:0:
64,192,82772,1,10,0:0:0:0:
64,192,82967,1,10,0:0:0:0:
320,192,83162,1,2,0:0:0:0:
64,192,83552,1,8,0:0:0:0:
448,192,83552,128,0,84720:0:0:0:0:
320,192,83941,128,0,84720:0:0:0:0:
64,192,84720,1,2,0:0:0:0:
192,192,84720,1,4,0:0:0:0:
320,192,85013,1,8,0:0:0:0:
192,192,85110,1,8,0:0:0:0:
64,192,85305,1,2,0:0:0:0:
448,192,85305,1,4,0:0:0:0:
192,192,85694,1,0,0:0:0:50:Tom1.wav
320,192,85889,1,0,0:0:0:50:Tom2.wav
64,192,86279,1,2,0:0:0:0:
448,192,86279,1,4,0:0:0:0:
320,192,86668,1,8,0:0:0:0:
448,192,86668,1,0,0:0:0:0:
64,192,86863,1,2,0:0:0:0:
192,192,86863,1,4,0:0:0:0:
320,192,87253,1,2,0:0:0:0:
64,192,87448,128,8,89006:0:0:0:0:
448,192,87448,128,4,89006:0:0:0:0:
