osu file format v14

[General]
AudioFilename: audio.mp3
AudioLeadIn: 0
PreviewTime: 51254
Countdown: 0
SampleSet: Soft
StackLeniency: 0.7
Mode: 0
LetterboxInBreaks: 0
WidescreenStoryboard: 0

[Editor]
Bookmarks: 7754
DistanceSpacing: 3
BeatDivisor: 4
GridSize: 4
TimelineZoom: 1.4

[Metadata]
Title:Diamond no Jundo (TV Size)
TitleUnicode:ダイヤモンドの純度 (TV Size)
Artist:Yukinoshita Yukino (CV: Hayami Saori) & Yuigahama Yui (CV: Touyama Nao)
ArtistUnicode:雪ノ下雪乃(CV: 早見沙織)&由比ヶ浜結衣(CV: 東山奈央)
Creator:NexusQI
Version:Facade
Source:やはり俺の青春ラブコメはまちがっている。完
Tags:pop jpop j-pop anime japanese nexus my teen romantic comedy SNAFU climax yahari ore no seishun love wa machigatteiru 3rd season 3 oregairu youth is wrong as I expected three toyama kan purity ending ed third
BeatmapID:2551232
BeatmapSetID:1226871

[Difficulty]
HPDrainRate:6
CircleSize:4
OverallDifficulty:8
ApproachRate:8.8
SliderMultiplier:1.7
SliderTickRate:1

[Events]
//Background and Video events
0,0,"670575.png",0,0
//Break Periods
//Storyboard Layer 0 (Background)
//Storyboard Layer 1 (Fail)
//Storyboard Layer 2 (Pass)
//Storyboard Layer 3 (Foreground)
//Storyboard Layer 4 (Overlay)
//Storyboard Sound Samples

[TimingPoints]
3254,370.37037037037,4,2,1,50,1,0
3254,-153.846153846153,4,2,1,50,0,0
5846,399.334442595674,4,2,1,50,1,0
6245,370.37037037037,4,2,1,50,1,0
6245,-153.846153846153,4,2,1,50,0,0
7170,387.096774193548,4,2,1,50,1,0
7541,427.046263345195,4,2,1,50,1,0
7754,372.670807453416,4,2,1,50,1,0
7754,-153.846153846153,4,2,1,50,0,0
8126,368.098159509202,4,2,1,50,1,0
8494,372.670807453416,4,2,1,50,1,0
8494,-153.846153846153,4,2,1,50,0,0
8866,388.349514563107,4,2,1,50,1,0
9254,370.37037037037,4,2,1,50,1,0
9254,-153.846153846153,4,2,1,50,0,0
11476,400,4,2,1,50,1,0
11868,389.61038961039,4,2,1,50,1,0
12254,370.37037037037,4,2,1,50,1,0
12254,-153.846153846153,4,2,1,50,0,0
13556,375,4,2,2,50,1,0
13556,-100,4,2,2,50,0,0
13743,375,4,2,2,50,1,0
13743,-153.846153846153,4,2,1,50,0,0
14306,379.746835443039,4,2,1,50,1,0
14495,379.746835443038,4,2,1,50,1,0
15254,375,4,2,1,60,1,0
15254,-117.647058823529,4,2,1,60,0,0
15535,-117.647058823529,4,2,1,5,0,0
15629,-117.647058823529,4,2,1,60,0,0
18535,-117.647058823529,4,2,1,5,0,0
18629,-117.647058823529,4,2,1,60,0,0
21535,-117.647058823529,4,2,1,5,0,0
21629,-117.647058823529,4,2,1,60,0,0
27254,-105.263157894737,4,2,1,65,0,0
27535,-105.263157894737,4,2,1,5,0,0
27629,-105.263157894737,4,2,1,65,0,0
30535,-105.263157894737,4,2,1,5,0,0
30629,-105.263157894737,4,2,1,65,0,0
39254,-105.263157894737,4,2,1,65,0,0
40472,-105.263157894737,4,2,1,5,0,0
40566,-105.263157894737,4,2,1,65,0,0
43472,-105.263157894737,4,2,1,5,0,0
43566,-105.263157894737,4,2,1,65,0,0
45254,-100,4,2,1,70,0,0
49097,-105.263157894737,4,2,1,5,0,0
49191,-105.263157894737,4,2,1,70,0,0
49847,-105.263157894737,4,2,1,5,0,0
49941,-105.263157894737,4,2,1,70,0,0
51254,-90.9090909090909,4,2,3,80,0,1
51535,-90.9090909090909,4,2,1,5,0,1
51629,-90.9090909090909,4,2,1,80,0,1
53410,-90.9090909090909,4,2,1,5,0,1
53504,-90.9090909090909,4,2,1,80,0,1
54535,-90.9090909090909,4,2,1,5,0,1
54629,-90.9090909090909,4,2,1,80,0,1
56410,-90.9090909090909,4,2,1,5,0,1
56504,-90.9090909090909,4,2,1,80,0,1
57535,-90.9090909090909,4,2,1,5,0,1
57629,-90.9090909090909,4,2,1,80,0,1
59035,-90.9090909090909,4,2,1,5,0,1
59129,-90.9090909090909,4,2,1,80,0,1
61847,-90.9090909090909,4,2,1,5,0,1
61941,-90.9090909090909,4,2,1,80,0,1
63254,-90.9090909090909,4,2,3,80,0,1
63535,-90.9090909090909,4,2,1,5,0,1
63629,-90.9090909090909,4,2,1,80,0,1
65410,-90.9090909090909,4,2,1,5,0,1
65504,-90.9090909090909,4,2,1,80,0,1
66535,-90.9090909090909,4,2,1,5,0,1
66629,-90.9090909090909,4,2,1,80,0,1
69347,-90.9090909090909,4,2,1,5,0,1
69441,-90.9090909090909,4,2,1,80,0,1
70847,-90.9090909090909,4,2,1,5,0,1
70941,-90.9090909090909,4,2,1,80,0,1
75347,-90.9090909090909,4,2,1,5,0,1
75441,-90.9090909090909,4,2,1,80,0,1
77410,-90.9090909090909,4,2,1,5,0,1
77504,-111.111111111111,4,2,1,80,0,1
78254,-100,4,2,1,70,0,0
78535,-100,4,2,1,5,0,0
78629,-100,4,2,1,70,0,0
80035,-100,4,2,1,5,0,0
80129,-100,4,2,1,70,0,0
82754,-100,4,2,1,65,0,0
83504,-100,4,2,1,60,0,0
84254,-100,4,2,1,50,0,0
85004,-100,4,2,1,40,0,0
85754,-100,4,2,1,30,0,0
86504,-100,4,2,1,20,0,0
87254,-100,4,2,1,10,0,0
88004,-100,4,2,1,5,0,0

[Colours]
Combo1 : 235,141,163
Combo2 : 209,146,248
Combo3 : 255,155,205
Combo4 : 79,133,244

[HitObjects]
129,85,3254,6,0,P|68:93|36:58,1,110.499994941712,2|0,0:2|0:0,0:0:0:0:
203,37,3809,2,0,B|219:99|219:99|188:159,1,110.499994941712,2|0,0:0|0:0,0:0:0:0:
198,139,4365,1,2,0:0:0:0:
389,287,4735,6,0,B|429:281|429:281|447:257|447:257|494:248,1,110.499994941712,2|0,0:2|0:0,0:0:0:0:
334,350,5291,2,0,P|304:284|325:237,1,110.499994941712,2|0,0:0|0:0,0:0:0:0:
314,251,5846,1,2,0:0:0:0:
414,90,6245,6,0,B|428:146|428:146|402:171|412:212,1,110.499994941712,2|0,0:2|0:0,0:0:0:0:
445,14,6800,2,0,P|383:6|350:42,1,110.499994941712,2|2,0:0|0:0,0:0:0:0:
336,118,7363,1,2,0:0:0:0:
414,90,7541,1,2,0:0:0:0:
250,93,7754,6,0,L|125:82,1,110.499994941712,2|2,0:2|0:0,0:0:0:0:
291,187,8494,2,0,L|166:176,1,110.499994941712,2|2,0:2|0:0,0:0:0:0:
76,341,9254,6,0,B|70:295|94:269|94:269|77:253|72:226,1,110.499994941712,2|0,3:2|0:0,0:0:0:0:
251,313,9809,2,0,B|174:303|174:303|153:309|154:333,1,110.499994941712,2|0,3:2|0:0,0:0:0:0:
318,376,10365,6,0,B|360:319|335:234|307:285|275:196|303:127|303:127|307:174|339:194,1,331.499984825135,2|0,3:2|0:0,0:0:0:0:
419,209,11676,1,2,0:0:0:0:
393,127,11868,1,2,0:0:0:0:
329,187,12062,1,2,0:0:0:0:
480,260,12254,6,0,P|503:199|477:149,1,110.499994941712,6|2,3:2|0:0,0:0:0:0:
368,324,12809,2,0,B|422:314|422:314|446:343|483:336,1,110.499994941712,2|2,0:0|0:0,0:0:0:0:
480,260,13365,1,2,0:0:0:0:
297,359,13556,2,0,L|291:324,2,28.3333333333333,2|2|2,0:3|0:3|0:3,0:0:0:0:
261,315,13743,6,0,B|226:299|191:325|191:325|147:278|179:230,1,165.749992412568,6|0,3:2|0:0,0:0:0:0:
237,170,14495,1,2,0:0:0:0:
1,59,15254,6,0,B|28:37|62:50|62:50|122:44,1,108.375002067089,4|0,3:2|0:0,0:0:0:0:
141,78,15629,2,0,L|221:68,1,72.2500013780594,2|0,3:2|0:0,0:0:0:0:
81,169,16004,1,2,3:2:0:0:
81,169,16191,2,0,L|-10:157,1,72.2500013780594,2|0,0:0|3:2,0:0:0:0:
217,347,16566,6,0,B|231:311|231:311|220:276,1,72.2500013780594,2|0,0:0|3:2,0:0:0:0:
67,327,16941,2,0,L|158:318,1,72.2500013780594,2|0,0:0|3:2,0:0:0:0:
67,327,17316,1,2,0:0:0:0:
220,278,17504,2,0,B|279:268|279:268|314:285|314:285|386:273,1,144.500002756119,2|2,3:2|3:2,0:0:0:0:
289,110,18066,2,0,L|298:160,1,36.1250006890297,2|2,0:3|0:3,0:0:0:0:
349,71,18254,6,0,B|323:107|323:107|341:187,1,108.375002067089,0|0,3:2|0:0,0:0:0:0:
366,205,18629,2,0,L|357:290,1,72.2500013780594,2|0,3:2|0:0,0:0:0:0:
462,115,19004,1,2,3:2:0:0:
462,115,19191,2,0,L|453:205,1,72.2500013780594,2|0,0:0|3:2,0:0:0:0:
205,167,19566,6,0,L|293:156,1,72.2500013780594,2|0,0:0|3:2,0:0:0:0:
178,79,19941,2,0,L|92:67,1,72.2500013780594,2|0,0:0|3:2,0:0:0:0:
178,79,20316,1,2,0:0:0:0:
29,40,20504,2,0,B|3:86|3:86|35:189,1,144.500002756119,2|2,3:2|3:2,0:0:0:0:
210,210,21066,2,0,P|171:196|161:199,1,36.1250006890297,2|2,0:3|0:3,0:0:0:0:
239,282,21254,6,0,P|186:236|133:242,1,108.375002067089,0|0,3:2|0:0,0:0:0:0:
113,259,21629,2,0,L|127:353,1,72.2500013780594,2|0,3:2|0:0,0:0:0:0:
19,186,22004,1,2,3:2:0:0:
19,186,22191,2,0,L|32:281,1,72.2500013780594,2|0,0:0|3:2,0:0:0:0:
224,82,22566,6,0,P|177:63|140:75,1,72.2500013780594,2|0,0:0|3:2,0:0:0:0:
309,73,22941,2,0,P|289:26|255:7,1,72.2500013780594,2|0,0:0|3:2,0:0:0:0:
364,200,23316,2,0,P|381:152|366:114,1,72.2500013780594,2|0,0:0|3:2,0:0:0:0:
188,173,23691,2,0,B|296:158|296:158|271:172|260:190,1,144.500002756119,2|2,0:0|0:3,0:0:0:0:
215,256,24160,1,2,0:3:0:0:
215,256,24254,6,0,L|122:247,1,72.2500013780594,2|0,3:2|0:0,0:0:0:0:
299,346,24629,2,0,L|208:339,1,72.2500013780594,0|0,3:0|0:0,0:0:0:0:
152,373,25004,1,0,3:0:0:0:
362,300,25191,2,0,P|378:340|373:373,2,72.2500013780594,2|2|2,0:0|3:2|0:0,0:0:0:0:
433,129,25754,6,0,B|407:216|407:216|439:242|443:273,1,144.500002756119,2|0,3:2|3:0,0:0:0:0:
439,258,26316,1,0,0:0:0:0:
353,115,26504,1,10,0:0:0:0:
504,213,26691,1,0,3:0:0:0:
408,53,26879,1,8,0:0:0:0:
299,247,27066,1,8,0:0:0:0:
299,247,27160,1,8,0:0:0:0:
299,247,27254,6,0,B|283:157|283:157|293:171|314:188,1,121.124996765614,4|0,3:2|0:0,0:0:0:0:
353,115,27629,1,10,0:2:0:0:
358,304,27816,2,0,P|317:333|270:331,1,80.7499978437424,2|0,0:2|3:0,0:0:0:0:
122,276,28191,2,0,P|161:269|211:293,1,80.7499978437424,2|8,0:0|0:0,0:0:0:0:
18,94,28566,1,10,0:0:0:0:
18,94,28660,1,8,0:0:0:0:
18,94,28754,6,0,B|30:183|30:183|-7:212|0:269,1,161.499995687485,0|8,3:0|0:0,0:0:0:0:
0,245,29316,1,0,0:0:0:0:
105,114,29504,2,0,L|118:216,1,80.7499978437424,2|0,3:2|3:0,0:0:0:0:
154,38,29879,1,10,0:0:0:0:
291,191,30066,2,0,P|272:204|241:202,1,40.3749989218712,2|2,0:3|0:3,0:0:0:0:
362,167,30254,6,0,B|325:143|295:146|295:146|276:173|243:172,1,121.124996765614,2|0,3:2|0:0,0:0:0:0:
235,100,30629,1,10,0:2:0:0:
440,189,30816,2,0,P|441:146|421:112,1,80.7499978437424,2|0,0:2|3:0,0:0:0:0:
488,332,31191,2,0,P|489:288|507:252,1,80.7499978437424,2|8,0:0|0:0,0:0:0:0:
294,269,31566,1,10,0:0:0:0:
294,269,31660,1,8,0:0:0:0:
294,269,31754,6,0,B|225:263|225:263|191:283|191:283|133:278,1,161.499995687485,2|8,3:2|0:0,0:0:0:0:
249,346,32316,2,0,L|346:356,1,80.7499978437424,2|0,0:2|3:2,0:0:0:0:
430,255,32691,1,2,3:2:0:0:
329,354,32879,1,10,0:2:0:0:
324,176,33066,1,2,0:3:0:0:
325,188,33159,1,2,0:3:0:0:
327,200,33253,5,6,3:2:0:0:
502,304,33441,2,0,B|516:262|516:262|500:215,1,80.7499978437424,2|8,0:0|0:0,0:0:0:0:
393,88,33816,2,0,L|406:189,1,80.7499978437424,2|0,0:0|3:0,0:0:0:0:
296,9,34191,2,0,L|309:113,1,80.7499978437424,2|8,0:0|0:0,0:0:0:0:
326,275,34566,1,10,0:0:0:0:
326,275,34660,1,8,0:0:0:0:
326,275,34754,5,0,3:0:0:0:
179,208,34941,2,0,L|283:192,1,80.7499978437424,2|8,0:0|0:0,0:0:0:0:
405,287,35316,2,0,L|300:271,1,80.7499978437424,2|0,0:0|3:0,0:0:0:0:
480,382,35691,2,0,L|374:365,1,80.7499978437424,2|8,3:2|0:2,0:0:0:0:
506,208,36066,2,0,L|509:249,1,40.3749989218712,2|2,0:3|0:3,0:0:0:0:
470,144,36254,6,0,L|479:244,1,80.7499978437424,2|2,3:2|0:0,0:0:0:0:
399,74,36629,1,10,0:0:0:0:
279,167,36816,2,0,L|380:155,1,80.7499978437424,2|0,0:0|3:0,0:0:0:0:
194,125,37191,1,2,0:0:0:0:
267,253,37379,2,0,L|349:245,1,80.7499978437424,10|8,0:0|0:0,0:0:0:0:
387,276,37660,1,8,0:0:0:0:
387,276,37754,5,2,3:2:0:0:
200,210,37941,2,0,P|184:254|207:303,1,80.7499978437424,8|0,0:0|3:0,0:0:0:0:
299,372,38316,1,0,3:0:0:0:
123,335,38504,1,8,0:0:0:0:
267,253,38691,1,0,3:0:0:0:
62,384,38879,2,0,P|43:336|64:286,1,80.7499978437424,8|0,0:0|0:0,0:0:0:0:
144,130,39254,5,8,0:0:0:0:
48,308,39441,1,8,0:0:0:0:
412,240,40191,2,0,L|270:224,1,121.124996765614,12|0,0:0|0:0,0:0:0:0:
218,179,40566,6,0,L|312:190,1,80.7499978437424,4|0,3:2|0:0,0:0:0:0:
471,307,40941,2,0,B|501:246|501:246|467:139,1,161.499995687485,12|8,0:2|0:3,0:0:0:0:
354,19,41504,5,8,0:3:0:0:
320,37,41629,5,8,0:3:0:0:
309,74,41754,5,8,0:3:0:0:
312,112,41879,6,0,P|342:93|372:93,2,53.8333318958283,4|4|4,0:3|0:3|0:3,0:0:0:0:
450,72,42254,5,8,0:0:0:0:
229,158,42441,1,8,0:0:0:0:
509,218,43191,2,0,P|490:206|407:245,1,121.124996765614,12|0,0:2|0:0,0:0:0:0:
367,328,43566,6,0,B|393:270|393:270|351:154,1,161.499995687485,4|8,3:2|0:3,0:0:0:0:
332,150,44035,1,8,0:3:0:0:
332,150,44129,1,0,3:0:0:0:
245,270,44316,1,4,0:3:0:0:
245,270,44410,1,4,0:3:0:0:
245,270,44504,1,0,3:0:0:0:
390,96,44691,1,0,3:0:0:0:
390,96,44785,1,0,3:0:0:0:
390,96,44879,2,0,P|358:69|319:70,1,80.7499978437424,2|4,3:2|3:0,0:0:0:0:
254,115,45160,1,4,3:0:0:0:
254,115,45254,6,0,L|148:125,1,85,6|0,3:2|0:0,0:0:0:0:
332,150,45629,1,2,3:2:0:0:
196,43,45816,2,0,L|89:54,1,85,10|0,0:0|3:0,0:0:0:0:
0,123,46191,1,10,0:0:0:0:
111,51,46379,1,2,3:2:0:0:
80,266,46566,6,0,B|86:153|86:153|73:184|45:194,1,170,14|0,0:0|0:0,0:0:0:0:
9,325,47129,1,2,3:2:0:0:
165,213,47316,2,0,L|159:308,1,85,10|0,0:2|3:0,0:0:0:0:
236,138,47691,1,2,3:2:0:0:
159,297,47879,1,10,0:0:0:0:
404,197,48066,6,0,B|308:179|308:179|286:222|233:221,1,170,6|0,3:2|3:2,0:0:0:0:
404,197,48629,1,10,0:2:0:0:
220,51,48816,2,0,B|234:139|234:139|245:121|261:107,1,127.5,6|0,3:2|0:0,0:0:0:0:
315,58,49191,1,2,3:2:0:0:
154,0,49379,1,10,0:2:0:0:
378,0,49566,6,0,B|402:71|402:71|370:127,1,121.124996765614,6|0,3:2|0:0,0:0:0:0:
349,137,49941,1,8,0:0:0:0:
465,0,50129,1,8,0:0:0:0:
512,218,50316,1,8,0:0:0:0:
400,73,50504,5,8,0:0:0:0:
475,137,50691,1,0,3:0:0:0:
258,209,50879,1,8,0:0:0:0:
512,224,51066,1,8,0:0:0:0:
512,224,51160,1,8,0:0:0:0:
512,224,51254,6,0,B|407:203|407:203|438:254,1,140.25000428009,4|0,3:2|0:0,0:0:0:0:
448,314,51629,2,0,B|346:303,1,93.5000028533936,10|0,0:2|0:0,0:0:0:0:
173,215,52004,2,0,B|266:205,1,93.5000028533936,2|0,3:2|0:0,0:0:0:0:
374,147,52379,1,10,0:0:0:0:
271,290,52566,1,10,0:0:0:0:
278,298,52660,1,8,0:0:0:0:
278,298,52754,5,0,3:2:0:0:
211,78,52941,1,2,0:0:0:0:
430,210,53129,2,0,P|455:162|417:82,1,140.25000428009,10|0,0:0|0:0,0:0:0:0:
396,65,53504,1,2,3:2:0:0:
512,220,53691,1,0,3:2:0:0:
281,155,53879,2,0,L|378:147,1,93.5000028533936,10|8,0:0|0:0,0:0:0:0:
264,186,54160,1,8,0:0:0:0:
264,186,54254,6,0,L|117:168,1,140.25000428009,4|0,3:2|0:0,0:0:0:0:
90,236,54629,2,0,L|75:342,1,93.5000028533936,10|0,0:2|0:0,0:0:0:0:
64,31,55004,2,0,L|47:135,1,93.5000028533936,2|0,3:2|0:0,0:0:0:0:
9,252,55379,1,10,0:0:0:0:
172,98,55566,1,10,0:0:0:0:
172,98,55660,1,8,0:0:0:0:
172,98,55754,5,0,3:0:0:0:
0,172,55941,1,2,0:0:0:0:
243,45,56129,2,0,B|268:90|268:90|239:190,1,140.25000428009,10|0,0:0|0:0,0:0:0:0:
219,203,56504,1,2,3:2:0:0:
351,146,56691,1,0,3:2:0:0:
148,262,56879,2,0,L|132:164,1,93.5000028533936,10|8,0:0|0:3,0:0:0:0:
178,288,57160,1,8,0:3:0:0:
178,288,57254,6,0,B|258:276|258:276|270:305|307:311,1,140.25000428009,4|0,3:2|0:0,0:0:0:0:
386,321,57629,2,0,L|368:222,1,93.5000028533936,10|0,0:0|0:0,0:0:0:0:
469,91,58004,2,0,L|451:192,1,93.5000028533936,2|0,3:2|0:0,0:0:0:0:
402,3,58379,1,10,0:0:0:0:
247,132,58566,1,8,0:0:0:0:
247,132,58660,1,8,0:0:0:0:
247,132,58754,6,0,B|304:124|304:124|328:141|328:141|383:135,1,140.25000428009,2|0,3:2|0:0,0:0:0:0:
452,183,59129,2,0,L|469:91,1,93.5000028533936,10|0,0:0|0:0,0:0:0:0:
375,220,59504,1,2,3:2:0:0:
469,91,59691,1,0,3:0:0:0:
427,282,59879,2,0,P|392:303|339:295,1,93.5000028533936,10|0,0:0|0:0,0:0:0:0:
203,119,60254,6,0,B|229:226|229:226|201:245|199:299,2,187.000005706787,6|8|2,3:2|0:0|3:2,0:0:0:0:
284,282,61191,1,0,3:0:0:0:
138,191,61379,1,8,0:2:0:0:
358,336,61566,6,0,B|385:287|385:287|352:202,1,140.25000428009,6|0,3:2|0:0,0:0:0:0:
330,182,61941,1,8,0:0:0:0:
471,252,62129,1,8,0:0:0:0:
259,351,62316,1,0,3:0:0:0:
423,164,62504,1,10,0:0:0:0:
429,174,62597,1,8,0:0:0:0:
259,264,62785,1,8,0:0:0:0:
217,267,62879,1,8,0:3:0:0:
178,251,62972,1,8,0:3:0:0:
151,219,63066,1,4,0:3:0:0:
141,178,63160,1,4,0:3:0:0:
152,137,63254,6,0,B|185:171|185:171|146:281,1,140.25000428009,4|0,3:2|0:0,0:0:0:0:
82,292,63629,2,0,L|97:396,1,93.5000028533936,10|0,0:2|0:0,0:0:0:0:
0,144,64004,2,0,L|14:239,1,93.5000028533936,2|0,3:2|0:0,0:0:0:0:
64,22,64379,1,10,0:2:0:0:
162,218,64566,1,10,0:0:0:0:
162,218,64660,1,8,0:0:0:0:
162,218,64754,5,0,3:0:0:0:
72,103,64941,1,2,0:0:0:0:
224,158,65129,2,0,B|255:200|255:200|225:291,1,140.25000428009,10|0,0:0|0:0,0:0:0:0:
195,296,65504,1,2,3:2:0:0:
331,232,65691,1,0,3:2:0:0:
254,364,65879,2,0,P|215:385|154:375,1,93.5000028533936,10|8,0:0|0:0,0:0:0:0:
277,334,66160,1,8,0:0:0:0:
277,334,66254,6,0,B|313:305|350:327|350:327|421:320,1,140.25000428009,6|0,3:2|0:0,0:0:0:0:
481,359,66629,2,0,L|493:255,1,93.5000028533936,10|0,0:2|0:0,0:0:0:0:
367,135,67004,2,0,L|380:243,1,93.5000028533936,2|0,3:2|0:0,0:0:0:0:
371,52,67379,1,10,0:0:0:0:
293,194,67566,1,10,0:0:0:0:
293,194,67660,1,8,0:0:0:0:
293,194,67754,5,0,3:0:0:0:
440,96,67941,1,2,0:0:0:0:
201,232,68129,2,0,L|214:129,1,93.5000028533936,10|0,0:0|0:0,0:0:0:0:
227,0,68504,1,4,0:3:0:0:
120,159,68691,1,10,0:0:0:0:
120,159,68785,1,8,0:0:0:0:
120,159,68879,1,8,0:0:0:0:
360,73,69066,6,0,B|286:57|286:57|263:89|219:85,1,140.25000428009,6|0,3:2|0:0,0:0:0:0:
161,52,69441,1,2,3:2:0:0:
237,164,69629,1,10,0:2:0:0:
95,3,69816,2,0,B|72:42|72:42|90:90,1,93.5000028533936,2|0,0:2|3:0,0:0:0:0:
151,253,70191,1,2,0:0:0:0:
6,100,70379,1,10,0:0:0:0:
80,295,70566,6,0,P|132:338|205:316,1,140.25000428009,6|0,3:2|0:0,0:0:0:0:
261,274,70941,1,2,3:2:0:0:
13,344,71129,2,0,P|-5:303|8:251,1,93.5000028533936,10|0,0:0|0:0,0:0:0:0:
147,137,71504,1,2,3:2:0:0:
80,295,71691,1,0,3:0:0:0:
217,86,71879,2,0,B|239:127|239:127|222:190,1,93.5000028533936,8|8,0:0|0:0,0:0:0:0:
207,202,72160,1,8,0:0:0:0:
207,202,72254,5,6,3:2:0:0:
255,277,72441,1,0,0:0:0:0:
400,198,72629,1,10,0:0:0:0:
323,369,72816,2,0,B|351:260|351:260|318:240|318:190,1,187.000005706787,2|2,0:0|3:2,0:0:0:0:
381,82,73379,1,10,0:2:0:0:
512,222,73566,6,0,B|395:196|395:196|448:238,1,187.000005706787,6|2,3:2|3:2,0:0:0:0:
488,326,74129,1,10,0:2:0:0:
323,146,74316,2,0,B|304:185|304:185|324:234,1,93.5000028533936,2|0,0:2|3:2,0:0:0:0:
385,318,74691,1,10,0:0:0:0:
385,318,74785,1,8,0:0:0:0:
385,318,74879,1,10,0:0:0:0:
407,87,75066,6,0,B|337:50|337:50|273:85,1,140.25000428009,4|0,3:2|0:0,0:0:0:0:
265,110,75441,1,8,0:0:0:0:
407,3,75629,1,8,0:0:0:0:
464,196,75816,1,8,0:0:0:0:
337,50,76004,1,8,0:0:0:0:
484,96,76191,1,10,0:0:0:0:
307,207,76379,1,10,0:0:0:0:
492,0,76566,1,10,0:0:0:0:
484,96,76754,5,0,3:0:0:0:
244,45,76941,1,2,3:2:0:0:
244,45,77035,1,0,3:0:0:0:
244,45,77129,2,0,B|324:29|324:29|342:60|383:60,1,140.25000428009,12|0,0:0|0:0,0:0:0:0:
403,54,77504,2,0,L|393:145,1,76.4999976654053,2|0,0:0|0:0,0:0:0:0:
302,228,77879,2,0,L|310:152,1,76.4999976654053,2|0,0:0|0:0,0:0:0:0:
82,208,78254,6,0,B|130:201|130:201|161:221|161:221|203:217,1,127.5,6|0,3:2|0:0,0:0:0:0:
227,184,78629,1,10,0:0:0:0:
26,284,78816,2,0,B|-11:228|-11:228|19:129,1,170,2|0,0:0|0:0,0:0:0:0:
87,341,79379,2,0,P|59:364|-4:362,1,85,8|8,0:0|0:0,0:0:0:0:
103,308,79660,1,8,0:0:0:0:
103,308,79754,6,0,P|154:271|240:312,1,127.5,0|0,3:0|0:0,0:0:0:0:
248,321,80129,2,0,L|261:226,1,85,8|0,0:0|0:0,0:0:0:0:
160,86,80504,2,0,L|173:181,1,85,0|0,3:0|3:0,0:0:0:0:
246,22,80879,1,8,0:0:0:0:
171,170,81066,1,2,0:0:0:0:
171,170,81160,1,2,0:0:0:0:
171,170,81254,5,6,3:2:0:0:
267,226,81441,1,2,0:0:0:0:
349,161,81629,1,10,0:0:0:0:
203,327,81816,5,6,3:2:0:0:
250,144,82004,1,2,0:0:0:0:
344,242,82191,1,10,0:0:0:0:
254,23,82379,5,6,3:2:0:0:
256,192,82472,12,0,88754,0:0:0:0:
