osu file format v14

[General]
AudioFilename: audio.mp3
AudioLeadIn: 0
PreviewTime: 51019
Countdown: 0
SampleSet: Soft
StackLeniency: 0.5
Mode: 0
LetterboxInBreaks: 0
WidescreenStoryboard: 1

[Editor]
Bookmarks: 15254,19941,20222,27254,39254,51254,78254
DistanceSpacing: 0.4
BeatDivisor: 8
GridSize: 32
TimelineZoom: 2.899999

[Metadata]
Title:Diamond no Jundo (TV Size)
TitleUnicode:ダイヤモンドの純度 (TV Size)
Artist:Yukinoshita Yukino (CV: Hayami Saori) & Yuigahama Yui (CV: Touyama Nao)
ArtistUnicode:雪ノ下雪乃(CV: 早見沙織)&由比ヶ浜結衣(CV: 東山奈央)
Creator:Irohas
Version:schoolboy's Hard
Source:やはり俺の青春ラブコメはまちがっている。完
Tags:mugiwarasekai komore schoolboy pop jpop j-pop japanese anime toyama yahari ore no seishun lovecome wa machigatte iru. machigatteiru kan my teen romantic comedy is wrong as i expected youth snafu climax third season ending
BeatmapID:2652719
BeatmapSetID:1269543

[Difficulty]
HPDrainRate:5
CircleSize:4
OverallDifficulty:6.2
ApproachRate:8
SliderMultiplier:1.4
SliderTickRate:1

[Events]
//Background and Video events
0,0,"1083735.png",0,0
Video,1240,"video.mp4"
//Break Periods
//Storyboard Layer 0 (Background)
//Storyboard Layer 1 (Fail)
//Storyboard Layer 2 (Pass)
//Storyboard Layer 3 (Foreground)
//Storyboard Layer 4 (Overlay)
//Storyboard Sound Samples

[TimingPoints]
3254,370.37037037037,4,2,1,40,1,0
3254,-133.333333333333,4,2,1,40,0,0
5846,399.334442595674,4,2,1,40,1,0
5846,-133.333333333333,4,2,1,40,0,0
6245,370.37037037037,4,2,1,40,1,0
6245,-117.647058823529,4,2,1,40,0,0
7170,387.096774193548,4,2,1,40,1,0
7363,-123,4,2,1,40,0,0
7541,427.046263345195,4,2,1,40,1,0
7541,-133.333333333333,4,2,1,40,0,0
7754,372.670807453416,4,2,1,40,1,0
7754,-133.333333333333,4,2,1,40,0,0
8126,368.098159509202,4,2,1,40,1,0
8126,-133.333333333333,4,2,1,40,0,0
8494,372.670807453416,4,2,1,40,1,0
8494,-133.333333333333,4,2,1,40,0,0
8866,388.349514563107,4,2,1,40,1,0
9254,370.37037037037,4,2,1,40,1,0
9254,-105.263157894737,4,2,1,40,0,0
10365,-200,4,2,1,40,0,0
11476,400,4,2,1,40,1,0
11676,-109.3,4,2,1,40,0,0
11868,389.61038961039,4,2,1,40,1,0
12254,370.37037037037,4,2,1,40,1,0
12254,-200,4,2,1,40,0,0
13556,375,4,2,1,40,1,0
13743,375,4,2,1,40,1,0
13743,-200,4,2,1,40,0,0
14306,379.746835443039,4,2,1,40,1,0
14495,379.746835443038,4,2,1,40,1,0
14495,-200,4,2,1,40,0,0
15159,-200,4,2,1,5,0,0
15254,375,4,2,1,50,1,0
15254,-125,4,2,1,50,0,0
27254,-111.111111111111,4,2,1,55,0,0
39441,-333.333333333332,4,2,1,55,0,0
40004,-333.333333333332,4,2,1,5,0,0
40191,-111.111111111111,4,2,1,55,0,0
41504,-125,4,2,1,55,0,0
42254,-111.111111111111,4,2,1,55,0,0
42441,-333.333333333333,4,2,1,55,0,0
43004,-333.333333333333,4,2,1,5,0,0
43191,-111.111111111111,4,2,1,55,0,0
51254,-105.263157894737,4,2,1,60,0,1
51441,-105.263157894737,4,2,1,60,0,0
62129,-86.9565217391306,4,2,1,60,0,0
62879,-74.0740740740741,4,2,1,60,0,0
63254,-105.263157894737,4,2,1,60,0,1
63441,-105.263157894737,4,2,1,60,0,0
70941,-86.9565217391306,4,2,1,60,0,0
71129,-105.263157894737,4,2,1,60,0,0
77129,-133.333333333334,4,2,1,60,0,0
77504,-133.333333333334,4,2,1,50,0,0
78254,-111.111111111111,4,2,1,50,0,0
79566,-111.111111111111,4,2,1,55,0,0
82379,-238.095238095238,4,2,1,55,0,0
85004,-312.5,4,2,1,50,0,0
86504,-454.545454545455,4,2,1,20,0,0
88379,-312.5,4,2,1,10,0,0
88754,-312.5,4,2,1,5,0,0

[Colours]
Combo1 : 252,137,174
Combo2 : 168,219,249
Combo3 : 247,254,194

[HitObjects]
418,254,3254,6,0,B|345:251|309:176|335:111|388:89|426:100|426:100|400:129|404:162,1,315.000012016297,2|0,0:0|0:0,0:0:0:0:
511,347,4735,2,0,P|371:280|215:284,1,315.000012016297,2|2,0:0|0:0,0:0:0:0:
144,384,6245,6,0,B|190:333|202:291|195:165|52:200|56:282|105:314,1,297.500005674362,2|2,0:0|0:0,0:0:0:0:
88,316,7363,2,0,P|56:324|22:333,1,52.5000020027161,2|2,0:0|0:0,0:0:0:0:
50,240,7754,6,0,P|100:250|152:260,1,105.000004005432,2|2,0:3|0:3,0:0:0:0:
231,355,8494,2,0,P|277:333|329:334,1,105.000004005432,2|2,0:0|0:3,0:0:0:0:
428,247,9254,6,0,B|469:210|451:136|394:124|394:124|415:191,1,199.499994672775,4|2,0:0|0:0,0:0:0:0:
67,87,10365,2,0,P|175:73|255:0,1,210,2|2,0:0|0:3,0:0:0:0:
260,7,11676,2,0,P|290:13|321:37,1,61.6000018798829,2|2,0:0|0:0,0:0:0:0:
325,44,12062,1,0,0:0:0:0:
394,1,12254,5,4,0:0:0:0:
256,192,12346,12,2,14495,0:0:0:0:
223,305,15254,5,4,0:0:0:0:
41,131,15629,2,0,P|76:91|131:92,1,112,0|0,3:0|3:0,0:0:0:0:
191,157,16191,2,0,L|177:227,1,56,2|0,0:0|3:0,0:0:0:0:
223,305,16566,6,0,P|250:299|277:293,1,56,2|0,0:3|3:0,0:0:0:0:
351,240,16941,2,0,P|381:244|408:255,1,56,2|0,0:3|3:0,0:0:0:0:
483,310,17316,2,0,P|506:261|487:210,1,112,2|0,0:0|0:0,0:0:0:0:
430,141,17879,2,0,L|439:67,1,56,0|2,3:0|0:1,0:0:0:0:
444,77,18160,1,2,0:1:0:0:
452,69,18254,5,0,3:0:0:0:
294,218,18629,2,0,P|239:207|183:197,1,112,0|0,3:0|3:0,0:0:0:0:
114,140,19191,2,0,L|56:150,1,56,2|0,0:0|3:0,0:0:0:0:
179,73,19566,6,0,P|227:68|270:128,2,112,2|2|2,0:3|0:3|0:0,0:0:0:0:
114,140,20504,2,0,L|100:215,1,56,0|0,3:0|0:0,0:0:0:0:
80,286,20879,2,0,P|57:301|30:308,1,56,2|2,3:0|0:1,0:0:0:0:
19,303,21160,1,2,0:1:0:0:
8,297,21254,5,0,3:0:0:0:
194,384,21629,2,0,P|221:354|308:353,1,112,0|0,3:0|3:0,0:0:0:0:
366,295,22191,2,0,P|395:303|426:310,1,56,2|0,0:0|3:0,0:0:0:0:
495,376,22566,6,0,P|502:320|510:265,1,112,2|2,0:3|0:3,0:0:0:0:
454,196,23129,1,0,3:0:0:0:
511,124,23316,2,0,P|458:110|402:95,1,112,2|2,0:0|0:0,0:0:0:0:
340,29,23879,2,0,L|275:40,1,56,0|2,3:0|0:1,0:0:0:0:
277,47,24160,1,2,0:1:0:0:
267,53,24254,6,0,B|147:75|188:-11|38:15,1,224,0|0,3:0|1:0,0:0:0:0:
4,89,25191,2,0,P|11:118|21:161,2,56,2|0|2,0:3|3:0|0:3,0:0:0:0:
53,12,25754,5,2,3:2:0:0:
21,237,26129,1,0,3:0:0:0:
215,83,26504,5,8,0:0:0:0:
238,163,26691,1,8,0:3:0:0:
318,140,26879,1,8,0:0:0:0:
295,60,27066,1,8,0:0:0:0:
302,51,27160,1,8,0:0:0:0:
309,43,27254,6,0,P|377:58|460:78,1,125.999996154785,4|8,0:0|0:0,0:0:0:0:
512,158,27816,2,0,P|485:189|400:181,1,125.999996154785,2|2,0:0|0:0,0:0:0:0:
327,241,28379,2,0,L|311:314,1,62.9999980773926,8|2,0:0|0:0,0:0:0:0:
311,315,28660,1,0,1:0:0:0:
307,327,28754,6,0,P|242:338|167:352,1,125.999996154785,8|8,0:3|0:0,0:0:0:0:
0,166,29504,2,0,P|62:160|111:196,1,125.999996154785,0|8,3:0|0:0,0:0:0:0:
195,154,30066,2,0,L|200:117,1,31.4999990386963,2|2,0:0|0:0,0:0:0:0:
259,66,30254,6,0,P|323:55|366:2,1,125.999996154785,4|8,0:0|0:0,0:0:0:0:
428,73,30816,2,0,P|442:119|441:148,1,62.9999980773926,2|0,0:0|3:0,0:0:0:0:
499,261,31191,2,0,P|498:229|505:198,1,62.9999980773926,2|8,0:0|0:0,0:0:0:0:
420,309,31566,1,2,0:0:0:0:
420,309,31754,6,0,P|363:282|300:275,1,125.999996154785,8|8,0:3|0:0,0:0:0:0:
158,349,32316,2,0,P|204:328|195:252,1,125.999996154785,2|2,0:0|0:0,0:0:0:0:
124,210,32879,2,0,L|60:223,1,62.9999980773926,8|0,0:0|3:0,0:0:0:0:
49,225,33160,1,2,0:0:0:0:
36,226,33254,6,0,P|11:185|52:123,1,125.999996154785,4|8,0:0|0:0,0:0:0:0:
84,41,33816,2,0,P|52:37|23:26,1,62.9999980773926,2|0,0:0|3:0,0:0:0:0:
133,119,34191,2,0,P|195:86|256:91,1,125.999996154785,2|2,0:0|0:0,0:0:0:0:
260,94,34660,1,0,3:0:0:0:
270,100,34754,5,8,0:3:0:0:
346,50,34941,2,0,P|354:18|361:-11,1,62.9999980773926,2|8,0:0|0:0,0:0:0:0:
433,94,35316,2,0,P|470:125|455:218,1,125.999996154785,2|0,0:0|3:0,0:0:0:0:
398,254,35879,2,0,P|366:238|327:238,1,62.9999980773926,8|2,0:0|0:0,0:0:0:0:
328,243,36160,1,2,0:0:0:0:
316,249,36254,6,0,L|330:333,1,62.9999980773926,8|0,0:3|0:0,0:0:0:0:
257,373,36629,1,8,0:0:0:0:
185,312,36816,2,0,P|143:301|60:339,1,125.999996154785,2|2,0:0|0:0,0:0:0:0:
0,209,37379,2,0,P|26:223|67:227,1,62.9999980773926,8|2,0:0|0:0,0:0:0:0:
70,223,37660,1,0,3:0:0:0:
80,216,37754,5,8,0:3:0:0:
147,132,37941,2,0,L|0:109,1,125.999996154785,12|2,0:0|0:3,0:0:0:0:
0,21,38504,1,8,0:0:0:0:
0,21,38691,1,0,3:0:0:0:
89,41,38879,1,12,0:0:0:0:
36,255,39254,5,8,0:0:0:0:
125,235,39442,1,8,0:0:0:0:
125,235,40191,1,12,0:0:0:0:
295,368,40566,2,0,P|354:354|374:270,2,125.999996154785,4|8|0,0:0|0:0|3:0,0:0:0:0:
222,306,41504,6,0,L|214:256,2,37.3333333333333,8|0|0,0:3|3:0|3:0,0:0:0:0:
137,289,41879,2,0,L|143:326,2,37.3333333333333,4|0|0,0:3|3:0|3:0,0:0:0:0:
69,244,42254,5,8,0:0:0:0:
5,176,42441,1,8,0:0:0:0:
5,176,43191,2,0,P|57:162|82:147,1,62.9999980773926,4|0,0:0|0:0,0:0:0:0:
140,85,43566,6,0,L|285:108,1,125.999996154785,4|8,0:0|0:3,0:0:0:0:
274,112,44035,1,0,3:0:0:0:
283,119,44129,1,8,3:0:0:0:
333,185,44316,2,0,L|324:225,1,31.4999990386963,2|0,0:0|3:0,0:0:0:0:
312,292,44504,2,0,P|342:286|373:279,1,62.9999980773926,8|0,0:3|3:0,0:0:0:0:
384,271,44785,1,0,3:0:0:0:
395,265,44879,2,0,L|480:275,1,62.9999980773926,8|0,0:3|3:0,0:0:0:0:
503,277,45160,1,0,3:0:0:0:
503,277,45254,6,0,P|489:213|476:153,1,125.999996154785,4|0,0:0|3:0,0:0:0:0:
497,38,45816,2,0,P|436:43|405:95,1,125.999996154785,8|0,0:0|3:0,0:0:0:0:
476,153,46379,1,2,3:2:0:0:
370,205,46566,6,0,P|310:185|247:186,1,125.999996154785,12|2,0:0|0:0,0:0:0:0:
169,239,47129,1,8,0:0:0:0:
101,171,47316,2,0,P|100:112|154:85,1,125.999996154785,8|8,0:0|0:3,0:0:0:0:
233,33,47879,1,8,0:0:0:0:
326,128,48066,6,0,L|305:252,1,125.999996154785,4|2,0:0|0:0,0:0:0:0:
366,325,48629,1,8,0:0:0:0:
293,384,48816,2,0,P|231:370|168:363,1,125.999996154785,4|8,0:0|0:3,0:0:0:0:
89,384,49379,1,8,0:0:0:0:
11,275,49566,6,0,P|71:287|118:248,1,125.999996154785,4|8,0:0|0:0,0:0:0:0:
165,171,50129,1,8,0:0:0:0:
220,245,50316,1,8,0:0:0:0:
271,145,50504,1,12,0:0:0:0:
273,133,50879,2,0,P|273:101|264:71,1,62.9999980773926,8|8,0:0|0:0,0:0:0:0:
201,30,51160,1,8,0:0:0:0:
192,26,51254,5,4,0:0:0:0:
368,179,51629,2,0,P|432:167|482:207,2,132.999996448517,8|0|8,0:0|3:0|0:0,0:0:0:0:
301,244,52566,2,0,L|288:296,2,33.2499991121292,0|0|8,3:0|3:0|3:0,0:0:0:0:
227,96,52941,5,2,0:0:0:0:
171,177,53129,2,0,B|154:195|154:195|22:173,2,132.999996448517,8|0|8,0:0|3:0|0:0,0:0:0:0:
227,96,54066,1,0,3:0:0:0:
154,32,54254,5,4,0:0:0:0:
147,42,54629,2,0,P|81:55|16:68,2,132.999996448517,8|8|8,0:0|0:3|0:0,0:0:0:0:
226,163,55566,2,0,P|166:184|113:149,1,132.999996448517,2|2,0:0|0:0,0:0:0:0:
30,190,56129,6,0,P|18:222|14:255,1,66.4999982242585,8|2,0:0|0:0,0:0:0:0:
117,358,56504,2,0,P|116:325|103:295,1,66.4999982242585,8|0,0:3|3:0,0:0:0:0:
177,232,56879,2,0,L|241:250,1,66.4999982242585,8|0,0:0|3:0,0:0:0:0:
254,254,57160,1,0,3:0:0:0:
266,257,57254,5,4,0:0:0:0:
494,128,57629,2,0,L|425:145,1,66.4999982242585,10|2,0:0|0:0,0:0:0:0:
355,86,58004,2,0,P|358:53|364:21,1,66.4999982242585,10|0,0:3|0:0,0:0:0:0:
260,152,58379,2,0,P|265:184|269:217,1,66.4999982242585,10|0,0:0|0:0,0:0:0:0:
209,276,58660,1,0,3:0:0:0:
202,280,58754,6,0,L|134:293,1,66.4999982242585,8|0,0:3|0:0,0:0:0:0:
0,212,59129,2,0,L|68:225,1,66.4999982242585,10|0,0:0|0:0,0:0:0:0:
69,366,59504,2,0,L|3:378,1,66.4999982242585,8|0,0:3|0:0,0:0:0:0:
136,292,59879,2,0,L|201:304,1,66.4999982242585,8|0,0:0|0:0,0:0:0:0:
322,368,60254,6,0,P|381:338|447:340,1,132.999996448517,4|8,0:0|0:0,0:0:0:0:
429,63,61004,2,0,L|405:193,1,132.999996448517,8|8,0:3|0:0,0:0:0:0:
317,247,61566,6,0,P|252:235|186:227,1,132.999996448517,4|8,0:0|0:0,0:0:0:0:
43,177,62129,2,0,P|82:180|118:163,1,80.5000015354157,8|0,0:0|3:0,0:0:0:0:
183,92,62504,2,0,L|190:40,3,40.2500007677078,8|8|8|8,0:0|0:3|0:3|0:3,0:0:0:0:
251,5,62879,2,0,L|300:11,3,47.2500001802444,8|0|0|2,0:3|3:3|3:3|0:0,0:0:0:0:
361,60,63254,5,4,0:0:0:0:
369,68,63629,2,0,P|420:63|473:2,2,132.999996448517,8|8|8,0:0|0:3|0:0,0:0:0:0:
302,131,64566,2,0,L|294:169,2,33.2499991121292,2|0|8,0:0|3:0|0:3,0:0:0:0:
371,218,64941,5,2,0:0:0:0:
294,281,65129,2,0,B|231:291|231:291|230:292|230:292|137:308,2,132.999996448517,8|8|8,0:0|0:3|0:0,0:0:0:0:
371,218,66066,1,2,0:0:0:0:
389,312,66254,5,4,0:0:0:0:
261,111,66629,2,0,P|271:49|345:42,2,132.999996448517,8|8|8,0:0|0:3|0:0,0:0:0:0:
204,205,67566,6,0,P|137:217|73:229,1,132.999996448517,2|2,0:0|0:0,0:0:0:0:
0,88,68129,2,0,P|55:81|121:141,1,132.999996448517,8|8,0:0|0:3,0:0:0:0:
197,79,68691,1,8,0:3:0:0:
203,67,68785,1,0,3:0:0:0:
209,55,68879,1,8,0:0:0:0:
273,136,69066,6,0,P|337:151|401:169,1,132.999996448517,4|0,0:0|3:0,0:0:0:0:
454,293,69629,1,8,0:0:0:0:
508,233,69816,2,0,P|442:245|377:256,1,132.999996448517,2|2,0:0|0:0,0:0:0:0:
310,325,70379,1,8,0:0:0:0:
235,239,70566,6,0,P|245:186|265:165,1,66.4999982242585,4|0,0:0|0:0,0:0:0:0:
200,94,70941,1,2,0:0:0:0:
133,158,71129,2,0,L|45:170,1,66.4999982242585,8|2,0:0|0:0,0:0:0:0:
274,34,71504,2,0,P|308:37|341:53,1,66.4999982242585,8|0,0:3|0:0,0:0:0:0:
413,116,71879,2,0,L|434:18,1,99.7499973363877,8|0,0:0|3:0,0:0:0:0:
439,1,72254,6,0,P|502:26|505:91,1,132.999996448517,4|8,0:0|0:0,0:0:0:0:
461,181,72816,2,0,P|402:150|336:152,1,132.999996448517,2|2,0:0|0:0,0:0:0:0:
263,215,73379,1,8,0:0:0:0:
181,148,73566,6,0,P|157:13|155:-1,1,132.999996448517,4|2,0:0|0:0,0:0:0:0:
157,17,74129,1,8,0:0:0:0:
86,86,74316,2,0,P|53:81|22:55,1,66.4999982242585,2|0,0:0|3:0,0:0:0:0:
161,147,74691,2,0,L|172:196,2,33.2499991121292,2|8|8,0:0|0:0|0:0,0:0:0:0:
95,253,75066,6,0,P|161:265|225:281,1,132.999996448517,4|8,0:0|0:0,0:0:0:0:
293,341,75629,1,8,0:0:0:0:
364,268,75816,2,0,P|355:213|343:184,1,66.4999982242585,8|8,0:0|0:0,0:0:0:0:
471,361,76191,2,0,P|480:306|492:277,1,66.4999982242585,8|8,0:0|0:0,0:0:0:0:
351,203,76566,6,0,L|275:214,1,66.4999982242585,8|0,0:0|3:0,0:0:0:0:
197,163,76941,1,0,3:0:0:0:
188,152,77035,1,0,3:0:0:0:
186,137,77129,6,0,L|203:21,2,105.000004005432,4|2|2,0:0|0:0|0:0,0:0:0:0:
0,230,78254,6,0,P|61:235|103:280,1,125.999996154785,4|8,0:0|0:0,0:0:0:0:
179,341,78816,2,0,P|241:330|303:320,1,125.999996154785,2|0,0:0|0:0,0:0:0:0:
375,253,79379,2,0,L|456:268,1,62.9999980773926,8|0,0:0|3:0,0:0:0:0:
448,268,79660,1,0,3:0:0:0:
460,271,79754,6,0,P|491:214|445:155,1,125.999996154785,8|8,0:3|0:0,0:0:0:0:
472,63,80316,2,0,P|420:100|359:113,1,125.999996154785,2|2,0:0|0:0,0:0:0:0:
276,72,80879,1,12,0:0:0:0:
201,133,81066,2,0,L|187:186,1,31.4999990386963,2|2,0:0|0:0,0:0:0:0:
128,214,81254,6,0,L|42:228,2,62.9999980773926,4|2|8,0:0|0:0|0:0,0:0:0:0:
219,293,81816,1,4,0:0:0:0:
302,251,82004,1,2,0:0:0:0:
224,200,82191,1,8,0:0:0:0:
296,341,82379,6,0,B|464:397|572:294|556:146|527:34|373:7|305:139|400:211,1,646.799980261231,4|0,0:0|0:0,0:0:0:0:
256,192,86597,12,0,88754,0:0:0:0:
