osu file format v14

[General]
AudioFilename: audio.mp3
AudioLeadIn: 0
PreviewTime: 51019
Countdown: 0
SampleSet: Soft
StackLeniency: 0.5
Mode: 0
LetterboxInBreaks: 0
WidescreenStoryboard: 1

[Editor]
Bookmarks: 15254,27254,39254,51254,78254
DistanceSpacing: 0.9
BeatDivisor: 4
GridSize: 32
TimelineZoom: 1

[Metadata]
Title:Diamond no Jundo (TV Size)
TitleUnicode:ダイヤモンドの純度 (TV Size)
Artist:Yukinoshita Yukino (CV: Hayami Saori) & Yuigahama Yui (CV: Touyama Nao)
ArtistUnicode:雪ノ下雪乃(CV: 早見沙織)&由比ヶ浜結衣(CV: 東山奈央)
Creator:Irohas
Version:Normal
Source:やはり俺の青春ラブコメはまちがっている。完
Tags:mugiwarasekai komore schoolboy pop jpop j-pop japanese anime toyama yahari ore no seishun lovecome wa machigatte iru. machigatteiru kan my teen romantic comedy is wrong as i expected youth snafu climax third season ending
BeatmapID:2652718
BeatmapSetID:1269543

[Difficulty]
HPDrainRate:4
CircleSize:3.5
OverallDifficulty:4
ApproachRate:5
SliderMultiplier:1.1
SliderTickRate:1

[Events]
//Background and Video events
0,0,"1083735.png",0,0
Video,1240,"video.mp4"
//Break Periods
//Storyboard Layer 0 (Background)
//Storyboard Layer 1 (Fail)
//Storyboard Layer 2 (Pass)
//Storyboard Layer 3 (Foreground)
//Storyboard Layer 4 (Overlay)
//Storyboard Sound Samples

[TimingPoints]
3254,370.37037037037,4,2,1,40,1,0
3254,-100,4,2,1,40,0,0
5846,399.334442595674,4,2,1,40,1,0
5846,-100,4,2,1,40,0,0
6245,370.37037037037,4,2,1,40,1,0
6245,-100,4,2,1,40,0,0
7170,387.096774193548,4,2,1,40,1,0
7363,-100,4,2,1,40,0,0
7541,427.046263345195,4,2,1,40,1,0
7541,-100,4,2,1,40,0,0
7754,372.670807453416,4,2,1,40,1,0
7754,-100,4,2,1,40,0,0
8126,368.098159509202,4,2,1,40,1,0
8126,-100,4,2,1,40,0,0
8494,372.670807453416,4,2,1,40,1,0
8494,-100,4,2,1,40,0,0
8866,388.349514563107,4,2,1,40,1,0
9254,370.37037037037,4,2,1,40,1,0
9254,-100,4,2,1,40,0,0
10365,-100,4,2,1,40,0,0
11476,400,4,2,1,40,1,0
11676,-100,4,2,1,40,0,0
11868,389.61038961039,4,2,1,40,1,0
12254,370.37037037037,4,2,1,40,1,0
12254,-100,4,2,1,40,0,0
13556,375,4,2,1,40,1,0
13743,375,4,2,1,40,1,0
13743,-100,4,2,1,40,0,0
14306,379.746835443039,4,2,1,40,1,0
14495,379.746835443038,4,2,1,40,1,0
14495,-100,4,2,1,40,0,0
15159,-100,4,2,1,5,0,0
15254,375,4,2,1,50,1,0
15254,-100,4,2,1,50,0,0
27254,-100,4,2,1,55,0,0
39441,-100,4,2,1,55,0,0
40004,-100,4,2,1,5,0,0
40191,-100,4,2,1,55,0,0
41504,-100,4,2,1,55,0,0
42254,-100,4,2,1,55,0,0
42441,-100,4,2,1,55,0,0
43004,-100,4,2,1,5,0,0
43191,-100,4,2,1,55,0,0
51254,-100,4,2,1,60,0,1
51441,-100,4,2,1,60,0,0
62129,-100,4,2,1,60,0,0
62879,-100,4,2,1,60,0,0
63254,-100,4,2,1,60,0,1
63441,-100,4,2,1,60,0,0
70941,-100,4,2,1,60,0,0
71129,-100,4,2,1,60,0,0
77129,-100,4,2,1,60,0,0
77504,-100,4,2,1,50,0,0
78254,-100,4,2,1,50,0,0
79566,-100,4,2,1,55,0,0
82379,-100,4,2,1,55,0,0
85004,-100,4,2,1,50,0,0
86504,-100,4,2,1,20,0,0
88379,-100,4,2,1,10,0,0
88754,-100,4,2,1,5,0,0

[Colours]
Combo1 : 252,137,174
Combo2 : 168,219,249
Combo3 : 247,254,194

[HitObjects]
404,288,3254,6,0,P|454:281|510:372,2,165,2|2|0,0:0|0:3|0:0,0:0:0:0:
331,220,4735,2,0,P|342:151|356:56,2,165,2|2|2,0:0|0:3|0:0,0:0:0:0:
234,265,6245,6,0,P|170:224|85:236,1,165,2|2,0:0|0:3,0:0:0:0:
15,172,7170,2,0,P|19:140|29:107,1,55,2|2,0:0|0:0,0:0:0:0:
13,106,7541,1,2,0:0:0:0:
13,106,7754,2,0,L|132:87,1,110,2|2,0:3|0:3,0:0:0:0:
208,134,8494,2,0,L|316:116,1,110,2|2,0:0|0:3,0:0:0:0:
408,68,9254,6,0,P|487:101|484:177,2,165,4|2|2,0:0|0:0|0:0,0:0:0:0:
312,245,11676,1,2,0:0:0:0:
312,245,11868,2,0,L|320:306,1,55,2|2,0:0|0:0,0:0:0:0:
302,323,12254,6,0,P|230:355|145:335,1,165,4|2,0:0|0:0,0:0:0:0:
77,268,13179,2,0,L|86:209,1,55,0|2,0:0|0:3,0:0:0:0:
93,191,13550,1,0,0:0:0:0:
93,191,13743,1,2,0:3:0:0:
0,69,14495,6,0,P|104:54|217:38,1,220,2|4,0:0|0:0,0:0:0:0:
294,100,15629,2,0,L|277:216,1,110,0|0,3:0|3:0,0:0:0:0:
287,230,16191,1,2,0:0:0:0:
347,308,16566,2,0,P|399:314|441:276,2,110,2|2|2,0:3|0:3|0:0,0:0:0:0:
327,327,17504,2,0,P|285:322|210:313,1,110,0|0,3:0|3:0,0:0:0:0:
132,364,18254,5,0,3:0:0:0:
48,310,18629,2,0,P|34:261|57:198,1,110,0|0,3:0|3:0,0:0:0:0:
73,191,19191,1,2,0:0:0:0:
150,129,19566,2,0,L|130:8,2,110,2|2|2,0:3|0:3|0:0,0:0:0:0:
169,147,20504,2,0,P|216:155|273:127,1,110,0|2,3:0|3:0,0:0:0:0:
340,59,21254,6,0,L|452:42,1,110,0|0,3:0|3:0,0:0:0:0:
509,127,22004,1,0,3:0:0:0:
509,127,22191,2,0,L|491:235,1,110,2|2,0:0|0:3,0:0:0:0:
424,308,22941,1,2,0:3:0:0:
326,288,23316,1,2,0:0:0:0:
229,266,23691,2,0,P|184:273|110:285,1,110,2|2,0:0|0:1,0:0:0:0:
99,267,24254,6,0,P|84:232|107:159,1,110,0|0,3:0|3:0,0:0:0:0:
170,93,25004,2,0,L|159:35,2,55,0|2|0,1:0|0:3|3:0,0:0:0:0:
195,114,25566,1,2,0:3:0:0:
195,114,25754,2,0,P|237:108|310:98,1,110,2|0,3:2|3:0,0:0:0:0:
391,51,26504,1,8,0:0:0:0:
454,126,26879,2,8,L|445:188,1,55
440,208,27254,5,4,0:0:0:0:
403,302,27629,1,8,0:0:0:0:
403,302,27816,2,0,P|448:299|501:361,2,110,2|2|2,0:0|0:0|0:0,0:0:0:0:
380,287,28754,2,0,P|338:293|264:304,1,110,8|8,0:3|0:0,0:0:0:0:
194,365,29504,1,0,3:0:0:0:
111,310,29879,1,8,0:0:0:0:
23,357,30254,6,0,P|7:319|28:252,1,110,4|8,0:0|0:0,0:0:0:0:
45,240,30816,2,0,P|38:199|26:123,1,110,2|2,0:0|0:0,0:0:0:0:
96,61,31566,1,2,0:0:0:0:
96,61,31754,2,0,L|207:42,1,110,8|8,0:3|0:0,0:0:0:0:
284,100,32504,2,0,L|351:108,1,55,0|2,3:0|0:0,0:0:0:0:
365,111,32879,1,8,0:0:0:0:
464,87,33254,5,4,0:0:0:0:
464,87,33441,2,0,P|457:125|443:204,2,110,0|2|2,0:0|0:0|0:0,0:0:0:0:
408,4,34566,1,2,0:0:0:0:
324,57,34941,2,0,P|273:66|220:36,1,110,2|2,0:0|0:0,0:0:0:0:
128,9,35691,2,0,P|84:16|57:72,1,110,2|2,3:2|0:0,0:0:0:0:
41,93,36254,6,0,P|50:151|60:206,1,110,8|8,0:3|0:0,0:0:0:0:
45,225,36816,1,2,0:0:0:0:
113,296,37191,2,0,L|105:361,2,55,2|8|2,0:0|0:0|0:0,0:0:0:0:
138,286,37754,1,8,0:3:0:0:
142,282,37941,1,12,0:0:0:0:
233,239,38316,1,2,0:3:0:0:
238,243,38504,2,0,P|287:249|358:258,1,110,8|12,0:0|0:0,0:0:0:0:
420,190,39254,6,8,L|410:130,1,55,8|8,0:0|0:0,0:0:0:0:
251,18,40191,1,12,0:0:0:0:
176,83,40566,2,0,P|133:85|103:143,2,110,4|8|0,0:0|0:0|3:0,0:0:0:0:
200,96,41504,1,8,0:3:0:0:
281,152,41879,1,4,0:3:0:0:
363,97,42254,6,8,L|428:88,1,55,8|8,0:0|0:0,0:0:0:0:
510,264,43191,1,4,0:0:0:0:
433,324,43566,2,0,P|390:318|318:308,1,110,4|8,0:0|0:3,0:0:0:0:
308,285,44129,2,8,P|300:246|284:169,2,110,0|8|8,3:0|0:3|0:3,0:0:0:0:
243,360,45254,6,0,P|187:372|135:344,1,110,4|0,0:0|3:0,0:0:0:0:
123,331,45816,1,8,0:0:0:0:
59,255,46191,2,0,P|64:219|75:190,1,55,0|2,3:0|3:2,0:0:0:0:
51,183,46566,2,0,P|90:194|188:128,1,165,12|8,0:0|0:0,0:0:0:0:
195,104,47316,1,8,0:0:0:0:
283,147,47691,2,0,L|351:137,1,55,8|8,0:3|0:0,0:0:0:0:
356,150,48066,6,0,P|350:192|331:322,1,165,4|8,0:0|0:0,0:0:0:0:
330,341,48816,1,4,0:0:0:0:
235,312,49191,2,0,L|175:320,1,55,8|8,0:3|0:0,0:0:0:0:
158,337,49566,2,0,L|35:318,1,110,4|8,0:0|0:0,0:0:0:0:
23,329,50129,2,8,L|31:387,2,55,8|8|12,0:0|0:0|0:0,0:0:0:0:
58,237,50879,2,8,L|50:179,1,55,8|8,0:0|0:0,0:0:0:0:
29,165,51254,6,0,L|147:146,1,110,4|8,0:0|0:0,0:0:0:0:
217,206,52004,2,0,L|325:188,1,110,0|8,3:0|0:0,0:0:0:0:
346,207,52566,2,0,P|384:222|455:197,1,110,0|2,3:0|0:0,0:0:0:0:
464,181,53129,1,8,0:0:0:0:
506,91,53504,2,0,L|397:73,1,110,0|8,3:0|0:0,0:0:0:0:
316,16,54254,5,4,0:0:0:0:
253,87,54629,2,0,P|259:133|269:212,2,110,8|8|8,0:0|0:3|0:0,0:0:0:0:
234,67,55566,2,0,P|184:52|129:66,1,110,2|2,0:0|0:0,0:0:0:0:
109,85,56129,1,8,0:0:0:0:
43,159,56504,2,0,P|49:205|59:284,1,110,8|8,0:3|0:0,0:0:0:0:
12,356,57254,6,0,P|59:346|127:331,1,110,4|10,0:0|0:0,0:0:0:0:
197,272,58004,1,10,0:3:0:0:
281,323,58379,1,10,0:0:0:0:
348,250,58754,2,0,P|342:213|330:134,2,110,8|10|8,0:3|0:0|0:3,0:0:0:0:
281,323,59879,1,8,0:0:0:0:
365,371,60254,6,0,P|419:382|511:262,1,220,4|8,0:0|0:3,0:0:0:0:
450,191,61379,1,8,0:0:0:0:
450,191,61566,2,0,P|458:144|470:69,1,110,4|8,0:0|0:0,0:0:0:0:
476,56,62129,1,8,0:0:0:0:
393,0,62504,2,0,P|336:-4|287:44,1,110,8|8,0:0|0:3,0:0:0:0:
219,89,63254,6,0,P|158:83|96:77,1,110,4|8,0:0|0:0,0:0:0:0:
24,129,64004,2,0,P|31:175|43:247,1,110,8|8,0:3|0:0,0:0:0:0:
55,262,64566,2,0,P|112:264|141:311,1,110,2|2,0:0|0:0,0:0:0:0:
145,332,65129,1,8,0:0:0:0:
235,371,65504,2,0,L|350:355,1,110,8|8,0:3|0:0,0:0:0:0:
419,291,66254,5,4,0:0:0:0:
491,358,66629,2,0,P|499:316|514:235,1,110,8|8,0:0|0:3,0:0:0:0:
451,182,67379,1,8,0:0:0:0:
451,182,67566,2,0,P|440:143|459:75,1,110,2|2,0:0|0:0,0:0:0:0:
480,61,68129,1,8,0:0:0:0:
399,12,68504,1,8,0:3:0:0:
399,12,68691,2,8,L|332:25,1,55,8|8,0:3|0:0,0:0:0:0:
328,44,69066,6,0,B|251:52|242:-1|165:23,1,165,4|8,0:0|0:0,0:0:0:0:
94,88,70004,2,0,L|31:82,2,55,8|2|8,0:3|0:0|0:0,0:0:0:0:
116,102,70566,1,4,0:0:0:0:
199,164,70941,1,2,0:0:0:0:
199,164,71129,2,0,L|310:148,2,110,8|8|8,0:0|0:3|0:0,0:0:0:0:
133,238,72254,6,0,P|112:290|129:348,1,110,4|8,0:0|0:0,0:0:0:0:
142,361,72816,1,2,0:0:0:0:
235,329,73191,2,0,L|301:339,1,55,2|8,0:0|0:0,0:0:0:0:
314,325,73566,2,0,P|353:331|432:343,1,110,4|2,0:0|0:0,0:0:0:0:
448,330,74129,1,8,0:0:0:0:
454,328,74316,2,0,P|469:280|448:213,1,110,2|2,0:0|0:0,0:0:0:0:
377,161,75066,1,4,0:0:0:0:
256,192,75441,12,4,77129,0:0:0:0:
14,38,78254,6,0,L|29:148,1,110,4|8,0:0|0:0,0:0:0:0:
11,168,78816,2,0,P|-10:221|5:281,1,110,2|2,0:0|0:0,0:0:0:0:
17,293,79379,1,8,0:0:0:0:
87,362,79754,2,0,P|126:371|190:332,1,110,8|8,0:3|0:0,0:0:0:0:
279,307,80504,2,0,L|338:315,1,55,0|2,3:3|0:0,0:0:0:0:
360,320,80879,1,12,0:0:0:0:
447,273,81254,6,0,L|463:163,1,110,4|8,0:0|0:0,0:0:0:0:
441,150,81816,2,0,L|456:35,1,110,4|8,0:0|0:0,0:0:0:0:
432,26,82379,2,0,B|246:-37|234:178|15:95,1,440,4|0,0:0|0:0,0:0:0:0:
256,192,84254,12,0,88754,0:0:0:0:
