osu file format v14

[General]
AudioFilename: audio.mp3
AudioLeadIn: 0
PreviewTime: 51019
Countdown: 0
SampleSet: Soft
StackLeniency: 0.5
Mode: 0
LetterboxInBreaks: 0
WidescreenStoryboard: 0

[Editor]
Bookmarks: 15254,27254,39254,51254,78254
DistanceSpacing: 3
BeatDivisor: 8
GridSize: 32
TimelineZoom: 1.7

[Metadata]
Title:Diamond no Jundo (TV Size)
TitleUnicode:ダイヤモンドの純度 (TV Size)
Artist:Yukinoshita Yukino (CV: Hayami Saori) & Yuigahama Yui (CV: Touyama Nao)
ArtistUnicode:雪ノ下雪乃(CV: 早見沙織)&由比ヶ浜結衣(CV: 東山奈央)
Creator:Irohas
Version:Insane
Source:やはり俺の青春ラブコメはまちがっている。完
Tags:mugiwarasekai komore schoolboy pop jpop j-pop japanese anime toyama yahari ore no seishun lovecome wa machigatte iru. machigatteiru kan my teen romantic comedy is wrong as i expected youth snafu climax third season ending
BeatmapID:2638311
BeatmapSetID:1269543

[Difficulty]
HPDrainRate:6
CircleSize:5
OverallDifficulty:7
ApproachRate:8
SliderMultiplier:1.6
SliderTickRate:1

[Events]
//Background and Video events
0,0,"1083735.png",0,0
Video,1240,"video.mp4"
//Break Periods
//Storyboard Layer 0 (Background)
//Storyboard Layer 1 (Fail)
//Storyboard Layer 2 (Pass)
//Storyboard Layer 3 (Foreground)
//Storyboard Layer 4 (Overlay)
//Storyboard Sound Samples

[TimingPoints]
3254,370.37037037037,4,2,1,40,1,0
3254,-133.333333333333,4,2,1,40,0,0
5846,399.334442595674,4,2,1,40,1,0
5846,-133.333333333333,4,2,1,40,0,0
6245,370.37037037037,4,2,1,40,1,0
6245,-133.333333333333,4,2,1,40,0,0
7170,387.096774193548,4,2,1,40,1,0
7541,427.046263345195,4,2,1,40,1,0
7541,-133.333333333333,4,2,1,40,0,0
7754,372.670807453416,4,2,1,40,1,0
7754,-133.333333333333,4,2,1,40,0,0
8126,368.098159509202,4,2,1,40,1,0
8126,-133.333333333333,4,2,1,40,0,0
8494,372.670807453416,4,2,1,40,1,0
8494,-133.333333333333,4,2,1,40,0,0
8866,388.349514563107,4,2,1,40,1,0
9254,370.37037037037,4,2,1,40,1,0
9254,-133.333333333333,4,2,1,40,0,0
10365,-200,4,2,1,40,0,0
11476,400,4,2,1,40,1,0
11868,389.61038961039,4,2,1,40,1,0
12254,370.37037037037,4,2,1,40,1,0
12254,-200,4,2,1,40,0,0
13556,375,4,2,1,40,1,0
13743,375,4,2,1,40,1,0
13743,-200,4,2,1,40,0,0
14306,379.746835443039,4,2,1,40,1,0
14495,379.746835443038,4,2,1,40,1,0
14495,-200,4,2,1,40,0,0
15159,-200,4,2,1,5,0,0
15254,375,4,2,1,50,1,0
15254,-125,4,2,1,50,0,0
27254,-111.111111111111,4,2,1,55,0,0
39441,-333.333333333332,4,2,1,55,0,0
40004,-333.333333333332,4,2,1,5,0,0
40191,-111.111111111111,4,2,1,55,0,0
41504,-125,4,2,1,55,0,0
42254,-111.111111111111,4,2,1,55,0,0
42441,-333.333333333333,4,2,1,55,0,0
43004,-333.333333333333,4,2,1,5,0,0
43191,-111.111111111111,4,2,1,55,0,0
51254,-105.263157894737,4,2,1,60,0,1
51441,-105.263157894737,4,2,1,60,0,0
63254,-105.263157894737,4,2,1,60,0,1
63441,-105.263157894737,4,2,1,60,0,0
70941,-86.9565217391306,4,2,1,60,0,0
71129,-105.263157894737,4,2,1,60,0,0
77129,-133.333333333334,4,2,1,60,0,0
77504,-133.333333333334,4,2,1,50,0,0
79566,-111.111111111111,4,2,1,55,0,0
82379,-312.5,4,2,1,55,0,0
85004,-312.5,4,2,1,50,0,0
86504,-312.5,4,2,1,40,0,0
87254,-312.5,4,2,1,30,0,0
88004,-312.5,4,2,1,20,0,0
88379,-312.5,4,2,1,10,0,0
88754,-312.5,4,2,1,5,0,0

[Colours]
Combo1 : 252,137,174
Combo2 : 168,219,249
Combo3 : 247,254,194

[HitObjects]
505,345,3254,6,0,P|468:303|403:304,1,120.000004577637,2|2,0:0|0:0,0:0:0:0:
322,268,3809,2,0,P|281:275|200:290,2,120.000004577637,2|2|2,0:3|0:0|0:0,0:0:0:0:
396,209,4735,6,0,P|416:159|399:92,1,120.000004577637,2|2,0:0|0:0,0:0:0:0:
446,20,5291,2,0,P|388:54|331:43,1,120.000004577637,2|2,0:3|0:0,0:0:0:0:
259,88,5846,2,0,L|183:78,1,60.0000022888184,2|0,0:0|0:0,0:0:0:0:
96,7,6245,6,0,L|113:137,1,120.000004577637,2|0,0:0|0:0,0:0:0:0:
49,192,6800,1,2,0:3:0:0:
177,384,7170,5,2,0:0:0:0:
206,306,7363,1,2,0:0:0:0:
283,280,7541,1,2,0:0:0:0:
361,312,7754,6,0,P|381:274|367:197,1,120.000004577637,2|2,0:3|0:3,0:0:0:0:
57,147,8494,2,0,P|90:157|167:117,1,120.000004577637,2|2,0:0|0:3,0:0:0:0:
345,72,9060,1,2,0:0:0:0:
266,0,9254,6,0,L|250:124,1,120.000004577637,4|2,0:0|0:0,0:0:0:0:
317,182,9809,2,0,L|343:179,1,15.0000005722046,2|0,0:0|0:0,0:0:0:0:
304,369,10179,1,2,0:0:0:0:
230,318,10365,6,0,B|125:278|111:385|-3:349,1,240,2|2,0:0|0:3,0:0:0:0:
264,235,11676,1,2,0:0:0:0:
347,249,11868,1,2,0:0:0:0:
427,267,12062,1,2,0:0:0:0:
493,204,12254,6,0,P|478:155|482:83,2,120,4|2|2,0:0|0:0|0:3,0:0:0:0:
344,364,13556,1,2,0:0:0:0:
338,361,13649,1,2,0:0:0:0:
331,357,13743,6,0,P|318:300|348:247,1,120,2|0,0:3|0:0,0:0:0:0:
411,196,14495,6,0,P|339:207|265:219,1,140,2|0,0:0|0:0,0:0:0:0:
215,155,15254,6,0,L|236:22,2,128,4|0|0,0:0|3:0|3:0,0:0:0:0:
148,224,16191,2,0,P|115:236|85:234,1,64,2|0,0:0|3:0,0:0:0:0:
215,155,16566,2,0,L|289:168,1,64,2|0,0:3|3:0,0:0:0:0:
364,110,16941,2,0,P|371:80|364:43,1,64,2|0,0:3|3:0,0:0:0:0:
278,166,17316,1,2,0:0:0:0:
359,226,17504,6,0,P|416:236|476:198,1,128,0|0,3:0|3:0,0:0:0:0:
300,304,18066,1,2,0:1:0:0:
300,304,18160,1,2,0:1:0:0:
300,304,18254,6,0,P|269:296|230:298,1,64,0|0,3:0|0:0,0:0:0:0:
149,253,18629,2,0,P|106:260|13:276,1,128,0|0,3:0|3:0,0:0:0:0:
115,164,19191,2,0,P|120:131|125:96,1,64,2|0,0:0|3:0,0:0:0:0:
69,32,19566,6,0,P|43:23|6:24,1,64,2|0,0:3|3:0,0:0:0:0:
204,119,19941,2,0,P|235:120|265:109,1,64,2|0,0:3|3:0,0:0:0:0:
336,39,20316,1,2,0:0:0:0:
418,70,20504,2,0,P|443:66|490:141,1,128,0|2,3:0|3:0,0:0:0:0:
409,245,21066,1,2,0:1:0:0:
406,240,21160,1,2,0:1:0:0:
405,235,21254,6,0,L|396:165,1,64,0|0,3:0|0:0,0:0:0:0:
502,384,21629,2,0,P|473:354|391:350,1,128,0|0,3:0|3:0,3:0:0:0:
246,314,22191,2,0,P|275:309|320:302,1,64,2|0,0:0|3:0,0:0:0:0:
390,350,22566,2,0,P|393:319|404:280,1,64,2|0,0:3|3:0,0:0:0:0:
308,158,22941,2,0,L|317:224,1,64,2|0,0:3|3:0,0:0:0:0:
246,314,23316,2,0,B|188:326|182:283|119:297,1,128,2|2,0:0|0:0,0:0:0:0:
38,124,23879,1,0,3:0:0:0:
0,205,24066,1,2,0:1:0:0:
0,205,24160,1,2,0:1:0:0:
0,205,24254,6,0,P|51:216|114:175,1,128,0|0,3:0|3:0,3:0:0:0:
173,93,24816,2,0,P|142:79|110:83,1,64,2|0,0:0|1:0,0:0:0:0:
233,171,25191,2,0,L|302:159,1,64,2|0,0:3|3:0,0:0:0:0:
418,89,25566,1,2,0:3:0:0:
492,158,25754,6,0,P|502:94|512:31,1,128,2|0,3:2|3:0,3:0:0:0:
382,161,26316,5,2,0:0:0:0:
504,362,26504,1,8,0:0:0:0:
398,274,26691,1,8,0:3:0:0:
509,206,26879,5,8,0:0:0:0:
360,349,27066,1,8,0:0:0:0:
346,351,27160,1,8,0:0:0:0:
336,361,27254,2,0,P|261:378|204:335,1,143.999995605469,4|8,0:0|0:0,0:0:0:0:
126,288,27816,2,0,L|54:301,1,71.9999978027344,2|0,0:0|1:0,0:0:0:0:
204,212,28191,2,0,P|212:176|205:132,1,71.9999978027344,2|8,0:0|0:0,0:0:0:0:
135,81,28566,5,2,0:0:0:0:
135,81,28660,1,0,1:0:0:0:
135,81,28754,2,0,L|-7:105,2,143.999995605469,8|8|0,0:3|0:0|3:0,0:0:0:0:
223,7,29691,1,2,0:0:0:0:
291,82,29879,2,0,L|279:157,1,71.9999978027344,8|2,0:0|0:0,0:0:0:0:
334,218,30160,1,2,0:0:0:0:
340,223,30254,6,0,P|375:226|406:208,1,71.9999978027344,4|2,0:0|0:0,0:0:0:0:
134,323,30629,1,8,0:0:0:0:
227,384,30816,2,0,P|233:340|247:237,1,143.999995605469,2|2,0:0|0:0,0:0:0:0:
134,323,31379,1,8,0:0:0:0:
328,358,31566,1,2,0:0:0:0:
328,358,31660,1,0,1:0:0:0:
328,358,31754,6,0,B|388:371|401:324|473:341,1,143.999995605469,8|8,0:3|0:0,0:0:0:0:
346,150,32316,2,0,P|351:186|357:222,1,71.9999978027344,2|0,0:0|3:0,0:0:0:0:
134,323,32691,1,2,0:0:0:0:
218,384,32879,2,0,P|223:348|229:312,1,71.9999978027344,8|0,0:0|3:0,0:0:0:0:
196,245,33160,1,2,0:0:0:0:
188,244,33254,6,0,P|117:274|47:255,1,143.999995605469,4|8,0:0|0:0,0:0:0:0:
270,172,33816,2,0,L|345:181,1,71.9999978027344,2|0,0:0|3:0,0:0:0:0:
138,51,34191,2,0,L|150:128,1,71.9999978027344,2|8,0:0|0:0,0:0:0:0:
85,317,34566,2,0,L|92:276,2,35.9999989013672,2|0|8,0:0|3:0|0:3,0:0:0:0:
0,219,34941,6,0,P|40:213|150:197,1,143.999995605469,2|2,0:0|0:0,0:0:0:0:
260,285,35504,1,2,1:0:0:0:
142,368,35691,1,0,3:0:0:0:
232,150,35879,1,8,0:0:0:0:
170,251,36066,1,2,0:0:0:0:
172,260,36160,1,2,0:0:0:0:
173,270,36254,5,8,0:3:0:0:
293,204,36441,1,0,0:0:0:0:
107,122,36629,1,8,0:0:0:0:
260,285,36816,2,0,P|309:278|416:263,1,143.999995605469,2|2,0:0|0:0,0:0:0:0:
341,362,37379,1,8,0:0:0:0:
212,217,37566,1,2,0:0:0:0:
211,207,37660,1,0,3:0:0:0:
210,198,37754,1,8,0:3:0:0:
99,131,37941,5,12,0:0:0:0:
274,84,38129,1,0,3:0:0:0:
318,260,38316,1,2,0:3:0:0:
139,310,38504,1,8,0:0:0:0:
210,198,38691,5,0,3:0:0:0:
125,0,38879,1,12,0:0:0:0:
185,54,39066,5,2,0:0:0:0:
188,58,39160,1,2,0:0:0:0:
191,63,39254,2,0,L|184:108,1,35.9999989013672,8|0,0:0|0:0,0:0:0:0:
120,175,39441,6,0,L|129:252,1,71.9999978027344,8|0,0:0|0:0,0:0:0:0:
0,380,40191,6,0,P|21:344|90:334,1,107.999996704102,12|0,0:0|0:0,0:0:0:0:
157,370,40566,6,0,B|218:375|224:327|300:342,1,143.999995605469,4|8,0:0|0:0,0:0:0:0:
351,280,41129,1,0,3:0:0:0:
354,286,41316,1,0,3:0:0:0:
429,370,41504,5,8,0:3:0:0:
427,363,41629,2,0,L|435:311,1,42.6666666666667,0|0,3:0|3:0,3:0:0:0:
486,252,41879,5,4,0:3:0:0:
488,245,42004,2,0,L|479:191,1,42.6666666666667,0|0,3:0|3:0,3:0:0:0:
503,106,42254,6,0,L|467:111,1,35.9999989013672,8|0,0:0|0:0,0:0:0:0:
392,162,42441,6,0,L|312:152,1,71.9999978027344,8|0,0:0|0:0,0:0:0:0:
135,92,43191,6,0,P|180:99|224:54,1,107.999996704102,4|0,0:0|0:0,0:0:0:0:
263,0,43566,6,0,P|257:44|243:150,1,143.999995605469,4|8,0:0|0:3,0:0:0:0:
319,249,44129,2,0,P|328:216|317:176,1,71.9999978027344,0|2,3:0|0:0,0:0:0:0:
385,324,44504,2,0,P|425:325|460:338,1,71.9999978027344,8|0,0:3|3:0,0:0:0:0:
227,271,44879,2,0,P|181:278|112:290,1,107.999996704102,8|0,0:3|0:0,0:0:0:0:
47,351,45254,6,0,P|20:289|49:214,1,143.999995605469,4|0,0:0|3:0,0:0:0:0:
173,98,45816,2,0,P|133:123|65:110,1,107.999996704102,8|0,0:0|0:0,0:0:0:0:
0,54,46191,2,0,P|42:47|80:41,1,71.9999978027344,0|2,3:0|3:2,0:0:0:0:
134,201,46566,2,0,P|92:208|54:214,1,71.9999978027344,12|2,0:0|0:0,0:0:0:0:
272,80,46941,1,2,0:0:0:0:
180,20,47129,1,8,0:0:0:0:
227,152,47316,6,0,P|269:121|360:131,1,143.999995605469,8|8,0:0|0:3,0:0:0:0:
479,0,47879,1,8,0:0:0:0:
498,78,48066,2,0,P|453:79|429:67,1,71.9999978027344,4|2,0:0|0:0,0:0:0:0:
487,259,48441,2,0,P|503:220|494:187,1,71.9999978027344,2|8,0:0|0:0,0:0:0:0:
387,173,48816,6,0,L|235:200,1,143.999995605469,4|8,0:0|0:3,0:0:0:0:
166,263,49379,1,8,0:0:0:0:
111,34,49566,1,4,0:0:0:0:
136,141,49754,1,0,3:0:0:0:
217,49,49941,5,8,0:0:0:0:
20,166,50129,1,8,0:0:0:0:
249,234,50316,1,8,0:0:0:0:
206,328,50504,5,12,0:0:0:0:
142,137,50691,1,10,0:3:0:0:
347,249,50879,1,8,0:0:0:0:
109,375,51066,1,8,0:0:0:0:
109,375,51160,1,8,0:0:0:0:
109,375,51254,6,0,P|90:310|103:264,1,113.999996955872,4|0,0:0|0:0,0:0:0:0:
55,196,51629,2,0,L|-26:183,1,75.9999979705811,8|2,0:0|0:0,0:0:0:0:
206,328,52004,2,0,B|291:324|265:282|357:290,1,151.999995941162,0|8,3:0|0:0,0:0:0:0:
435,237,52566,2,0,L|445:192,2,37.9999989852906,0|0|8,3:0|3:0|3:0,0:0:0:0:
409,380,52941,1,2,0:0:0:0:
349,289,53129,6,0,L|335:209,1,75.9999979705811,8|2,0:0|0:0,0:0:0:0:
471,298,53504,1,0,3:0:0:0:
290,363,53691,1,8,0:3:0:0:
471,298,53879,1,8,0:0:0:0:
255,271,54066,5,0,3:0:0:0:
255,271,54160,1,0,3:0:0:0:
255,271,54254,2,0,L|171:259,1,75.9999979705811,4|2,0:0|0:0,0:0:0:0:
61,75,54629,2,0,P|70:130|81:193,1,113.999996955872,8|0,0:0|0:0,0:0:0:0:
11,268,55004,2,0,P|0:237|10:190,1,75.9999979705811,8|0,0:3|3:0,0:0:0:0:
156,91,55379,1,8,0:0:0:0:
246,154,55566,1,2,0:0:0:0:
246,154,55660,1,0,3:0:0:0:
246,154,55754,6,0,L|323:144,1,75.9999979705811,8|2,0:3|0:0,0:0:0:0:
457,214,56129,1,8,0:0:0:0:
303,289,56316,1,2,0:0:0:0:
417,384,56504,1,8,0:3:0:0:
354,135,56691,1,0,3:0:0:0:
417,384,56879,1,8,0:0:0:0:
510,325,57066,1,0,3:0:0:0:
510,325,57160,1,0,3:0:0:0:
510,325,57254,6,0,P|454:280|377:288,1,151.999995941162,4|10,0:0|0:0,0:0:0:0:
216,199,57816,1,2,0:0:0:0:
268,357,58004,2,0,P|279:320|271:275,1,75.9999979705811,10|0,0:3|0:0,0:0:0:0:
354,212,58379,2,0,L|433:195,1,75.9999979705811,10|0,0:0|0:0,0:0:0:0:
168,312,58754,6,0,L|88:299,1,75.9999979705811,8|0,0:3|0:0,0:0:0:0:
254,165,59129,2,0,P|270:120|262:52,1,113.999996955872,10|0,0:0|0:0,0:0:0:0:
201,1,59504,2,0,P|176:32|184:70,1,75.9999979705811,8|0,0:3|0:0,0:0:0:0:
339,236,59879,2,0,P|364:205|356:167,1,75.9999979705811,8|0,0:0|0:0,0:0:0:0:
154,177,60254,6,0,P|58:203|-1:201,1,151.999995941162,4|8,0:0|0:0,0:0:0:0:
208,275,60816,1,2,0:0:0:0:
358,171,61004,2,0,P|324:139|258:147,1,113.999996955872,8|0,0:3|0:0,0:0:0:0:
184,97,61379,2,0,L|193:48,1,37.9999989852906,8|0,0:0|0:0,0:0:0:0:
112,0,61566,5,4,0:0:0:0:
168,198,61754,1,0,3:0:0:0:
291,64,61941,5,8,0:0:0:0:
34,169,62129,1,8,0:0:0:0:
262,298,62316,1,0,3:0:0:0:
184,97,62504,5,8,0:0:0:0:
186,111,62597,1,8,0:3:0:0:
271,231,62785,1,8,0:3:0:0:
272,238,62879,1,8,0:3:0:0:
269,253,62972,1,0,3:3:0:0:
267,268,63066,1,0,3:3:0:0:
264,283,63160,1,2,0:0:0:0:
262,298,63254,6,0,P|215:277|153:289,1,113.999996955872,4|0,0:0|0:0,0:0:0:0:
64,249,63629,2,0,L|75:327,1,75.9999979705811,8|2,0:0|0:0,0:0:0:0:
144,186,64004,2,0,P|153:148|140:108,1,75.9999979705811,8|2,0:3|0:0,0:0:0:0:
72,51,64379,1,8,0:0:0:0:
248,131,64566,1,2,0:0:0:0:
248,131,64660,1,0,3:0:0:0:
248,131,64754,6,0,L|325:121,1,75.9999979705811,8|2,0:3|0:0,0:0:0:0:
433,212,65129,1,8,0:0:0:0:
474,51,65316,1,2,0:0:0:0:
355,283,65504,5,8,0:3:0:0:
512,166,65691,1,2,0:0:0:0:
366,73,65879,1,8,0:0:0:0:
478,353,66066,1,2,0:0:0:0:
478,353,66160,1,0,3:0:0:0:
478,353,66254,6,0,L|493:272,1,75.9999979705811,4|2,0:0|0:0,0:0:0:0:
347,175,66629,2,0,P|293:170|252:250,1,151.999995941162,8|8,0:0|0:3,0:0:0:0:
71,315,67191,1,2,0:0:0:0:
146,373,67379,2,0,P|153:331|161:288,1,75.9999979705811,8|2,0:0|0:0,0:0:0:0:
98,235,67660,1,0,3:0:0:0:
92,232,67754,2,0,P|53:241|9:251,1,75.9999979705811,8|2,0:3|0:0,0:0:0:0:
182,169,68129,2,0,P|198:122|188:57,1,113.999996955872,8|0,0:0|0:0,0:0:0:0:
133,8,68504,1,8,0:3:0:0:
301,132,68691,2,8,L|344:125,2,37.9999989852906,8|0|8,0:3|3:0|0:0,0:0:0:0:
92,232,69066,5,4,0:0:0:0:
142,294,69254,2,0,L|131:371,1,75.9999979705811,2|0,0:3|3:0,0:0:0:0:
58,133,69629,1,8,0:0:0:0:
197,230,69816,5,2,0:0:0:0:
197,230,69910,1,0,3:0:0:0:
197,230,70004,2,0,P|233:236|274:220,1,75.9999979705811,8|2,0:3|0:0,0:0:0:0:
442,384,70379,1,8,0:0:0:0:
512,330,70566,2,0,P|479:300|410:302,1,113.999996955872,4|0,0:0|0:0,0:0:0:0:
344,241,70941,2,0,L|354:190,1,46.0000008773804,2|0,0:0|0:0,0:0:0:0:
275,83,71129,6,0,L|284:163,1,75.9999979705811,8|2,0:0|0:0,0:0:0:0:
412,300,71504,2,2,P|422:259|406:224,1,75.9999979705811,8|0,0:3|0:0,0:0:0:0:
232,361,71879,2,0,P|268:364|308:374,1,75.9999979705811,8|2,0:0|0:0,0:0:0:0:
160,287,72160,1,0,3:0:0:0:
153,283,72254,6,0,L|-5:313,1,151.999995941162,4|8,0:0|0:0,0:0:0:0:
234,130,72816,2,0,L|220:204,1,75.9999979705811,2|0,0:0|3:0,0:0:0:0:
322,85,73191,1,2,0:0:0:0:
111,162,73379,1,8,0:0:0:0:
291,282,73566,6,0,P|337:292|425:235,1,151.999995941162,4|2,0:0|0:0,0:0:0:0:
226,363,74129,1,8,0:0:0:0:
164,308,74316,2,0,B|80:306|104:256|7:268,1,151.999995941162,2|2,0:0|0:0,0:0:0:0:
259,182,74879,1,8,0:0:0:0:
226,363,75066,1,4,0:0:0:0:
226,363,75441,5,8,0:0:0:0:
167,136,75629,1,8,0:0:0:0:
147,290,75816,1,8,0:0:0:0:
229,50,76004,1,8,0:0:0:0:
50,173,76191,5,8,0:0:0:0:
279,233,76379,1,8,0:0:0:0:
0,290,76566,1,8,0:0:0:0:
286,130,76754,5,0,3:0:0:0:
133,18,76941,1,0,3:0:0:0:
133,18,77035,1,0,3:0:0:0:
139,27,77129,6,0,P|134:64|122:151,1,120.000004577637,4|2,0:0|0:0,0:0:0:0:
234,367,77879,2,0,P|254:324|219:259,1,120.000004577637,2|4,0:0|0:0,0:0:0:0:
44,129,78629,1,8,0:0:0:0:
0,225,78816,6,0,B|89:235|73:166|182:192,1,180.000006866455,2|8,0:0|0:0,0:0:0:0:
240,258,79566,2,0,L|233:302,2,35.9999989013672,0|0|8,3:0|3:0|0:3,0:0:0:0:
171,190,79941,2,0,L|164:146,2,35.9999989013672,0|0|8,3:0|3:0|0:0,0:0:0:0:
335,269,80316,2,0,L|410:257,1,71.9999978027344,2|0,0:0|3:3,0:0:0:0:
140,348,80691,2,0,L|68:336,1,71.9999978027344,2|12,0:0|0:0,0:0:0:0:
208,119,81066,1,2,0:0:0:0:
206,111,81160,1,2,0:0:0:0:
204,102,81254,5,4,0:0:0:0:
128,6,81441,1,2,0:0:0:0:
311,86,81629,1,8,0:0:0:0:
0,258,81816,5,4,0:0:0:0:
79,240,82004,1,2,0:0:0:0:
150,277,82191,1,8,0:0:0:0:
179,353,82379,6,0,B|248:258|385:226|516:209|528:392|445:497|271:442|227:321|236:67|349:0|523:29|553:117|486:201|423:186,1,870.4,4|0,0:0|0:0,0:0:0:0:
