osu file format v14

[General]
AudioFilename: audio.mp3
AudioLeadIn: 0
PreviewTime: 160675
Countdown: 0
SampleSet: Soft
StackLeniency: 0.3
Mode: 0
LetterboxInBreaks: 0
WidescreenStoryboard: 1

[Editor]
Bookmarks: 46504,59835,72333,103996,130659,213980,234811,267966,310046,323840,340507,343423
DistanceSpacing: 2.3
BeatDivisor: 4
GridSize: 32
TimelineZoom: 1.9

[Metadata]
Title:Yuki No Seireitachi
TitleUnicode:雪の精霊たち
Artist:Yukimame Hina una
ArtistUnicode:ゆきまめ ひな una
Creator:Yugu
Version:Snow
Source:
Tags:TRILL Japanese 虹原ぺぺろん
BeatmapID:1389825
BeatmapSetID:655889

[Difficulty]
HPDrainRate:6
CircleSize:4.5
OverallDifficulty:7
ApproachRate:8
SliderMultiplier:1
SliderTickRate:1

[Events]
//Background and Video events
0,0,"bg.jpg",0,0
//Break Periods
2,174208,193258
2,207341,213258
//Storyboard Layer 0 (Background)
//Storyboard Layer 1 (Fail)
//Storyboard Layer 2 (Pass)
//Storyboard Layer 3 (Foreground)
//Storyboard Sound Samples

[TimingPoints]
-735,416.666666666667,4,2,1,30,1,0
515,-133.333333333333,4,2,1,30,0,0
9265,-530,4,2,1,30,0,0
13431,-530,4,2,1,20,0,0
13848,-530,4,2,1,10,0,0
14265,-530,4,2,1,5,0,0
15259,416.666666666667,4,2,1,50,1,0
15259,-133.333333333333,4,2,1,50,0,0
15675,416.666666666667,4,2,1,70,1,0
15675,-100,4,2,1,70,0,0
21925,-133.333333333333,4,2,1,70,0,0
22341,-100,4,2,1,70,0,0
28591,-133.333333333333,4,2,1,70,0,0
29008,-100,4,2,1,70,0,0
31820,-100,4,2,1,5,0,0
31925,-100,4,2,1,70,0,0
32237,-100,4,2,1,5,0,0
32341,-100,4,2,1,70,0,0
32654,-100,4,2,1,5,0,0
32758,-100,4,2,1,70,0,0
33070,-100,4,2,1,5,0,0
33175,-100,4,2,1,70,0,0
33487,-100,4,2,1,5,0,0
33591,-100,4,2,1,70,0,0
34320,-100,4,2,1,5,0,0
34425,-100,4,2,1,70,0,0
35154,-100,4,2,1,5,0,0
35258,-100,4,2,1,70,0,0
35883,-133.333333333333,4,2,1,70,0,0
36925,-100,4,2,1,70,0,0
37237,-100,4,2,1,5,0,0
37341,-133.333333333333,4,2,1,70,0,0
38070,-133.333333333333,4,2,1,5,0,0
38175,-100,4,2,1,70,0,0
38487,-100,4,2,1,5,0,0
38591,-100,4,2,1,70,0,0
38800,-153.846153846154,4,2,1,70,0,0
45779,-166.666666666667,4,2,1,30,0,0
46508,-133.333333333333,4,2,1,50,0,0
51925,-133.333333333333,4,2,1,50,0,0
54841,-133.333333333333,4,2,1,50,0,0
57654,-133.333333333333,4,2,1,5,0,0
57758,-133.333333333333,4,2,1,50,0,0
69841,-133.333333333333,4,2,1,55,0,0
70675,-133.333333333333,4,2,1,60,0,0
71508,-133.333333333333,4,2,1,65,0,0
72341,-133.333333333333,4,2,1,70,0,0
89945,-133.333333333333,4,2,1,5,0,0
90050,-133.333333333333,4,2,1,50,0,0
90362,-133.333333333333,4,2,1,5,0,0
90466,-530,4,2,1,50,0,0
96300,-133.333333333333,4,2,1,50,0,0
104008,-83.3333333333333,4,2,1,70,0,1
107341,-100,4,2,1,70,0,1
107966,-133.333333333333,4,2,1,70,0,1
110675,-83.3333333333333,4,2,1,70,0,1
115258,-100,4,2,1,70,0,1
115570,-100,4,2,1,5,0,1
115675,-133.333333333333,4,2,1,70,0,1
116195,-133.333333333333,4,2,1,5,0,1
116300,-200,4,2,1,70,0,1
116925,-83.3333333333333,4,2,1,70,0,1
120570,-83.3333333333333,4,2,1,5,0,1
120675,-76.9230769230769,4,2,1,70,0,1
120987,-76.9230769230769,4,2,1,5,0,1
121091,-71.4285714285714,4,2,1,70,0,1
121404,-71.4285714285714,4,2,1,5,0,1
121508,-66.6666666666667,4,2,1,70,0,1
121820,-66.6666666666667,4,2,1,5,0,1
121925,-62.5,4,2,1,70,0,1
122237,-62.5,4,2,1,5,0,1
122341,-50,4,2,1,70,0,1
122654,-50,4,2,1,5,0,1
122758,-66.6666666666667,4,2,1,70,0,1
124008,-83.3333333333333,4,2,1,70,0,1
126508,-100,4,2,1,70,0,1
127341,-400,4,2,1,70,0,1
130675,-83.3333333333333,4,2,1,70,0,1
134008,-100,4,2,1,70,0,1
134633,-133.333333333333,4,2,1,70,0,1
137341,-83.3333333333333,4,2,1,70,0,1
141925,-100,4,2,1,70,0,1
142237,-100,4,2,1,5,0,1
142341,-133.333333333333,4,2,1,70,0,1
142862,-133.333333333333,4,2,1,5,0,1
142966,-200,4,2,1,70,0,1
143591,-83.3333333333333,4,2,1,70,0,1
147237,-83.3333333333333,4,2,1,5,0,1
147341,-76.9230769230769,4,2,1,70,0,1
147654,-76.9230769230769,4,2,1,5,0,1
147758,-71.4285714285714,4,2,1,70,0,1
148070,-71.4285714285714,4,2,1,5,0,1
148175,-66.6666666666667,4,2,1,70,0,1
148487,-66.6666666666667,4,2,1,5,0,1
148591,-62.5,4,2,1,70,0,1
148904,-62.5,4,2,1,5,0,1
149008,-50,4,2,1,70,0,1
149320,-50,4,2,1,5,0,1
149425,-66.6666666666667,4,2,1,70,0,1
150675,-83.3333333333333,4,2,1,70,0,1
153175,-100,4,2,1,70,0,1
153800,-400,4,2,1,70,0,1
157341,-400,4,2,1,70,0,0
160675,-200,4,2,1,40,0,0
161039,-200,4,2,1,5,0,0
161091,-133.333333333333,4,2,1,40,0,0
161456,-133.333333333333,4,2,1,5,0,0
161508,-100,4,2,1,40,0,0
164008,-200,4,2,1,40,0,0
164372,-200,4,2,1,5,0,0
164425,-133.333333333333,4,2,1,40,0,0
164789,-133.333333333333,4,2,1,5,0,0
164841,-100,4,2,1,40,0,0
167341,-400,4,2,1,40,0,0
168956,-400,4,2,1,5,0,0
169008,-285.714285714286,4,2,1,40,0,0
170622,-285.714285714286,4,2,1,5,0,0
170675,-200,4,2,1,40,0,0
194008,-166.666666666667,4,2,1,40,0,0
195675,-142.857142857143,4,2,1,40,0,0
197341,-125,4,2,1,40,0,0
199008,-100,4,2,1,40,0,0
202341,-100,4,2,1,30,0,0
204008,-100,4,2,1,20,0,0
205675,-100,4,2,1,10,0,0
214008,-133.333333333333,4,2,1,50,0,0
231612,-133.333333333333,4,2,1,5,0,0
231716,-133.333333333333,4,2,1,50,0,0
232029,-133.333333333333,4,2,1,5,0,0
232133,-530,4,2,1,50,0,0
237966,-133.333333333333,4,2,1,50,0,0
242341,-100,4,2,1,20,0,0
255675,-200,4,2,1,20,0,0
265675,-800,4,2,1,50,0,0
267966,-133.333333333333,4,2,1,50,0,0
269008,-83.3333333333333,4,2,1,70,0,1
272341,-100,4,2,1,70,0,1
272966,-133.333333333333,4,2,1,70,0,1
275675,-83.3333333333333,4,2,1,70,0,1
280675,-100,4,2,1,70,0,1
281300,-133.333333333333,4,2,1,70,0,1
282341,-83.3333333333333,4,2,1,70,0,1
286091,-133.333333333333,4,2,1,70,0,1
286508,-66.6666666666667,4,2,1,70,0,1
286786,-58.8235294117647,4,2,1,70,0,1
287063,-52.6315789473684,4,2,1,70,0,1
287341,-50,4,2,1,70,0,1
287758,-50,4,2,1,5,0,1
288175,-50,4,2,1,70,0,1
288591,-83.3333333333333,4,2,1,70,0,1
290675,-400,4,2,1,70,0,1
291925,-400,4,2,1,50,0,0
292029,-400,4,2,1,40,0,0
292133,-400,4,2,1,30,0,0
292237,-400,4,2,1,15,0,0
292341,-400,4,2,1,5,0,0
295023,416.666666666667,4,2,1,15,1,0
295023,-200,4,2,1,15,0,0
295439,379.306666666666,4,2,1,15,1,0
295817,416.666666666667,4,2,1,15,1,0
297067,435.066666666667,4,2,1,15,1,0
297507,469.166666666667,4,2,1,15,1,0
298424,430.656666666667,4,2,1,15,1,0
299275,416.666666666667,4,2,1,15,1,0
300108,-200,4,2,1,15,0,0
300945,941.767383456286,4,2,1,15,1,0
302384,447.856666666668,4,2,1,15,1,0
302384,-200,4,2,1,15,0,0
302831,416.666666666667,4,2,1,15,1,0
302831,-200,4,2,1,15,0,0
304081,448.166666666667,4,2,1,15,1,0
304529,416.666666666667,4,2,1,15,1,0
304951,486.466666666667,4,2,1,15,1,0
304951,-200,4,2,1,15,0,0
305315,-200,4,2,1,5,0,0
305437,465.616666666667,4,2,1,15,1,0
305437,-200,4,2,1,15,0,0
305786,-200,4,2,1,5,0,0
305902,493.936666666667,4,2,1,15,1,0
306395,518.666666666667,4,2,1,10,1,0
306395,-100,4,2,1,10,0,0
306913,534.315789473684,4,2,1,15,1,0
306913,-133.333333333333,4,2,1,15,0,0
307313,-133.333333333333,4,2,1,5,0,0
307447,1200,4,2,1,30,1,0
308647,1039,4,2,1,30,1,0
310046,461.666666666667,4,2,1,30,1,0
310046,-133.333333333333,4,2,1,30,0,0
310507,416.666666666667,4,2,1,75,1,1
310507,-83.3333333333333,4,2,1,75,0,1
313423,-133.333333333333,4,2,1,75,0,1
313840,-83.3333333333333,4,2,1,75,0,1
315507,-100,4,2,1,75,0,1
316757,-133.333333333333,4,2,1,75,0,1
317173,-83.3333333333333,4,2,1,75,0,1
323423,-133.333333333333,4,2,1,75,0,1
323840,-83.3333333333333,4,2,1,75,0,1
326340,-100,4,2,1,75,0,1
326652,-100,4,2,1,5,0,1
326757,-83.3333333333333,4,2,1,75,0,1
327069,-100,4,2,1,5,0,1
327173,-76.9230769230769,4,2,1,75,0,1
327486,-100,4,2,1,5,0,1
327590,-71.4285714285714,4,2,1,75,0,1
327902,-100,4,2,1,5,0,1
328007,-66.6666666666667,4,2,1,75,0,1
328319,-100,4,2,1,5,0,1
328423,-71.4285714285714,4,2,1,75,0,1
328736,-100,4,2,1,5,0,1
328840,-76.9230769230769,4,2,1,75,0,1
329152,-100,4,2,1,5,0,1
329257,-100,4,2,1,75,0,1
329465,-83.3333333333333,4,2,1,75,0,1
330298,-133.333333333333,4,2,1,75,0,1
331757,-100,4,2,1,75,0,1
334257,-83.3333333333333,4,2,1,75,0,1
334673,-100,4,2,1,75,0,1
335298,-200,4,2,1,75,0,1
336340,-200,4,2,1,75,0,0
336757,-83.3333333333333,4,2,1,75,0,0
337173,-200,4,2,1,75,0,0
347173,-200,4,2,1,65,0,0
348007,-200,4,2,1,55,0,0
348840,-200,4,2,1,45,0,0
349673,-200,4,2,1,35,0,0
350507,-200,4,2,1,25,0,0
351340,-200,4,2,1,15,0,0
352173,-200,4,2,1,5,0,0

[Colours]
Combo1 : 255,107,140
Combo2 : 128,64,64
Combo3 : 128,128,192
Combo4 : 219,219,219

[HitObjects]
108,44,515,6,0,L|117:95,1,37.5000014305115
152,202,931,6,0,L|165:128,1,75.0000028610231,2|0,0:0|0:0,0:0:0:0:
225,89,1556,2,0,B|279:88|305:47|305:47|355:70|401:46,1,187.500007152558,0|2,0:0|0:0,0:0:0:0:
394,48,3431,5,0,0:0:0:0:
444,115,3847,1,0,0:0:0:0:
362,125,4264,1,2,0:0:0:0:
240,67,4681,2,0,P|275:54|311:59,2,75.0000028610231,0|2|0,0:0|0:0|0:0,0:0:0:0:
219,147,5930,5,2,0:0:0:0:
318,254,6556,1,2,0:0:0:0:
175,287,7180,1,2,0:0:0:0:
167,208,7390,1,0,0:0:0:0:
99,246,7598,5,2,0:0:0:0:
99,246,7806,2,0,P|89:283|129:356,1,112.500004291535
243,249,8848,5,0,0:0:0:0:
99,246,9265,2,0,P|89:283|120:350,1,113.207547169811,2|0,0:0|0:0,0:0:0:0:
256,192,11869,12,0,14264,0:0:0:0:
274,184,15259,6,0,P|298:180|322:189,1,37.5000014305115
448,142,15675,6,0,P|422:147|351:123,1,100,12|0,0:0|0:0,0:0:0:0:
414,58,16300,1,0,0:0:0:0:
414,58,16508,5,2,0:0:0:0:
413,82,16925,1,0,0:0:0:0:
315,101,17341,1,10,0:0:0:0:
411,131,17758,1,0,0:0:0:0:
410,155,18175,1,2,0:0:0:0:
410,179,18591,5,0,0:0:0:0:
416,264,18800,1,0,0:0:0:0:
342,222,19008,6,0,P|321:204|248:189,1,100,8|0,0:0|0:0,0:0:0:0:
270,277,19633,1,0,0:0:0:0:
270,277,19841,5,2,0:0:0:0:
267,252,20258,1,0,0:0:0:0:
360,216,20675,1,8,0:0:0:0:
261,202,21091,1,0,0:0:0:0:
258,177,21508,5,2,0:0:0:0:
258,177,21716,1,0,0:0:0:0:
258,177,21925,2,0,P|258:148|261:132,1,37.5000014305115
183,148,22341,6,0,P|174:173|118:222,1,100,12|0,0:0|0:0,0:0:0:0:
93,136,22966,1,0,0:0:0:0:
93,136,23175,5,2,0:0:0:0:
118,134,23591,1,0,0:0:0:0:
134,35,24008,1,8,0:0:0:0:
166,130,24425,1,0,0:0:0:0:
191,128,24841,5,2,0:0:0:0:
261,56,25258,1,0,0:0:0:0:
290,151,25675,1,8,0:0:0:0:
220,223,26091,1,0,0:0:0:0:
214,247,26508,5,2,0:0:0:0:
208,271,26925,1,0,0:0:0:0:
296,316,27341,1,8,0:0:0:0:
196,320,27758,1,0,0:0:0:0:
190,344,28175,1,2,0:0:0:0:
305,286,28591,6,0,P|329:284|351:289,1,37.5000014305115
456,345,29008,6,0,P|423:307|431:248,1,100,12|0,0:0|0:0,0:0:0:0:
486,207,29633,1,0,0:0:0:0:
486,207,29841,5,2,0:0:0:0:
497,157,30258,1,0,0:0:0:0:
477,58,30675,1,8,0:0:0:0:
414,136,31091,1,0,0:0:0:0:
331,168,31508,6,0,P|364:186|401:184,1,75,2|0,0:0|0:0,0:0:0:0:
436,220,31925,2,0,P|448:261|439:311,1,75
294,331,32341,2,0,P|343:323|370:334,1,75,8|0,0:0|0:0,0:0:0:0:
213,292,32758,2,0,P|211:255|223:220,1,75
242,173,33175,2,0,P|244:135|232:100,1,75,2|0,0:0|0:0,0:0:0:0:
194,66,33591,6,0,B|270:34|270:107|374:60,1,175,8|0,0:0|0:0,0:0:0:0:
398,29,34425,2,0,P|403:84|363:28,1,175,2|0,0:0|0:0,0:0:0:0:
379,59,35258,6,0,P|377:100|383:124,1,50
446,182,35675,1,8,0:0:0:0:
369,198,35883,2,0,P|393:245|444:179,1,168.750006437302,4|0,0:0|0:0,0:0:0:0:
412,142,36925,6,0,P|352:133|320:145,1,75,2|0,0:0|0:0,0:0:0:0:
293,116,37341,2,0,B|281:156|289:204|289:204|277:175|253:159,1,131.25000500679,12|0,0:0|0:0,0:0:0:0:
222,144,38175,6,0,P|177:137|146:118,1,75
149,72,38591,1,4,0:0:0:0:
209,229,38800,1,2,0:0:0:0:
209,229,39008,6,0,B|188:260|142:256|142:256|160:294|140:333|140:333|182:326|213:359|213:359|217:313|258:296|258:296|352:344|352:270|455:313,1,519.99997619629,8|8,0:0|0:0,0:0:0:0:
256,192,42445,12,8,45779,0:0:0:0:
140,98,46508,6,0,P|181:94|208:117,1,75.0000028610231
281,162,47341,1,2,0:0:0:0:
200,202,47758,2,0,P|193:225|210:283,1,75.0000028610231
206,345,48591,2,0,P|213:322|196:264,1,75.0000028610231,0|2,0:0|0:0,0:0:0:0:
200,202,49425,1,0,0:0:0:0:
200,202,49633,2,0,P|244:146|314:162,1,150.000005722046
194,217,51925,5,0,0:0:0:0:
194,217,52133,1,0,0:0:0:0:
194,217,52341,2,0,P|167:207|116:231,1,75.0000028610231,2|0,0:0|0:0,0:0:0:0:
260,256,53175,2,0,P|271:219|261:179,1,75.0000028610231,2|0,0:0|0:0,0:0:0:0:
395,45,54841,6,0,P|422:72|464:80,1,75.0000028610231
477,168,55675,2,0,P|440:177|412:210,1,75.0000028610231,2|0,0:0|0:0,0:0:0:0:
479,241,56508,1,0,0:0:0:0:
431,184,56925,6,0,P|410:214|436:303,1,131.25000500679
431,299,57758,2,0,B|370:270|370:339|276:287,1,150.000005722046
252,210,59008,1,2,0:0:0:0:
252,210,59841,6,0,P|258:171|252:129,1,75.0000028610231
195,67,60675,1,2,0:0:0:0:
284,68,61091,2,0,P|277:94|250:139,1,75.0000028610231
166,159,61925,2,0,P|177:183|185:235,1,75.0000028610231,0|2,0:0|0:0,0:0:0:0:
162,297,62758,1,0,0:0:0:0:
162,297,62966,2,0,B|187:272|184:231|184:231|228:214|231:162,1,150.000005722046
184,235,65258,5,0,0:0:0:0:
184,235,65466,1,0,0:0:0:0:
184,235,65675,2,0,P|228:242|266:235,1,75.0000028610231,2|0,0:0|0:0,0:0:0:0:
308,212,66300,2,0,P|299:267|308:294,1,75.0000028610231
373,250,66925,2,0,P|382:195|373:168,2,75.0000028610231,0|2|0,0:0|0:0|0:0,0:0:0:0:
458,279,68175,5,0,0:0:0:0:
373,139,68591,2,0,P|373:158|376:176,1,37.5000014305115
376,176,69008,5,2,0:0:0:0:
361,173,69841,1,2,0:0:0:0:
331,167,70675,1,2,0:0:0:0:
286,171,71508,1,2,0:0:0:0:
232,210,72341,5,6,0:0:0:0:
222,284,72550,1,0,0:0:0:0:
291,256,72758,1,8,0:0:0:0:
363,255,72966,6,0,P|326:246|291:256,1,75.0000028610231
329,320,73591,1,0,0:0:0:0:
363,255,73800,1,0,0:0:0:0:
438,195,74008,6,0,L|435:233,1,37.5000014305115,2|0,0:0|0:0,0:0:0:0:
504,304,74425,2,0,L|501:267,1,37.5000014305115,8|0,0:0|0:0,0:0:0:0:
501,267,74841,1,8,0:0:0:0:
500,267,75466,6,0,L|503:229,2,37.5000014305115,0|2|0,0:0|0:0|0:0,0:0:0:0:
433,301,76091,1,8,0:0:0:0:
366,267,76300,6,0,L|359:179,1,75.0000028610231
420,147,76925,1,0,0:0:0:0:
360,192,77133,1,0,0:0:0:0:
262,139,77341,6,0,P|281:141|299:147,1,37.5000014305115,2|0,0:0|0:0,0:0:0:0:
360,192,77758,1,8,0:0:0:0:
355,81,77966,2,0,P|363:97|367:116,1,37.5000014305115,0|8,0:0|0:0,0:0:0:0:
360,192,78383,5,0,0:0:0:0:
361,266,78591,2,0,P|357:229|360:192,1,75.0000028610231,0|6,0:0|0:0,0:0:0:0:
431,216,79216,5,0,0:0:0:0:
360,191,79425,1,8,0:0:0:0:
289,216,79633,2,0,B|231:247|231:193|173:230,1,112.500004291535
137,286,80466,5,0,0:0:0:0:
177,187,80675,2,0,L|181:225,1,37.5000014305115,2|0,0:0|0:0,0:0:0:0:
238,273,81091,2,0,L|241:310,1,37.5000014305115,8|0,0:0|0:0,0:0:0:0:
241,310,81508,1,8,0:0:0:0:
377,347,81925,6,0,B|340:329|305:349,1,75.0000028610231,0|2,0:0|0:0,0:0:0:0:
449,303,82758,1,2,0:0:0:0:
493,203,82966,2,0,L|491:241,1,37.5000014305115,8|0,0:0|0:0,0:0:0:0:
432,118,83383,1,2,0:0:0:0:
432,118,83591,2,0,P|388:149|419:105,1,150.000005722046,12|0,0:0|0:0,0:0:0:0:
416,104,84841,6,0,L|397:22,1,75.0000028610231,8|2,0:0|0:0,0:0:0:0:
302,152,85466,1,2,0:0:0:0:
319,79,85675,2,0,L|302:152,1,75.0000028610231,6|8,0:0|0:0,0:0:0:0:
302,152,86508,6,0,L|285:225,1,75.0000028610231,8|0,0:0|0:0,0:0:0:0:
188,200,87133,1,0,0:0:0:0:
204,273,87341,2,0,L|188:200,1,75.0000028610231,6|8,0:0|0:0,0:0:0:0:
223,36,88175,5,8,0:0:0:0:
223,51,88591,1,0,0:0:0:0:
223,67,89008,2,0,P|222:103|228:143,1,75.0000028610231,2|8,0:0|0:0,0:0:0:0:
323,120,89633,6,0,P|344:141|380:144,1,56.2500021457673,8|0,0:0|0:0,0:0:0:0:
402,132,90050,2,0,L|396:201,1,56.2500021457673,8|0,0:0|0:0,0:0:0:0:
408,222,90466,6,0,L|422:97,1,122.641509433962,6|0,0:0|0:0,0:0:0:0:
421,100,93521,5,0,0:0:0:0:
421,100,93730,1,0,0:0:0:0:
353,35,94008,5,6,0:0:0:0:
303,162,94841,1,8,0:0:0:0:
218,55,95675,1,2,0:0:0:0:
113,34,96300,6,0,P|140:64|133:146,1,112.500004291535,8|2,0:0|0:0,0:0:0:0:
72,99,97341,1,6,0:0:0:0:
69,117,98175,1,2,0:0:0:0:
66,135,99008,1,2,0:0:0:0:
64,153,99841,1,2,0:0:0:0:
62,171,100675,1,2,0:0:0:0:
60,189,101508,1,2,0:0:0:0:
58,207,102341,5,4,0:0:0:0:
58,207,102550,2,0,P|96:194|123:201,1,56.2500021457673,14|0,0:0|0:0,0:0:0:0:
129,202,102966,1,8,0:0:0:0:
145,210,103070,1,8,0:0:0:0:
162,217,103175,2,0,P|192:222|211:217,1,37.5000014305115,14|0,0:0|0:0,0:0:0:0:
255,150,103591,5,8,0:0:0:0:
261,132,103800,1,8,0:0:0:0:
358,90,104008,6,0,P|344:137|393:207,1,119.999996337891,6|8,0:0|0:0,0:0:0:0:
428,0,104633,1,0,0:0:0:0:
428,71,104841,2,0,L|428:131,1,59.9999981689454,8|0,0:0|0:0,0:0:0:0:
261,132,105258,5,0,0:0:0:0:
255,150,105466,1,0,0:0:0:0:
428,131,105675,6,0,L|428:12,1,119.999996337891,2|8,0:0|0:0,0:0:0:0:
395,210,106300,1,0,0:0:0:0:
345,147,106508,2,0,P|346:117|358:90,1,59.9999981689454,8|0,0:0|0:0,0:0:0:0:
276,30,106925,6,0,P|246:37|205:29,1,59.9999981689454
87,98,107341,2,0,P|142:89|201:107,1,100,2|8,0:0|0:0,0:0:0:0:
133,248,107966,5,0,0:0:0:0:
126,211,108175,2,0,P|129:193|134:175,1,37.5000014305115,8|0,0:0|0:0,0:0:0:0:
206,322,108591,6,0,L|206:280,1,37.5000014305115
277,175,109008,2,0,P|285:212|279:249,1,75.0000028610231,2|8,0:0|0:0,0:0:0:0:
279,249,109841,1,8,0:0:0:0:
386,295,110258,5,0,0:0:0:0:
383,276,110466,1,0,0:0:0:0:
467,194,110675,6,0,P|421:184|379:120,1,119.999996337891,6|8,0:0|0:0,0:0:0:0:
298,18,111300,1,0,0:0:0:0:
292,90,111508,2,0,L|287:150,1,59.9999981689454,8|0,0:0|0:0,0:0:0:0:
383,276,111925,5,0,0:0:0:0:
386,295,112133,1,0,0:0:0:0:
287,150,112341,6,0,L|297:31,1,119.999996337891,2|8,0:0|0:0,0:0:0:0:
380,127,112966,1,0,0:0:0:0:
380,127,113175,2,0,P|410:177|467:194,1,119.999996337891,8|0,0:0|0:0,0:0:0:0:
297,31,114008,5,2,0:0:0:0:
235,153,114425,1,8,0:0:0:0:
235,153,114633,1,0,0:0:0:0:
235,153,114841,2,0,P|206:143|183:124,1,59.9999981689454,8|0,0:0|0:0,0:0:0:0:
100,214,115258,6,0,P|148:206|178:217,1,75
184,218,115675,6,0,P|232:233|285:224,1,93.7500035762788,2|0,0:0|0:0,0:0:0:0:
282,225,116300,1,0,0:0:0:0:
281,295,116508,2,0,L|276:330,1,25,8|0,0:0|0:0,0:0:0:0:
353,266,116925,5,2,0:0:0:0:
371,190,117133,1,0,0:0:0:0:
248,80,117341,6,0,P|306:77|354:113,1,119.999996337891,6|8,0:0|0:0,0:0:0:0:
496,48,117966,1,0,0:0:0:0:
423,53,118175,2,0,P|393:36|371:4,1,59.9999981689454,8|0,0:0|0:0,0:0:0:0:
371,190,118591,5,0,0:0:0:0:
354,267,118800,1,0,0:0:0:0:
386,28,119008,6,0,P|437:57|496:48,1,119.999996337891,2|8,0:0|0:0,0:0:0:0:
353,112,119633,1,0,0:0:0:0:
248,80,119841,1,8,0:0:0:0:
65,47,120258,6,0,P|91:82|85:149,1,89.9999972534181
65,167,120675,2,0,P|109:180|124:245,1,97.4999955368044,2|0,0:0|0:0,0:0:0:0:
289,271,121091,2,0,P|239:257|190:272,1,104.999996795654,8|0,0:0|0:0,0:0:0:0:
377,334,121508,2,0,L|364:205,1,112.500004291535,8|0,0:0|0:0,0:0:0:0:
481,240,121925,2,0,P|491:188|463:96,1,120
268,45,122341,6,0,L|429:30,1,150,2|0,0:0|0:0,0:0:0:0:
483,48,122758,2,0,L|408:54,1,75.0000028610231,8|0,0:0|0:0,0:0:0:0:
268,45,123175,1,8,0:0:0:0:
268,45,123591,5,0,0:0:0:0:
265,74,123800,1,0,0:0:0:0:
317,194,124008,2,0,L|312:134,2,59.9999981689454,2|0|8,0:0|0:0|0:0,0:0:0:0:
317,194,124841,1,8,0:0:0:0:
485,243,125258,6,0,P|430:224|378:250,1,119.999996337891,0|2,0:0|0:0,0:0:0:0:
438,86,126091,1,8,0:0:0:0:
437,309,126508,6,0,L|442:369,1,50,8|0,0:0|0:0,0:0:0:0:
378,250,126925,1,0,0:0:0:0:
492,142,127133,1,0,0:0:0:0:
492,142,127341,6,0,L|484:242,1,100,0|2,0:0|0:0,0:0:0:0:
484,242,130258,5,0,0:0:0:0:
486,223,130466,1,0,0:0:0:0:
417,124,130675,6,0,P|389:104|288:125,1,119.999996337891,6|8,0:0|0:0,0:0:0:0:
372,301,131300,1,0,0:0:0:0:
362,229,131508,2,0,L|352:160,1,59.9999981689454,8|0,0:0|0:0,0:0:0:0:
486,223,131925,5,0,0:0:0:0:
484,242,132133,1,0,0:0:0:0:
353,169,132341,6,0,L|370:288,1,119.999996337891,2|8,0:0|0:0,0:0:0:0:
307,109,132966,1,0,0:0:0:0:
378,101,133175,2,0,P|414:121|426:136,1,59.9999981689454,8|0,0:0|0:0,0:0:0:0:
484,242,133591,6,0,P|473:204|479:177,1,59.9999981689454
424,42,134008,2,0,P|440:88|425:135,1,100,2|8,0:0|0:0,0:0:0:0:
352,255,134633,5,0,0:0:0:0:
345,218,134841,2,0,P|347:199|354:182,1,37.5000014305115,8|0,0:0|0:0,0:0:0:0:
272,337,135258,6,0,L|272:300,1,37.5000014305115
188,182,135675,2,0,P|197:218|192:255,1,75.0000028610231,2|8,0:0|0:0,0:0:0:0:
192,255,136508,1,8,0:0:0:0:
271,135,136716,5,0,0:0:0:0:
274,117,136925,1,0,0:0:0:0:
277,99,137133,1,0,0:0:0:0:
458,37,137341,6,0,L|324:53,1,119.999996337891,6|8,0:0|0:0,0:0:0:0:
409,225,137966,1,0,0:0:0:0:
451,166,138175,2,0,P|444:126|421:95,1,59.9999981689454,8|0,0:0|0:0,0:0:0:0:
274,117,138591,5,0,0:0:0:0:
271,135,138800,1,0,0:0:0:0:
338,51,139008,6,0,L|458:37,1,119.999996337891,2|8,0:0|0:0,0:0:0:0:
442,121,139633,1,0,0:0:0:0:
442,121,139841,2,0,P|446:180|409:225,1,119.999996337891,8|0,0:0|0:0,0:0:0:0:
458,37,140675,5,2,0:0:0:0:
338,51,141091,1,8,0:0:0:0:
338,51,141300,1,0,0:0:0:0:
338,51,141508,2,0,P|300:39|261:38,1,59.9999981689454,8|0,0:0|0:0,0:0:0:0:
239,195,141925,6,0,P|247:159|239:123,1,75
228,119,142341,6,0,P|183:132|127:116,1,93.7500035762788,2|0,0:0|0:0,0:0:0:0:
129,119,142966,1,0,0:0:0:0:
48,156,143175,2,0,L|13:153,1,25,8|0,0:0|0:0,0:0:0:0:
107,217,143591,5,2,0:0:0:0:
98,294,143800,1,0,0:0:0:0:
270,331,144008,6,0,L|152:348,1,119.999996337891,6|8,0:0|0:0,0:0:0:0:
186,263,144633,1,0,0:0:0:0:
247,225,144841,2,0,P|292:226|327:239,1,59.9999981689454,8|0,0:0|0:0,0:0:0:0:
98,294,145258,5,0,0:0:0:0:
107,217,145466,1,0,0:0:0:0:
292,226,145675,6,0,P|233:229|186:263,1,119.999996337891,2|8,0:0|0:0,0:0:0:0:
152,348,146300,1,0,0:0:0:0:
270,331,146508,1,8,0:0:0:0:
453,134,146925,6,0,L|442:230,1,89.9999972534181
451,271,147341,2,0,P|409:235|346:237,1,97.4999955368044,2|0,0:0|0:0,0:0:0:0:
288,100,147758,2,0,L|298:206,1,104.999996795654,8|0,0:0|0:0,0:0:0:0:
199,27,148175,2,0,P|178:64|181:146,1,112.500004291535,8|0,0:0|0:0,0:0:0:0:
36,220,148591,2,0,L|58:63,1,120
140,341,149008,6,0,L|118:174,1,150,2|0,0:0|0:0,0:0:0:0:
135,126,149425,2,0,L|144:200,1,75.0000028610231,8|0,0:0|0:0,0:0:0:0:
140,341,149841,1,8,0:0:0:0:
140,341,150258,5,0,0:0:0:0:
143,311,150466,1,0,0:0:0:0:
194,197,150675,2,0,L|203:257,2,59.9999981689454,2|0|8,0:0|0:0|0:0,0:0:0:0:
194,197,151508,1,8,0:0:0:0:
362,150,151925,6,0,P|305:165|251:144,1,119.999996337891,0|2,0:0|0:0,0:0:0:0:
333,305,152758,1,8,0:0:0:0:
310,80,153175,6,0,L|314:23,1,50,8|0,0:0|0:0,0:0:0:0:
362,150,153591,1,0,0:0:0:0:
251,144,153800,1,0,0:0:0:0:
251,144,154008,6,0,B|172:190|172:111|80:155,1,175
83,153,157341,1,6,0:0:0:0:
256,192,157445,12,2,159841,0:0:0:0:
135,45,160675,6,0,P|154:51|174:71,1,43.75,2|0,0:0|0:0,0:0:0:0:
152,85,161091,2,0,P|152:120|146:156,1,65.6250025033952,2|0,0:0|0:0,0:0:0:0:
136,169,161508,2,0,B|198:128|258:146|269:233|212:255,1,200,2|8,0:0|0:0,0:0:0:0:
161,63,164008,6,0,P|180:69|200:89,1,43.75,2|0,0:0|0:0,0:0:0:0:
178,103,164425,2,0,P|178:138|172:174,1,65.6250025033952,2|0,0:0|0:0,0:0:0:0:
162,187,164841,2,0,B|224:146|284:164|295:251|238:273,1,200,2|8,0:0|0:0,0:0:0:0:
228,348,167341,6,0,L|240:250,1,96.875,2|0,0:0|0:0,0:0:0:0:
268,246,169008,6,0,L|251:111,1,135.624995861054,2|0,0:0|0:0,0:0:0:0:
223,103,170675,6,8,P|339:28|253:145,1,400,10|12,0:0|0:0,0:0:0:0:
151,126,194008,6,0,L|166:67,1,59.9999981689454,2|2,0:0|0:0,0:0:0:0:
191,52,194841,1,8,0:0:0:0:
257,109,195258,1,0,0:0:0:0:
257,109,195675,6,0,L|306:58,1,69.9999978637696,2|2,0:0|0:0,0:0:0:0:
340,58,196508,1,8,0:0:0:0:
366,154,196925,1,0,0:0:0:0:
366,154,197341,6,0,L|448:130,1,80,2|2,0:0|0:0,0:0:0:0:
477,152,198175,1,8,0:0:0:0:
321,227,198591,1,0,0:0:0:0:
321,227,199008,6,0,P|199:142|340:171,1,400,2|2,0:0|0:0,0:0:0:0:
256,192,200779,12,0,206925,0:0:0:0:
122,152,214008,5,6,0:0:0:0:
118,227,214216,1,0,0:0:0:0:
185,194,214425,1,8,0:0:0:0:
237,73,214633,6,0,L|244:148,1,75.0000028610231
294,203,215258,1,0,0:0:0:0:
318,132,215466,1,0,0:0:0:0:
374,223,215675,6,0,L|368:187,1,37.5000014305115,2|0,0:0|0:0,0:0:0:0:
433,104,216091,2,0,L|426:140,1,37.5000014305115,8|0,0:0|0:0,0:0:0:0:
426,140,216508,1,8,0:0:0:0:
425,139,217133,6,0,L|432:176,2,37.5000014305115,0|2|0,0:0|0:0|0:0,0:0:0:0:
356,109,217758,1,8,0:0:0:0:
287,140,217966,6,0,L|272:223,1,75.0000028610231
212,257,218591,1,0,0:0:0:0:
273,213,218800,1,0,0:0:0:0:
334,303,219008,6,0,P|330:285|322:269,1,37.5000014305115,2|0,0:0|0:0,0:0:0:0:
273,213,219425,1,8,0:0:0:0:
383,206,219633,2,0,P|365:199|346:199,1,37.5000014305115,0|8,0:0|0:0,0:0:0:0:
273,213,220050,5,0,0:0:0:0:
199,214,220258,2,0,P|236:219|273:213,1,75.0000028610231,2|6,0:0|0:0,0:0:0:0:
256,286,220883,5,0,0:0:0:0:
273,212,221091,1,8,0:0:0:0:
256,138,221300,2,0,L|245:59,1,75.0000028610231
331,71,221925,1,0,0:0:0:0:
331,71,222133,5,0,0:0:0:0:
260,24,222341,2,0,L|221:28,1,37.5000014305115,2|0,0:0|0:0,0:0:0:0:
169,94,222758,2,0,L|130:98,1,37.5000014305115,8|0,0:0|0:0,0:0:0:0:
131,97,223175,1,8,0:0:0:0:
91,229,223591,6,0,B|98:180,2,37.5000014305115,0|0|2,0:0|0:0|0:0,0:0:0:0:
59,297,224425,1,8,0:0:0:0:
149,350,224633,2,0,L|112:349,1,37.5000014305115,8|0,0:0|0:0,0:0:0:0:
236,296,225050,1,8,0:0:0:0:
236,296,225258,2,0,P|283:284|237:318,1,150.000005722046,14|0,0:0|0:0,0:0:0:0:
243,326,226508,6,0,L|166:311,1,75.0000028610231,10|2,0:0|0:0,0:0:0:0:
131,230,227133,1,2,0:0:0:0:
58,245,227341,2,0,L|135:230,1,75.0000028610231,6|8,0:0|0:0,0:0:0:0:
131,230,227966,5,0,0:0:0:0:
131,230,228175,2,0,L|208:215,1,75.0000028610231,8|0,0:0|0:0,0:0:0:0:
243,134,228800,1,0,0:0:0:0:
316,149,229008,2,0,L|239:134,1,75.0000028610231,6|8,0:0|0:0,0:0:0:0:
461,75,229841,5,8,0:0:0:0:
446,73,230258,1,0,0:0:0:0:
431,72,230675,2,0,P|384:72|345:80,1,75.0000028610231,2|8,0:0|0:0,0:0:0:0:
289,193,231300,6,0,L|291:123,1,56.2500021457673,2|0,0:0|0:0,0:0:0:0:
264,113,231716,2,0,P|240:119|194:112,1,56.2500021457673,8|0,0:0|0:0,0:0:0:0:
172,91,232133,6,0,P|229:110|286:90,1,122.641509433962,12|0,0:0|0:0,0:0:0:0:
286,90,235258,5,0,0:0:0:0:
286,90,235466,1,0,0:0:0:0:
358,151,235675,5,6,0:0:0:0:
256,241,236508,1,2,0:0:0:0:
384,285,237341,1,2,0:0:0:0:
489,325,237966,6,0,P|462:272|475:219,1,112.500004291535,2|2,0:0|0:0,0:0:0:0:
506,154,239008,1,2,0:0:0:0:
500,139,239841,1,2,0:0:0:0:
494,124,240675,2,0,L|479:84,1,37.5000014305115,0|2,0:0|0:0,0:0:0:0:
476,78,241508,1,2,0:0:0:0:
476,78,242341,6,0,L|473:97,2,12.5,2|2|2,0:0|0:0|0:0,0:0:0:0:
410,114,244008,6,0,L|402:131,2,12.5,2|2|2,0:0|0:0|0:0,0:0:0:0:
336,130,245675,6,0,L|323:144,2,12.5,2|2|2,0:0|0:0|0:0,0:0:0:0:
261,137,247341,6,0,L|245:148,2,12.5,2|2|2,0:0|0:0|0:0,0:0:0:0:
86,244,249008,6,0,L|82:230,2,12.5,2|2|2,0:0|0:0|0:0,0:0:0:0:
155,211,250675,6,0,L|154:196,2,12.5,2|2|2,0:0|0:0|0:0,0:0:0:0:
229,221,252341,5,2,0:0:0:0:
291,271,254008,5,2,0:0:0:0:
231,122,254841,1,2,0:0:0:0:
80,67,255675,6,0,L|41:100,2,50,2|10|10,0:0|0:0|0:0,0:0:0:0:
125,132,257341,6,0,L|95:173,2,50,2|10|10,0:0|0:0|0:0,0:0:0:0:
189,179,259008,6,0,L|171:227,2,50,2|10|10,0:0|0:0|0:0,0:0:0:0:
266,199,260675,6,0,L|261:249,2,50,2|10|10,0:0|0:0|0:0,0:0:0:0:
316,136,262341,6,0,L|307:86,2,50,2|10|10,0:0|0:0|0:0,0:0:0:0:
394,120,264008,6,0,L|398:70,2,50,2|10|10,0:0|0:0|0:0,0:0:0:0:
470,143,265675,6,0,L|486:95,1,50,2|2,0:0|0:0,0:0:0:0:
485,95,267966,5,8,0:0:0:0:
479,112,268070,1,8,0:0:0:0:
473,130,268175,2,0,L|457:177,1,37.5000014305115,12|0,0:0|0:0,0:0:0:0:
384,274,268591,5,8,0:0:0:0:
394,200,268800,1,8,0:0:0:0:
317,310,269008,6,0,P|261:325|209:297,1,119.999996337891,6|8,0:0|0:0,0:0:0:0:
279,122,269633,1,0,0:0:0:0:
275,193,269841,2,0,L|271:252,1,59.9999981689454,8|0,0:0|0:0,0:0:0:0:
394,200,270258,5,0,0:0:0:0:
384,274,270467,1,0,0:0:0:0:
271,252,270675,6,0,L|279:132,1,119.999996337891,2|8,0:0|0:0,0:0:0:0:
209,297,271300,1,0,0:0:0:0:
275,325,271508,2,0,P|308:315|328:299,1,59.9999981689454,8|0,0:0|0:0,0:0:0:0:
450,185,271925,6,0,P|420:185|393:199,1,59.9999981689454
221,156,272341,2,0,L|321:170,1,100,2|8,0:0|0:0,0:0:0:0:
397,45,272966,1,0,0:0:0:0:
397,82,273175,2,0,P|392:100|381:115,1,37.5000014305115,8|0,0:0|0:0,0:0:0:0:
302,59,273591,6,0,L|296:17,1,37.5000014305115
222,115,274008,2,0,P|206:82|207:45,1,75.0000028610231,2|8,0:0|0:0,0:0:0:0:
206,45,274841,1,8,0:0:0:0:
301,171,275258,5,0,0:0:0:0:
294,245,275466,1,0,0:0:0:0:
169,214,275675,6,0,P|208:250|203:334,1,119.999996337891,6|8,0:0|0:0,0:0:0:0:
74,114,276300,1,0,0:0:0:0:
84,185,276508,2,0,L|95:266,1,59.9999981689454,8|0,0:0|0:0,0:0:0:0:
294,245,276925,5,0,0:0:0:0:
301,171,277133,1,0,0:0:0:0:
92,244,277341,6,0,L|76:126,1,119.999996337891,2|8,0:0|0:0,0:0:0:0:
213,313,277966,1,0,0:0:0:0:
213,313,278175,2,0,P|210:255|169:214,1,119.999996337891,8|0,0:0|0:0,0:0:0:0:
259,58,279008,1,2,0:0:0:0:
259,58,279841,6,0,L|251:177,1,119.999996337891,8|0,0:0|0:0,0:0:0:0:
313,245,280466,1,0,0:0:0:0:
450,175,280675,6,0,P|414:169|380:185,1,75,2|0,0:0|0:0,0:0:0:0:
381,185,281091,1,8,0:0:0:0:
482,310,281300,5,0,0:0:0:0:
505,280,281508,2,0,P|509:262|508:244,1,37.5000014305115,8|0,0:0|0:0,0:0:0:0:
450,175,281925,5,0,0:0:0:0:
461,101,282133,1,0,0:0:0:0:
290,71,282341,6,0,L|408:49,1,119.999996337891,6|8,0:0|0:0,0:0:0:0:
320,149,282966,1,0,0:0:0:0:
248,142,283175,2,0,P|219:113|212:81,1,59.9999981689454,8|0,0:0|0:0,0:0:0:0:
461,101,283591,5,0,0:0:0:0:
450,175,283799,1,0,0:0:0:0:
217,109,284008,6,0,P|261:149|320:149,1,119.999996337891,2|8,0:0|0:0,0:0:0:0:
408,49,284633,1,0,0:0:0:0:
408,49,284841,2,0,L|290:71,1,119.999996337891,8|0,0:0|0:0,0:0:0:0:
140,29,285675,1,2,0:0:0:0:
140,29,286091,6,8,L|146:67,1,37.5000014305115
190,194,286508,6,0,L|198:120,1,75.0000028610231,14|0,0:0|0:0,0:0:0:0:
226,138,286786,6,8,L|234:222,1,85.0000016212464,10|0,0:0|0:0,0:0:0:0:
263,208,287063,6,0,L|272:113,1,94.9999974632264,10|0,0:0|0:0,0:0:0:0:
333,22,287341,6,0,L|355:234,1,200,14|8,0:0|0:0,0:0:0:0:
353,220,288175,1,8,0:0:0:0:
353,220,288591,5,0,0:0:0:0:
353,220,288800,1,0,0:0:0:0:
353,220,289008,2,0,L|346:149,2,59.9999981689454,2|0|8,0:0|0:0|0:0,0:0:0:0:
408,326,289841,1,8,0:0:0:0:
347,160,290258,6,0,L|353:220,1,59.9999981689454
267,78,290675,6,0,L|277:181,1,100,2|0,0:0|0:0,0:0:0:0:
276,177,295023,6,0,P|274:211|280:229,1,50
256,192,296025,12,2,299275,0:0:0:0:
208,166,300108,6,0,L|217:201,2,33.3333333333333,2|2|2,0:0|0:0|0:0,0:0:0:0:
208,166,300941,1,2,0:0:0:0:
82,265,301886,1,2,0:0:0:0:
82,265,302384,6,0,L|87:234,1,25,2|2,0:0|0:0,0:0:0:0:
152,205,302831,6,0,L|160:255,2,50,2|10|10,0:0|0:0|0:0,0:0:0:0:
152,205,304081,1,2,0:0:0:0:
271,263,304529,1,2,0:0:0:0:
271,263,304951,6,0,L|266:218,1,37.5,2|0,0:0|0:0,0:0:0:0:
266,212,305437,2,0,L|272:164,1,37.5,2|0,0:0|0:0,0:0:0:0:
270,151,305902,1,2,0:0:0:0:
315,96,306395,6,0,L|314:77,2,12.5,2|2|2,0:0|0:0|0:0,0:0:0:0:
360,151,306913,2,0,P|399:157|428:152,1,56.2500021457673,2|0,0:0|0:0,0:0:0:0:
483,136,307447,2,0,L|474:255,1,100,2|0,0:0|0:0,0:0:0:0:
475,235,309686,1,2,0:0:0:0:
427,329,310046,6,0,L|422:277,1,37.5000014305115
365,232,310507,2,0,P|337:239|281:226,1,59.9999981689454,6|0,0:0|0:0,0:0:0:0:
255,177,310923,1,8,0:0:0:0:
265,45,311132,1,0,0:0:0:0:
259,117,311340,2,0,L|255:177,1,59.9999981689454,8|0,0:0|0:0,0:0:0:0:
177,132,311757,6,0,L|173:191,1,59.9999981689454
86,266,312173,2,0,L|95:146,1,119.999996337891,2|8,0:0|0:0,0:0:0:0:
254,176,313007,1,8,0:0:0:0:
86,266,313423,6,0,L|139:260,1,37.5000014305115
293,315,313840,6,0,P|236:332|180:315,1,119.999996337891,2|8,0:0|0:0,0:0:0:0:
251,118,314673,1,8,0:0:0:0:
251,191,314882,1,0,0:0:0:0:
251,58,315090,2,0,L|251:118,1,59.9999981689454,2|0,0:0|0:0,0:0:0:0:
419,150,315507,6,0,P|369:159|305:142,2,100,2|8|8,0:0|0:0|0:0,0:0:0:0:
419,150,316757,6,0,L|414:95,1,37.5000014305115
484,202,317173,2,0,L|477:271,1,59.9999981689454,6|0,0:0|0:0,0:0:0:0:
421,316,317590,1,8,0:0:0:0:
296,304,317798,1,0,0:0:0:0:
367,292,318007,2,0,P|405:306|435:329,1,59.9999981689454,8|0,0:0|0:0,0:0:0:0:
217,305,318423,6,0,P|226:269|245:243,1,59.9999981689454
96,169,318840,2,0,P|146:228|138:294,1,119.999996337891,2|8,0:0|0:0,0:0:0:0:
146,267,319673,2,0,P|155:209|198:169,2,119.999996337891,8|0|2,0:0|0:0|0:0,0:0:0:0:
314,268,320923,5,8,0:0:0:0:
238,250,321132,1,0,0:0:0:0:
139,338,321340,2,0,L|259:324,1,119.999996337891,8|0,0:0|0:0,0:0:0:0:
314,268,321965,1,0,0:0:0:0:
386,240,322173,2,0,P|377:194|388:108,2,119.999996337891,2|8|8,0:0|0:0|0:0,0:0:0:0:
454,150,323215,5,0,0:0:0:0:
383,121,323423,2,0,L|336:125,1,37.5000014305115
225,73,323840,2,0,P|254:67|283:73,1,59.9999981689454,6|0,0:0|0:0,0:0:0:0:
255,146,324257,1,8,0:0:0:0:
198,308,324465,1,0,0:0:0:0:
193,247,324673,2,0,L|189:188,1,59.9999981689454,8|0,0:0|0:0,0:0:0:0:
267,344,325090,6,0,L|267:284,1,59.9999981689454
336,309,325507,2,0,L|344:189,1,119.999996337891,2|8,0:0|0:0,0:0:0:0:
491,74,326340,6,0,P|473:49|414:33,1,75,8|0,0:0|0:0,0:0:0:0:
412,54,326757,2,0,P|363:58|307:48,1,89.9999972534181
234,21,327173,6,0,P|252:76|242:129,1,97.4999955368044,2|0,0:0|0:0,0:0:0:0:
343,144,327590,2,0,L|352:273,1,104.999996795654,8|0,0:0|0:0,0:0:0:0:
160,193,328007,2,0,P|214:187|260:219,1,112.500004291535,8|0,0:0|0:0,0:0:0:0:
304,316,328423,6,0,L|410:327,1,104.999996795654
268,128,328840,2,0,P|248:177|267:229,1,97.4999955368044,2|0,0:0|0:0,0:0:0:0:
259,218,329257,1,8,0:0:0:0:
418,244,329465,2,0,P|393:192|337:179,1,119.999996337891
409,318,330090,5,0,0:0:0:0:
418,244,330298,1,0,0:0:0:0:
418,244,330507,2,0,L|408:330,1,75.0000028610231,0|8,0:0|0:0,0:0:0:0:
409,318,331340,1,8,0:0:0:0:
313,133,331757,6,0,L|318:187,1,50
389,160,332173,2,0,L|393:110,2,50,2|0|8,0:0|0:0|0:0,0:0:0:0:
389,160,333007,1,8,0:0:0:0:
447,260,333423,2,0,P|451:229|445:193,1,50
389,160,333840,6,0,P|348:165|308:155,1,75,2|0,0:0|0:0,0:0:0:0:
303,144,334257,2,0,P|268:119|213:141,1,89.9999972534181,8|0,0:0|0:0,0:0:0:0:
218,143,334673,2,0,L|228:240,1,75,8|0,0:0|0:0,0:0:0:0:
223,231,335090,1,0,0:0:0:0:
132,214,335298,1,0,0:0:0:0:
132,214,335507,6,0,L|142:314,1,100,0|8,0:0|0:0,0:0:0:0:
142,314,336757,6,0,L|134:232,1,59.9999981689454
73,157,337173,2,0,B|260:255|260:84|410:165,1,350,6|0,0:0|0:0,0:0:0:0:
410,85,340507,2,0,P|329:154|482:178,1,350,2|0,0:0|0:0,0:0:0:0:
405,162,343840,2,0,B|394:141|410:85|410:85|340:86|314:22,1,200,6|2,0:0|0:0,0:0:0:0:
256,192,346340,12,0,353840,0:0:0:0:
