osu file format v14

[General]
AudioFilename: audio.mp3
AudioLeadIn: 0
PreviewTime: 81394
Countdown: 0
SampleSet: Soft
StackLeniency: 0.7
Mode: 3
LetterboxInBreaks: 0
SpecialStyle: 0
WidescreenStoryboard: 0

[Editor]
DistanceSpacing: 2
BeatDivisor: 8
GridSize: 16
TimelineZoom: 1.3

[Metadata]
Title:Kokoro ga Kaeru Basho
TitleUnicode:ココロがかえる場所
Artist:Yukiho Hagiwara, Momoko Suou, Chizuru Nikaido, Roco Handa
ArtistUnicode:Yukiho Hagiwara, Momoko Suou, Chizuru Nikaido, Roco Handa
Creator:FadillSan
Version:Tadaima~
Source:THE IDOLM@STER LIVE THE@TER
Tags:MILLION LIVE THEATER DAYS LIVE THE@TER PERFORMANCE 12
BeatmapID:1355014
BeatmapSetID:638826

[Difficulty]
HPDrainRate:8
CircleSize:4
OverallDifficulty:8
ApproachRate:5
SliderMultiplier:1.4
SliderTickRate:1

[Events]
//Background and Video events
0,0,"1366.jpg",0,0
//Break Periods
//Storyboard Layer 0 (Background)
//Storyboard Layer 1 (Fail)
//Storyboard Layer 2 (Pass)
//Storyboard Layer 3 (Foreground)
//Storyboard Sound Samples

[TimingPoints]
552,631.578947368421,4,2,1,10,1,0
10657,-100,4,2,1,50,0,0
20762,-100,4,1,1,30,0,0
40341,-100,4,2,1,50,0,0
81394,-100,4,2,1,50,0,1
126236,-125,4,2,1,50,0,1
126867,-142.857142857143,4,2,1,50,0,0
128762,-166.666666666667,4,2,1,50,0,0
130341,-142.857142857143,4,2,1,50,0,0
130657,-125,4,2,1,50,0,0
130973,-111.111111111111,4,2,1,50,0,0
131288,-100,4,2,1,50,0,0
172341,-100,4,2,1,50,0,1
212762,-100,4,2,1,50,0,0
232973,-111.111111111111,4,2,1,50,0,0
233288,-125,4,2,1,50,0,0
233604,-142.857142857143,4,2,1,50,0,0
233920,-166.666666666667,4,2,1,50,0,0
235499,-166.666666666667,4,1,1,20,0,0
245604,-142.857142857143,4,2,1,50,0,0
248130,-125,4,2,1,50,0,0
250657,-111.111111111111,4,2,1,50,0,0
255709,-100,4,2,1,50,0,1
296130,-100,4,2,1,50,0,0

[HitObjects]
192,192,552,5,0,0:0:0:0:
448,192,828,1,0,0:0:0:0:
320,192,867,1,0,0:0:0:0:
192,192,907,1,0,0:0:0:0:G5H_s.wav
64,192,907,1,0,0:0:0:0:
192,192,1183,1,0,0:0:0:0:G5H_s.wav
192,192,1499,1,0,0:0:0:0:G5H_s.wav
192,192,1657,1,0,0:0:0:0:G5H_s.wav
320,192,2130,1,0,0:0:0:0:F5H_s.wav
64,192,2446,1,0,0:0:0:0:E5H_s.wav
320,192,2762,1,0,0:0:0:0:F5H_s.wav
64,192,3078,1,0,0:0:0:0:D5H_s.wav
192,192,3078,1,0,0:0:0:0:
320,192,3394,1,0,0:0:0:0:
192,192,3709,1,0,0:0:0:0:
448,192,3709,1,0,0:0:0:0:
320,192,4025,1,0,0:0:0:0:F5H_s.wav
192,192,4380,1,0,0:0:0:0:E5H_s.wav
64,192,4420,1,0,0:0:0:0:
320,192,4973,1,0,0:0:0:0:D5H_s.wav
192,192,5604,1,0,0:0:0:0:
448,192,5604,1,0,0:0:0:0:
64,192,5920,1,0,0:0:0:0:
192,192,6236,1,0,0:0:0:0:
320,192,6552,1,0,0:0:0:0:E5H_s.wav
320,192,6867,1,0,0:0:0:0:E5H_s.wav
192,192,7183,1,0,0:0:0:0:D5H_s.wav
320,192,7499,1,0,0:0:0:0:E5H_s.wav
448,192,7815,1,0,0:0:0:0:F5H_s.wav
64,192,8130,1,0,0:0:0:0:D5H_s.wav
192,192,8130,1,0,0:0:0:0:
320,192,8446,1,0,0:0:0:0:
192,192,8762,1,0,0:0:0:0:
448,192,9078,1,0,0:0:0:0:F5H_s.wav
320,192,9394,1,0,0:0:0:0:E5H_s.wav
64,192,9394,1,0,0:0:0:0:
192,192,9552,1,0,0:0:0:0:
320,192,9709,1,0,0:0:0:0:F5H_s.wav
192,192,9867,1,0,0:0:0:0:
448,192,9867,1,0,0:0:0:0:
64,192,10025,1,0,0:0:0:0:G5H_s.wav
320,192,10025,1,0,0:0:0:0:
448,192,10183,1,0,0:0:0:0:
320,192,10341,1,0,0:0:0:0:C6H_s.wav
192,192,10499,1,0,0:0:0:0:
64,192,10657,1,0,0:0:0:0:
448,192,10657,128,0,13183:0:0:0:0:
320,192,11288,1,0,0:0:0:0:A5H_s.wav
64,192,11920,1,0,0:0:0:0:G5H_s.wav
192,192,12236,1,0,0:0:0:0:B5H_s.wav
192,192,12551,1,0,0:0:0:0:B5H_s.wav
320,192,12551,1,0,0:0:0:0:
64,192,12867,1,0,0:0:0:0:D6H_s.wav
320,192,12867,1,0,0:0:0:0:
192,192,13025,1,0,0:0:0:0:
64,192,13183,128,0,15709:0:0:0:0:
320,192,13183,1,0,0:0:0:0:
192,192,13736,1,0,0:0:0:0:
320,192,13775,1,0,0:0:0:0:
448,192,13815,1,0,0:0:0:0:D6H_s.wav
448,192,14130,1,0,0:0:0:0:C6H_s.wav
320,192,14288,1,0,0:0:0:0:B5H_s.wav
448,192,14446,1,0,0:0:0:0:C6H_s.wav
192,192,14446,1,0,0:0:0:0:
320,192,14604,1,0,0:0:0:0:
192,192,14762,1,0,0:0:0:0:
320,192,14762,1,0,0:0:0:0:
320,192,15078,1,0,0:0:0:0:E5H_s.wav
448,192,15078,1,0,0:0:0:0:
320,192,15394,1,0,0:0:0:0:
192,192,15709,1,0,0:0:0:0:G5H_s.wav
448,192,15709,128,0,18236:0:0:0:0:
320,192,16657,1,0,0:0:0:0:F5H_s.wav
192,192,16657,1,0,0:0:0:0:
192,192,16815,1,0,0:0:0:0:E5H_s.wav
64,192,16973,1,0,0:0:0:0:C5H_s.wav
320,192,16973,1,0,0:0:0:0:
192,192,17288,1,0,0:0:0:0:
64,192,17446,1,0,0:0:0:0:
320,192,17604,1,0,0:0:0:0:
192,192,17604,1,0,0:0:0:0:
192,192,17920,1,0,0:0:0:0:A4H_s.wav
64,192,17920,1,0,0:0:0:0:
64,192,18236,128,0,20762:0:0:0:0:
320,192,18236,1,0,0:0:0:0:G4H_s.wav
448,192,19183,1,0,0:0:0:0:
320,192,20130,1,0,0:0:0:0:
192,192,20762,1,0,0:0:0:0:
320,192,21078,1,0,0:0:0:0:
448,192,21394,1,0,0:0:0:0:
64,192,21394,1,0,0:0:0:0:
320,192,21709,1,0,0:0:0:0:
192,192,21867,1,0,0:0:0:0:
448,192,22025,1,0,0:0:0:0:
64,192,22025,1,0,0:0:0:0:
192,192,22341,1,0,0:0:0:0:
448,192,22657,1,0,0:0:0:0:
64,192,22657,1,0,0:0:0:0:
320,192,22973,1,0,0:0:0:0:
64,192,23288,1,0,0:0:0:0:
192,192,23288,1,0,0:0:0:0:
320,192,23604,1,0,0:0:0:0:
448,192,23920,1,0,0:0:0:0:
64,192,23920,1,0,0:0:0:0:
320,192,24236,1,0,0:0:0:0:
192,192,24394,1,0,0:0:0:0:
64,192,24552,1,0,0:0:0:0:
448,192,24552,1,0,0:0:0:0:
320,192,24867,1,0,0:0:0:0:
64,192,25183,1,0,0:0:0:0:
448,192,25183,1,0,0:0:0:0:
192,192,25499,1,0,0:0:0:0:
448,192,25815,1,0,0:0:0:0:
320,192,25815,1,0,0:0:0:0:
192,192,26130,1,0,0:0:0:0:
448,192,26446,1,0,0:0:0:0:
64,192,26446,1,0,0:0:0:0:
320,192,26762,1,0,0:0:0:0:
192,192,26920,1,0,0:0:0:0:
320,192,27078,1,0,0:0:0:0:
64,192,27078,1,0,0:0:0:0:
448,192,27394,1,0,0:0:0:0:
64,192,27709,1,0,0:0:0:0:
192,192,27709,1,0,0:0:0:0:
320,192,28025,1,0,0:0:0:0:
192,192,28341,1,0,0:0:0:0:
448,192,28341,1,0,0:0:0:0:
320,192,28657,1,0,0:0:0:0:
64,192,28973,1,0,0:0:0:0:
192,192,28973,1,0,0:0:0:0:
448,192,29288,1,0,0:0:0:0:
320,192,29446,1,0,0:0:0:0:
192,192,29604,1,0,0:0:0:0:
448,192,29604,1,0,0:0:0:0:
64,192,29920,1,0,0:0:0:0:
448,192,30236,1,0,0:0:0:0:
192,192,30236,1,0,0:0:0:0:
320,192,30552,1,0,0:0:0:0:
64,192,30867,1,0,0:0:0:0:
192,192,30867,1,0,0:0:0:0:
320,192,31183,1,0,0:0:0:0:
448,192,31499,1,0,0:0:0:0:
192,192,31499,1,0,0:0:0:0:
64,192,31815,1,0,0:0:0:0:
320,192,32130,1,0,0:0:0:0:
64,192,32446,1,0,0:0:0:0:
448,192,32762,1,0,0:0:0:0:
192,192,32762,1,0,0:0:0:0:
320,192,33078,1,0,0:0:0:0:
192,192,33394,1,0,0:0:0:0:
64,192,33394,1,0,0:0:0:0:
448,192,33709,1,0,0:0:0:0:
64,192,34025,1,0,0:0:0:0:
320,192,34025,1,0,0:0:0:0:
192,192,34341,1,0,0:0:0:0:
320,192,34657,1,0,0:0:0:0:
448,192,34657,1,0,0:0:0:0:
64,192,34973,1,0,0:0:0:0:
448,192,35288,1,0,0:0:0:0:
192,192,35288,1,0,0:0:0:0:
320,192,35604,1,0,0:0:0:0:
64,192,35920,1,0,0:0:0:0:
192,192,35920,1,0,0:0:0:0:
320,192,36236,1,0,0:0:0:0:
192,192,36552,1,0,0:0:0:0:
448,192,36552,1,0,0:0:0:0:
64,192,36867,1,0,0:0:0:0:
448,192,37025,1,0,0:0:0:0:
192,192,37183,1,0,0:0:0:0:
320,192,37183,1,0,0:0:0:0:
448,192,37499,1,0,0:0:0:0:
320,192,37815,1,0,0:0:0:0:
64,192,37815,1,0,0:0:0:0:
192,192,38130,1,0,0:0:0:0:
320,192,38446,1,0,0:0:0:0:
448,192,38446,1,0,0:0:0:0:
192,192,38762,1,0,0:0:0:0:
64,192,39078,1,0,0:0:0:0:
448,192,39078,1,0,0:0:0:0:
320,192,39394,128,0,39709:0:0:0:0:
448,192,39552,1,0,0:0:0:0:
192,192,39709,128,0,40025:0:0:0:0:
64,192,40025,128,0,40341:0:0:0:0:
320,192,40341,128,0,40973:0:0:0:0:
192,192,40341,1,0,0:0:0:0:
192,192,40973,1,0,0:0:0:0:
448,192,40973,128,0,43183:0:0:0:0:
320,192,41288,1,0,0:0:0:0:
64,192,41604,1,0,0:0:0:0:
320,192,41920,1,0,0:0:0:0:
192,192,42236,1,0,0:0:0:0:
320,192,42552,1,0,0:0:0:0:
64,192,42867,1,0,0:0:0:0:
320,192,43183,1,0,0:0:0:0:
192,192,43183,1,0,0:0:0:0:
64,192,43499,1,0,0:0:0:0:
320,192,43499,128,0,45709:0:0:0:0:
192,192,43499,1,0,0:0:0:0:
448,192,43815,1,0,0:0:0:0:
64,192,44130,1,0,0:0:0:0:
448,192,44446,1,0,0:0:0:0:
192,192,44762,1,0,0:0:0:0:
64,192,45078,1,0,0:0:0:0:
448,192,45394,1,0,0:0:0:0:
192,192,45709,1,0,0:0:0:0:
64,192,45709,1,0,0:0:0:0:
448,192,46025,1,0,0:0:0:0:
192,192,46025,128,0,48236:0:0:0:0:
320,192,46025,1,0,0:0:0:0:
64,192,46341,1,0,0:0:0:0:
448,192,46657,1,0,0:0:0:0:
64,192,46973,1,0,0:0:0:0:
320,192,47288,1,0,0:0:0:0:
448,192,47604,1,0,0:0:0:0:
320,192,47920,1,0,0:0:0:0:
64,192,48236,1,0,0:0:0:0:
448,192,48236,1,0,0:0:0:0:
320,192,48552,1,0,0:0:0:0:
64,192,48552,128,0,50762:0:0:0:0:
192,192,48552,1,0,0:0:0:0:
448,192,48867,1,0,0:0:0:0:
192,192,49183,1,0,0:0:0:0:
320,192,49499,1,0,0:0:0:0:
192,192,49815,1,0,0:0:0:0:
448,192,50130,1,0,0:0:0:0:
320,192,50446,1,0,0:0:0:0:
448,192,50762,1,0,0:0:0:0:
192,192,50762,1,0,0:0:0:0:
192,192,51078,1,0,0:0:0:0:
448,192,51078,128,0,53288:0:0:0:0:
320,192,51078,1,0,0:0:0:0:
64,192,51394,1,0,0:0:0:0:
320,192,51709,1,0,0:0:0:0:
192,192,52025,1,0,0:0:0:0:
64,192,52341,1,0,0:0:0:0:
64,192,52973,1,0,0:0:0:0:
192,192,53288,1,0,0:0:0:0:
320,192,53288,1,0,0:0:0:0:
320,192,53604,1,0,0:0:0:0:
192,192,53604,128,0,55815:0:0:0:0:
448,192,53604,1,0,0:0:0:0:
64,192,53920,1,0,0:0:0:0:
320,192,54236,1,0,0:0:0:0:
448,192,54552,1,0,0:0:0:0:
320,192,54867,1,0,0:0:0:0:
64,192,55183,1,0,0:0:0:0:
320,192,55499,1,0,0:0:0:0:
448,192,55815,1,0,0:0:0:0:
64,192,55815,1,0,0:0:0:0:
64,192,56130,128,0,58341:0:0:0:0:
192,192,56130,1,0,0:0:0:0:
448,192,56130,1,0,0:0:0:0:
320,192,56446,1,0,0:0:0:0:
448,192,56762,1,0,0:0:0:0:
192,192,57078,1,0,0:0:0:0:
320,192,57394,1,0,0:0:0:0:
448,192,57709,1,0,0:0:0:0:
192,192,58025,1,0,0:0:0:0:
320,192,58341,1,0,0:0:0:0:
448,192,58341,1,0,0:0:0:0:
64,192,58657,1,0,0:0:0:0:
320,192,58657,128,0,60236:0:0:0:0:
192,192,58657,1,0,0:0:0:0:
448,192,58973,1,0,0:0:0:0:
192,192,59288,1,0,0:0:0:0:
448,192,59604,1,0,0:0:0:0:
64,192,59604,1,0,0:0:0:0:
64,192,60236,128,0,60552:0:0:0:0:
448,192,60236,1,0,0:0:0:0:
192,192,60552,128,0,60867:0:0:0:0:
320,192,60867,128,0,61183:0:0:0:0:
448,192,61183,128,0,61499:0:0:0:0:
64,192,61183,1,0,0:0:0:0:
192,192,61183,1,0,0:0:0:0:
320,192,61499,128,0,61815:0:0:0:0:
192,192,61815,128,0,62130:0:0:0:0:
448,192,61815,1,0,0:0:0:0:
64,192,62130,128,0,62288:0:0:0:0:
448,192,62288,128,0,63394:0:0:0:0:
320,192,62446,1,0,0:0:0:0:
192,192,62762,1,0,0:0:0:0:
64,192,63078,1,0,0:0:0:0:
192,192,63394,1,0,0:0:0:0:
320,192,63394,1,0,0:0:0:0:
192,192,63709,1,0,0:0:0:0:
64,192,63709,128,0,64025:0:0:0:0:
320,192,63709,1,0,0:0:0:0:
192,192,64025,128,0,64341:0:0:0:0:
320,192,64341,128,0,64657:0:0:0:0:
448,192,64341,1,0,0:0:0:0:
192,192,64657,128,0,64815:0:0:0:0:
64,192,64815,128,0,65920:0:0:0:0:
320,192,64973,1,0,0:0:0:0:
448,192,65288,1,0,0:0:0:0:
320,192,65604,1,0,0:0:0:0:
192,192,65920,1,0,0:0:0:0:
448,192,65920,1,0,0:0:0:0:
320,192,66078,1,0,0:0:0:0:
192,192,66236,1,0,0:0:0:0:
448,192,66236,128,0,66551:0:0:0:0:
320,192,66551,128,0,66709:0:0:0:0:
192,192,66709,128,0,67183:0:0:0:0:
448,192,67183,1,0,0:0:0:0:
64,192,67499,128,0,67815:0:0:0:0:
320,192,67499,1,0,0:0:0:0:
192,192,67815,128,0,68130:0:0:0:0:
320,192,68130,128,0,68446:0:0:0:0:
448,192,68446,128,0,68762:0:0:0:0:
64,192,68446,1,0,0:0:0:0:
64,192,68762,1,0,0:0:0:0:
192,192,68762,1,0,0:0:0:0:
320,192,68762,128,4,69078:0:0:0:0:
64,192,69078,128,0,69236:0:0:0:0:
192,192,69236,128,0,69551:0:0:0:0:
320,192,69551,128,0,69709:0:0:0:0:
448,192,69709,128,0,70657:0:0:0:0:
64,192,70025,1,0,0:0:0:0:
192,192,70025,1,0,0:0:0:0:
64,192,70657,1,0,0:0:0:0:
320,192,70973,1,0,0:0:0:0:
192,192,71130,1,0,0:0:0:0:
64,192,71288,128,4,71604:0:0:0:0:
448,192,71288,1,0,0:0:0:0:
320,192,71288,1,0,0:0:0:0:
192,192,71604,128,0,71920:0:0:0:0:
320,192,71920,128,0,72236:0:0:0:0:
448,192,72236,128,0,72551:0:0:0:0:
320,192,72551,128,0,72867:0:0:0:0:
192,192,72867,128,0,73025:0:0:0:0:
64,192,73025,128,0,73183:0:0:0:0:
192,192,73499,1,0,0:0:0:0:
320,192,73499,1,0,0:0:0:0:
320,192,73815,1,0,0:0:0:0:
192,192,73815,128,0,74130:0:0:0:0:
448,192,74130,128,0,74446:0:0:0:0:
320,192,74446,128,0,74762:0:0:0:0:
192,192,74762,128,0,74920:0:0:0:0:
64,192,74920,128,0,76341:0:0:0:0:
320,192,75078,1,0,0:0:0:0:
448,192,75394,1,0,0:0:0:0:
192,192,75709,1,0,0:0:0:0:
448,192,76025,1,0,0:0:0:0:
320,192,76025,1,0,0:0:0:0:
320,192,76341,1,0,0:0:0:0:
192,192,76341,1,0,0:0:0:0:
192,192,76657,1,0,0:0:0:0:
320,192,76973,1,0,0:0:0:0:
448,192,76973,1,0,0:0:0:0:
64,192,77288,1,0,0:0:0:0:
448,192,77446,1,0,0:0:0:0:
320,192,77604,1,0,0:0:0:0:
192,192,77920,1,0,0:0:0:0:
448,192,78236,1,0,0:0:0:0:
64,192,78236,1,0,0:0:0:0:
192,192,78551,1,0,0:0:0:0:
320,192,78551,1,0,0:0:0:0:
320,192,78867,1,0,0:0:0:0:
448,192,78867,1,0,0:0:0:0:
64,192,78867,128,4,79973:0:0:0:0:
192,192,79973,1,0,0:0:0:0:
320,192,80051,1,0,0:0:0:0:
448,192,80130,1,0,0:0:0:0:
192,192,80288,1,0,0:0:0:0:
320,192,80288,1,0,0:0:0:0:
64,192,80446,1,0,0:0:0:0:
448,192,80762,1,0,0:0:0:0:
192,192,80762,1,0,0:0:0:0:
320,192,80920,1,0,0:0:0:0:
192,192,81078,1,0,0:0:0:0:
64,192,81078,1,0,0:0:0:0:
64,192,81394,1,0,0:0:0:0:
320,192,81394,1,0,0:0:0:0:
448,192,81394,1,0,0:0:0:0:
192,192,81709,1,0,0:0:0:0:
320,192,82025,1,0,0:0:0:0:
448,192,82025,1,0,0:0:0:0:
64,192,82025,1,0,0:0:0:0:
192,192,82341,1,0,0:0:0:0:
320,192,82499,1,0,0:0:0:0:
448,192,82657,1,0,0:0:0:0:
192,192,82973,1,0,0:0:0:0:
320,192,82973,1,0,0:0:0:0:
64,192,83288,1,0,0:0:0:0:
192,192,83288,1,0,0:0:0:0:
448,192,83288,1,0,0:0:0:0:
320,192,83604,1,0,0:0:0:0:
192,192,83920,1,0,0:0:0:0:
64,192,83920,1,0,0:0:0:0:
448,192,84236,1,0,0:0:0:0:
64,192,84551,1,0,0:0:0:0:
192,192,84551,1,0,0:0:0:0:
320,192,84551,1,0,0:0:0:0:
448,192,84867,1,0,0:0:0:0:
320,192,85025,1,0,0:0:0:0:
192,192,85183,1,0,0:0:0:0:
64,192,85499,1,0,0:0:0:0:
192,192,85499,1,0,0:0:0:0:
64,192,85815,1,0,0:0:0:0:
320,192,85815,1,0,0:0:0:0:
448,192,85815,1,0,0:0:0:0:
192,192,86130,1,0,0:0:0:0:
320,192,86446,1,0,0:0:0:0:
448,192,86446,1,0,0:0:0:0:
64,192,86762,1,0,0:0:0:0:
192,192,87078,1,0,0:0:0:0:
320,192,87078,1,0,0:0:0:0:
448,192,87078,1,0,0:0:0:0:
64,192,87394,1,0,0:0:0:0:
192,192,87551,128,0,88025:0:0:0:0:
320,192,88025,1,0,0:0:0:0:
448,192,88025,1,0,0:0:0:0:
64,192,88341,1,0,0:0:0:0:
192,192,88341,1,0,0:0:0:0:
448,192,88341,1,0,0:0:0:0:
320,192,88657,1,0,0:0:0:0:
192,192,88973,1,0,0:0:0:0:
448,192,88973,1,0,0:0:0:0:
320,192,89288,1,0,0:0:0:0:
64,192,89604,1,0,0:0:0:0:
320,192,89604,1,0,0:0:0:0:
448,192,89604,1,0,0:0:0:0:
192,192,89920,1,0,0:0:0:0:
64,192,90078,1,0,0:0:0:0:
192,192,90236,1,0,0:0:0:0:
320,192,90551,1,0,0:0:0:0:
448,192,90551,1,0,0:0:0:0:
64,192,90867,1,0,0:0:0:0:
192,192,90867,1,0,0:0:0:0:
320,192,90867,1,0,0:0:0:0:
448,192,91183,1,0,0:0:0:0:
320,192,91499,1,4,0:0:0:0:
64,192,91499,1,0,0:0:0:0:
448,192,91499,1,0,0:0:0:0:
64,192,91815,1,0,0:0:0:0:
64,192,92130,1,0,0:0:0:0:
448,192,92130,1,0,0:0:0:0:
192,192,92130,1,0,0:0:0:0:
320,192,92446,1,0,0:0:0:0:
448,192,92604,1,0,0:0:0:0:
320,192,92762,1,0,0:0:0:0:
64,192,93078,1,0,0:0:0:0:
192,192,93078,1,0,0:0:0:0:
192,192,93394,1,0,0:0:0:0:
320,192,93394,1,0,0:0:0:0:
448,192,93394,1,0,0:0:0:0:
64,192,93709,1,0,0:0:0:0:
320,192,94025,1,0,0:0:0:0:
448,192,94025,1,0,0:0:0:0:
192,192,94341,1,0,0:0:0:0:
64,192,94657,1,0,0:0:0:0:
320,192,94657,1,0,0:0:0:0:
448,192,94657,1,0,0:0:0:0:
192,192,94973,1,0,0:0:0:0:
320,192,95130,1,0,0:0:0:0:
448,192,95288,1,0,0:0:0:0:
192,192,95604,1,0,0:0:0:0:
320,192,95604,1,0,0:0:0:0:
64,192,95920,1,0,0:0:0:0:
320,192,95920,1,0,0:0:0:0:
448,192,95920,1,0,0:0:0:0:
320,192,96236,1,0,0:0:0:0:
64,192,96551,1,0,0:0:0:0:
192,192,96551,1,0,0:0:0:0:
320,192,96867,1,0,0:0:0:0:
192,192,97183,1,0,0:0:0:0:
64,192,97183,1,0,0:0:0:0:
448,192,97183,1,0,0:0:0:0:
320,192,97499,1,0,0:0:0:0:
192,192,97657,1,0,0:0:0:0:
64,192,97815,1,0,0:0:0:0:
192,192,98130,1,0,0:0:0:0:
320,192,98130,1,0,0:0:0:0:
64,192,98446,1,0,0:0:0:0:
192,192,98446,1,0,0:0:0:0:
448,192,98446,1,0,0:0:0:0:
320,192,98762,1,0,0:0:0:0:
320,192,99078,1,4,0:0:0:0:
64,192,99078,1,0,0:0:0:0:
448,192,99078,1,0,0:0:0:0:
192,192,99394,1,0,0:0:0:0:
64,192,99709,1,0,0:0:0:0:
320,192,99709,1,0,0:0:0:0:
448,192,99709,1,0,0:0:0:0:
448,192,100025,1,0,0:0:0:0:
192,192,100183,1,0,0:0:0:0:
64,192,100183,1,0,0:0:0:0:
320,192,100341,1,0,0:0:0:0:
448,192,100341,1,0,0:0:0:0:
192,192,100499,1,0,0:0:0:0:
64,192,100499,1,0,0:0:0:0:
320,192,100657,1,0,0:0:0:0:
192,192,100973,1,0,0:0:0:0:
64,192,100973,1,0,0:0:0:0:
320,192,101130,1,0,0:0:0:0:
448,192,101130,1,0,0:0:0:0:
192,192,101288,1,0,0:0:0:0:
64,192,101288,1,0,0:0:0:0:
320,192,101446,1,0,0:0:0:0:
448,192,101446,1,0,0:0:0:0:
192,192,101604,1,0,0:0:0:0:
64,192,101604,1,0,0:0:0:0:
448,192,101604,1,4,0:0:0:0:
320,192,101920,1,0,0:0:0:0:
192,192,102236,1,0,0:0:0:0:
64,192,102236,1,0,0:0:0:0:
448,192,102236,1,0,0:0:0:0:
320,192,102551,1,0,0:0:0:0:
192,192,102709,1,0,0:0:0:0:
64,192,102867,1,0,0:0:0:0:
320,192,103183,1,0,0:0:0:0:
192,192,103183,1,0,0:0:0:0:
448,192,103499,1,0,0:0:0:0:
320,192,103499,1,0,0:0:0:0:
64,192,103499,1,0,0:0:0:0:
192,192,103815,1,0,0:0:0:0:
320,192,104130,1,0,0:0:0:0:
448,192,104130,1,0,0:0:0:0:
64,192,104446,1,0,0:0:0:0:
448,192,104762,1,0,0:0:0:0:
320,192,104762,1,0,0:0:0:0:
192,192,104762,1,0,0:0:0:0:
64,192,105078,1,0,0:0:0:0:
192,192,105236,1,0,0:0:0:0:
320,192,105394,1,0,0:0:0:0:
448,192,105709,1,0,0:0:0:0:
320,192,105709,1,0,0:0:0:0:
448,192,106025,1,0,0:0:0:0:
192,192,106025,1,0,0:0:0:0:
64,192,106025,1,0,0:0:0:0:
320,192,106341,1,0,0:0:0:0:
192,192,106657,1,0,0:0:0:0:
64,192,106657,1,0,0:0:0:0:
448,192,106973,1,0,0:0:0:0:
320,192,107288,1,0,0:0:0:0:
192,192,107288,1,0,0:0:0:0:
64,192,107288,1,0,0:0:0:0:
448,192,107604,1,0,0:0:0:0:
320,192,107762,1,0,0:0:0:0:
192,192,107920,1,0,0:0:0:0:
64,192,108236,1,0,0:0:0:0:
320,192,108236,1,0,0:0:0:0:
448,192,108551,1,0,0:0:0:0:
320,192,108551,1,0,0:0:0:0:
64,192,108551,1,0,0:0:0:0:
192,192,108867,1,0,0:0:0:0:
320,192,109183,1,0,0:0:0:0:
64,192,109183,1,0,0:0:0:0:
192,192,109499,1,0,0:0:0:0:
64,192,109815,1,0,0:0:0:0:
448,192,109815,1,0,0:0:0:0:
192,192,109815,1,0,0:0:0:0:
320,192,110130,1,0,0:0:0:0:
448,192,110288,1,0,0:0:0:0:
320,192,110446,1,0,0:0:0:0:
192,192,110762,1,0,0:0:0:0:
64,192,110762,1,0,0:0:0:0:
448,192,111078,1,0,0:0:0:0:
320,192,111078,1,0,0:0:0:0:
192,192,111078,1,0,0:0:0:0:
64,192,111394,1,0,0:0:0:0:
192,192,111709,1,0,0:0:0:0:
448,192,111709,1,0,0:0:0:0:
64,192,111709,1,0,0:0:0:0:
448,192,112025,1,0,0:0:0:0:
64,192,112341,1,0,0:0:0:0:
320,192,112341,1,0,0:0:0:0:
448,192,112341,1,0,0:0:0:0:
192,192,112657,1,0,0:0:0:0:
64,192,112815,1,0,0:0:0:0:
192,192,112973,1,0,0:0:0:0:
448,192,113288,1,0,0:0:0:0:
320,192,113288,1,0,0:0:0:0:
320,192,113604,1,0,0:0:0:0:
192,192,113604,1,0,0:0:0:0:
64,192,113604,1,0,0:0:0:0:
448,192,113920,1,0,0:0:0:0:
192,192,114236,1,0,0:0:0:0:
64,192,114236,1,0,0:0:0:0:
320,192,114551,1,0,0:0:0:0:
448,192,114867,1,0,0:0:0:0:
192,192,114867,1,0,0:0:0:0:
64,192,114867,1,0,0:0:0:0:
320,192,115183,1,0,0:0:0:0:
192,192,115341,1,0,0:0:0:0:
64,192,115499,1,0,0:0:0:0:
320,192,115815,1,0,0:0:0:0:
192,192,115815,1,0,0:0:0:0:
448,192,116130,1,0,0:0:0:0:
192,192,116130,1,0,0:0:0:0:
64,192,116130,1,0,0:0:0:0:
192,192,116446,1,0,0:0:0:0:
448,192,116762,1,0,0:0:0:0:
320,192,116762,1,0,0:0:0:0:
192,192,117078,1,0,0:0:0:0:
448,192,117394,1,0,0:0:0:0:
64,192,117394,1,0,0:0:0:0:
320,192,117394,1,0,0:0:0:0:
192,192,117709,1,0,0:0:0:0:
320,192,117867,1,0,0:0:0:0:
448,192,118025,1,0,0:0:0:0:
320,192,118341,1,0,0:0:0:0:
192,192,118341,1,0,0:0:0:0:
448,192,118657,1,0,0:0:0:0:
320,192,118657,1,0,0:0:0:0:
64,192,118657,1,0,0:0:0:0:
192,192,118973,1,0,0:0:0:0:
320,192,119288,1,0,0:0:0:0:
448,192,119288,1,4,0:0:0:0:
64,192,119288,1,0,0:0:0:0:
192,192,119604,1,0,0:0:0:0:
320,192,119920,1,0,0:0:0:0:
192,192,119920,1,0,0:0:0:0:
64,192,119920,1,0,0:0:0:0:
448,192,120236,1,0,0:0:0:0:
192,192,120394,1,0,0:0:0:0:
64,192,120394,1,0,0:0:0:0:
320,192,120551,1,0,0:0:0:0:
448,192,120551,1,0,0:0:0:0:
192,192,120709,1,0,0:0:0:0:
64,192,120709,1,0,0:0:0:0:
320,192,120867,1,0,0:0:0:0:
192,192,121183,1,0,0:0:0:0:
64,192,121183,1,0,0:0:0:0:
320,192,121341,1,0,0:0:0:0:
448,192,121341,1,0,0:0:0:0:
192,192,121499,1,0,0:0:0:0:
64,192,121499,1,0,0:0:0:0:
320,192,121657,1,0,0:0:0:0:
448,192,121657,1,0,0:0:0:0:
192,192,121815,1,0,0:0:0:0:
64,192,121815,1,0,0:0:0:0:
448,192,121815,1,4,0:0:0:0:
192,192,122130,1,0,0:0:0:0:
64,192,122446,1,0,0:0:0:0:
320,192,122446,1,0,0:0:0:0:
448,192,122446,1,0,0:0:0:0:
192,192,122762,1,0,0:0:0:0:
320,192,123078,1,0,0:0:0:0:
192,192,123394,1,0,0:0:0:0:
448,192,123394,1,0,0:0:0:0:
64,192,123709,1,0,0:0:0:0:
192,192,123709,1,0,0:0:0:0:
320,192,123709,1,0,0:0:0:0:
448,192,124025,1,0,0:0:0:0:
320,192,124341,1,0,0:0:0:0:
192,192,124341,1,0,0:0:0:0:
64,192,124657,1,0,0:0:0:0:
192,192,124973,1,0,0:0:0:0:
320,192,124973,1,0,0:0:0:0:
448,192,124973,1,0,0:0:0:0:
64,192,125288,1,0,0:0:0:0:
192,192,125446,1,0,0:0:0:0:
320,192,125604,1,0,0:0:0:0:
64,192,125920,1,0,0:0:0:0:
192,192,125920,1,0,0:0:0:0:
64,192,126236,1,0,0:0:0:0:
320,192,126236,1,0,0:0:0:0:
448,192,126236,1,0,0:0:0:0:
192,192,126551,1,0,0:0:0:0:
320,192,126551,1,0,0:0:0:0:
192,192,126867,1,0,0:0:0:0:
64,192,126867,1,0,0:0:0:0:
448,192,126867,1,4,0:0:0:0:
320,192,126867,1,0,0:0:0:0:
64,192,127815,1,0,0:0:0:0:
192,192,127815,1,0,0:0:0:0:
320,192,127973,1,0,0:0:0:0:
64,192,128130,1,0,0:0:0:0:
448,192,128130,1,0,0:0:0:0:
192,192,128130,1,0,0:0:0:0:
320,192,128762,1,0,0:0:0:0:
448,192,128762,1,0,0:0:0:0:
192,192,129078,1,0,0:0:0:0:
320,192,129078,1,0,0:0:0:0:
448,192,129394,1,4,0:0:0:0:
320,192,129473,1,0,0:0:0:0:
192,192,129551,1,0,0:0:0:0:
64,192,129551,128,0,130341:0:0:0:0:
448,192,130341,1,0,0:0:0:0:
64,192,130657,1,0,0:0:0:0:
192,192,130973,1,0,0:0:0:0:
320,192,130973,1,0,0:0:0:0:
64,192,131288,1,0,0:0:0:0:
320,192,131288,1,0,0:0:0:0:
448,192,131288,128,0,131920:0:0:0:0:
64,192,131920,1,0,0:0:0:0:
192,192,131920,1,4,0:0:0:0:
320,192,131920,1,0,0:0:0:0:
64,192,132236,1,0,0:0:0:0:
320,192,132552,1,0,0:0:0:0:
192,192,132552,1,0,0:0:0:0:
448,192,132867,1,0,0:0:0:0:
320,192,133183,1,0,0:0:0:0:
192,192,133183,1,0,0:0:0:0:
64,192,133499,1,0,0:0:0:0:
320,192,133815,1,0,0:0:0:0:
448,192,133815,1,0,0:0:0:0:
64,192,133815,1,0,0:0:0:0:
192,192,134130,1,0,0:0:0:0:
320,192,134446,1,0,0:0:0:0:
64,192,134446,1,0,0:0:0:0:
192,192,134762,1,0,0:0:0:0:
320,192,135078,1,0,0:0:0:0:
64,192,135078,1,0,0:0:0:0:
448,192,135394,1,0,0:0:0:0:
320,192,135709,1,0,0:0:0:0:
192,192,135709,1,0,0:0:0:0:
64,192,136025,1,0,0:0:0:0:
192,192,136025,1,0,0:0:0:0:
448,192,136341,1,0,0:0:0:0:
320,192,136341,1,0,0:0:0:0:
64,192,136341,1,0,0:0:0:0:
192,192,136657,1,0,0:0:0:0:
320,192,136973,1,0,0:0:0:0:
64,192,136973,1,0,0:0:0:0:
448,192,137288,1,0,0:0:0:0:
320,192,137604,1,0,0:0:0:0:
64,192,137604,1,0,0:0:0:0:
192,192,137920,1,0,0:0:0:0:
64,192,138236,1,0,0:0:0:0:
320,192,138236,1,0,0:0:0:0:
448,192,138552,1,0,0:0:0:0:
320,192,138552,1,0,0:0:0:0:
448,192,138867,1,0,0:0:0:0:
64,192,138867,1,0,0:0:0:0:
192,192,138867,1,0,0:0:0:0:
320,192,139183,1,0,0:0:0:0:
192,192,139499,1,0,0:0:0:0:
448,192,139499,1,0,0:0:0:0:
64,192,139815,1,0,0:0:0:0:
192,192,140130,1,0,0:0:0:0:
320,192,140130,1,0,0:0:0:0:
320,192,140446,1,0,0:0:0:0:
192,192,140762,1,0,0:0:0:0:
448,192,140762,1,0,0:0:0:0:
320,192,141078,1,0,0:0:0:0:
192,192,141394,1,0,0:0:0:0:
448,192,141394,1,0,0:0:0:0:
64,192,141394,1,0,0:0:0:0:
64,192,141709,1,0,0:0:0:0:
192,192,141867,1,0,0:0:0:0:
320,192,142025,1,0,0:0:0:0:
448,192,142025,128,0,142657:0:0:0:0:
192,192,142341,1,0,0:0:0:0:
64,192,142657,1,0,0:0:0:0:
192,192,142973,1,0,0:0:0:0:
320,192,143288,1,0,0:0:0:0:
448,192,143288,1,0,0:0:0:0:
192,192,143604,128,0,143920:0:0:0:0:
448,192,143604,1,0,0:0:0:0:
448,192,143920,128,0,144236:0:0:0:0:
64,192,143920,1,0,0:0:0:0:
320,192,143920,1,0,0:0:0:0:
320,192,144236,128,0,144552:0:0:0:0:
64,192,144552,128,0,145183:0:0:0:0:
192,192,144552,1,0,0:0:0:0:
320,192,144867,1,0,0:0:0:0:
448,192,145183,1,0,0:0:0:0:
320,192,145499,1,0,0:0:0:0:
192,192,145657,1,0,0:0:0:0:
64,192,145815,1,0,0:0:0:0:
448,192,145815,1,0,0:0:0:0:
64,192,146130,128,0,146446:0:0:0:0:
192,192,146130,1,0,0:0:0:0:
192,192,146446,128,0,146762:0:0:0:0:
320,192,146446,1,0,0:0:0:0:
448,192,146446,1,0,0:0:0:0:
320,192,146762,128,0,147078:0:0:0:0:
448,192,147078,128,0,147709:0:0:0:0:
64,192,147078,1,0,0:0:0:0:
320,192,147394,1,0,0:0:0:0:
192,192,147709,1,0,0:0:0:0:
64,192,148025,1,0,0:0:0:0:
192,192,148183,1,0,0:0:0:0:
448,192,148341,1,0,0:0:0:0:
320,192,148341,1,0,0:0:0:0:
64,192,148657,1,0,0:0:0:0:
192,192,148657,1,0,0:0:0:0:
64,192,148973,1,0,0:0:0:0:
320,192,148973,1,0,0:0:0:0:
448,192,148973,1,0,0:0:0:0:
192,192,149288,1,0,0:0:0:0:
64,192,149604,1,0,0:0:0:0:
448,192,149604,1,0,0:0:0:0:
192,192,149920,1,0,0:0:0:0:
320,192,150236,1,0,0:0:0:0:
64,192,150552,1,0,0:0:0:0:
192,192,150552,1,0,0:0:0:0:
320,192,150709,1,0,0:0:0:0:
448,192,150709,1,0,0:0:0:0:
192,192,150867,1,0,0:0:0:0:
64,192,150867,1,0,0:0:0:0:
320,192,151183,1,0,0:0:0:0:
448,192,151183,1,0,0:0:0:0:
192,192,151341,1,0,0:0:0:0:
64,192,151341,1,0,0:0:0:0:
320,192,151499,1,0,0:0:0:0:
448,192,151499,1,0,0:0:0:0:
64,192,151499,1,0,0:0:0:0:
192,192,151815,1,0,0:0:0:0:
64,192,152130,128,0,153236:0:0:0:0:
320,192,152130,128,0,152446:0:0:0:0:
192,192,152446,1,0,0:0:0:0:
448,192,152762,1,0,0:0:0:0:
192,192,153078,1,0,0:0:0:0:
320,192,153236,1,0,0:0:0:0:
448,192,153394,1,0,0:0:0:0:
192,192,153709,1,0,0:0:0:0:
320,192,153709,1,0,0:0:0:0:
64,192,154025,1,0,0:0:0:0:
192,192,154025,1,0,0:0:0:0:
448,192,154025,1,0,0:0:0:0:
320,192,154341,1,0,0:0:0:0:
448,192,154341,1,0,0:0:0:0:
448,192,154657,128,0,155762:0:0:0:0:
192,192,154657,128,0,154973:0:0:0:0:
320,192,154973,1,0,0:0:0:0:
64,192,155288,1,0,0:0:0:0:
320,192,155604,1,0,0:0:0:0:
192,192,155762,1,0,0:0:0:0:
64,192,155920,1,0,0:0:0:0:
320,192,156236,1,0,0:0:0:0:
192,192,156236,1,0,0:0:0:0:
64,192,156552,1,0,0:0:0:0:
320,192,156552,1,0,0:0:0:0:
448,192,156552,1,0,0:0:0:0:
192,192,156867,1,0,0:0:0:0:
64,192,156867,1,0,0:0:0:0:
320,192,157025,1,0,0:0:0:0:
64,192,157183,128,0,158130:0:0:0:0:
448,192,157183,128,0,157499:0:0:0:0:
192,192,157499,128,0,157657:0:0:0:0:
320,192,157657,128,0,158130:0:0:0:0:
448,192,157815,1,0,0:0:0:0:
192,192,158130,1,0,0:0:0:0:
448,192,158446,128,0,158762:0:0:0:0:
320,192,158446,1,0,0:0:0:0:
64,192,158762,128,0,159078:0:0:0:0:
192,192,158762,1,0,0:0:0:0:
192,192,159078,128,0,159394:0:0:0:0:
320,192,159078,1,0,0:0:0:0:
448,192,159078,1,0,0:0:0:0:
320,192,159394,128,0,159709:0:0:0:0:
448,192,159709,128,0,160025:0:0:0:0:
64,192,159709,1,0,0:0:0:0:
64,192,160025,128,0,160183:0:0:0:0:
320,192,160183,128,0,160499:0:0:0:0:
448,192,160341,1,0,0:0:0:0:
64,192,160341,1,0,0:0:0:0:
192,192,160499,128,0,160657:0:0:0:0:
448,192,160657,128,0,161604:0:0:0:0:
64,192,160973,1,0,0:0:0:0:
192,192,161288,1,0,0:0:0:0:
64,192,161604,1,0,0:0:0:0:
320,192,161604,1,0,0:0:0:0:
64,192,161920,1,0,0:0:0:0:
192,192,161920,1,0,0:0:0:0:
320,192,162078,1,0,0:0:0:0:
448,192,162078,1,0,0:0:0:0:
192,192,162236,1,0,0:0:0:0:
64,192,162236,1,0,0:0:0:0:
448,192,162236,1,0,0:0:0:0:
192,192,162552,1,0,0:0:0:0:
320,192,162867,1,0,0:0:0:0:
448,192,162867,1,0,0:0:0:0:
192,192,163183,1,0,0:0:0:0:
64,192,163341,1,0,0:0:0:0:
192,192,163499,1,0,0:0:0:0:
192,192,163815,1,0,0:0:0:0:
320,192,163815,1,0,0:0:0:0:
64,192,164130,1,0,0:0:0:0:
448,192,164130,1,0,0:0:0:0:
320,192,164130,1,0,0:0:0:0:
320,192,164446,1,0,0:0:0:0:
192,192,164762,1,0,0:0:0:0:
64,192,164762,1,0,0:0:0:0:
192,192,165078,1,0,0:0:0:0:
64,192,165394,1,0,0:0:0:0:
448,192,165394,1,0,0:0:0:0:
320,192,165394,1,0,0:0:0:0:
192,192,165709,1,0,0:0:0:0:
320,192,165867,1,0,0:0:0:0:
448,192,166025,1,0,0:0:0:0:
192,192,166341,1,0,0:0:0:0:
320,192,166341,1,0,0:0:0:0:
64,192,166657,1,0,0:0:0:0:
192,192,166657,1,0,0:0:0:0:
448,192,166657,1,0,0:0:0:0:
320,192,166973,1,0,0:0:0:0:
192,192,167288,1,0,0:0:0:0:
64,192,167288,1,0,0:0:0:0:
192,192,167604,1,0,0:0:0:0:
64,192,167920,1,0,0:0:0:0:
320,192,167920,1,0,0:0:0:0:
448,192,167920,1,0,0:0:0:0:
192,192,168236,1,0,0:0:0:0:
64,192,168394,1,0,0:0:0:0:
192,192,168552,1,0,0:0:0:0:
192,192,168867,1,0,0:0:0:0:
320,192,168867,1,0,0:0:0:0:
64,192,169183,1,0,0:0:0:0:
320,192,169183,1,0,0:0:0:0:
448,192,169183,1,0,0:0:0:0:
192,192,169499,1,0,0:0:0:0:
320,192,169657,1,0,0:0:0:0:
448,192,169657,1,0,0:0:0:0:
64,192,169657,1,0,0:0:0:0:
192,192,169815,1,0,0:0:0:0:
64,192,169815,1,0,0:0:0:0:
448,192,169815,1,0,0:0:0:0:
192,192,170920,1,0,0:0:0:0:
320,192,170999,1,0,0:0:0:0:
448,192,171078,1,0,0:0:0:0:
192,192,171078,1,0,0:0:0:0:
64,192,171078,1,0,0:0:0:0:
320,192,171236,1,0,0:0:0:0:
448,192,171236,1,0,0:0:0:0:
192,192,171394,1,0,0:0:0:0:
64,192,171394,1,0,0:0:0:0:
448,192,171709,1,0,0:0:0:0:
320,192,171709,1,0,0:0:0:0:
192,192,172025,1,0,0:0:0:0:
320,192,172025,1,0,0:0:0:0:
448,192,172341,1,0,0:0:0:0:
192,192,172341,1,0,0:0:0:0:
64,192,172341,1,0,0:0:0:0:
320,192,172657,1,0,0:0:0:0:
192,192,172973,1,0,0:0:0:0:
64,192,172973,1,0,0:0:0:0:
448,192,172973,1,0,0:0:0:0:
320,192,173288,1,0,0:0:0:0:
192,192,173446,1,0,0:0:0:0:
64,192,173604,1,0,0:0:0:0:
320,192,173920,1,0,0:0:0:0:
192,192,173920,1,0,0:0:0:0:
448,192,174236,1,0,0:0:0:0:
320,192,174236,1,0,0:0:0:0:
64,192,174236,1,0,0:0:0:0:
192,192,174551,1,0,0:0:0:0:
320,192,174867,1,0,0:0:0:0:
448,192,174867,1,0,0:0:0:0:
64,192,175183,1,0,0:0:0:0:
448,192,175499,1,0,0:0:0:0:
320,192,175499,1,0,0:0:0:0:
192,192,175499,1,0,0:0:0:0:
64,192,175815,1,0,0:0:0:0:
192,192,175973,1,0,0:0:0:0:
320,192,176130,1,0,0:0:0:0:
448,192,176446,1,0,0:0:0:0:
320,192,176446,1,0,0:0:0:0:
448,192,176762,1,0,0:0:0:0:
192,192,176762,1,0,0:0:0:0:
64,192,176762,1,0,0:0:0:0:
320,192,177078,1,0,0:0:0:0:
192,192,177394,1,0,0:0:0:0:
64,192,177394,1,0,0:0:0:0:
448,192,177709,1,0,0:0:0:0:
320,192,178025,1,0,0:0:0:0:
192,192,178025,1,0,0:0:0:0:
64,192,178025,1,0,0:0:0:0:
448,192,178341,1,0,0:0:0:0:
320,192,178499,1,0,0:0:0:0:
192,192,178657,1,0,0:0:0:0:
192,192,178973,1,0,0:0:0:0:
64,192,178973,1,0,0:0:0:0:
448,192,179288,1,0,0:0:0:0:
320,192,179288,1,0,0:0:0:0:
64,192,179288,1,0,0:0:0:0:
192,192,179604,1,0,0:0:0:0:
320,192,179920,1,0,0:0:0:0:
64,192,179920,1,0,0:0:0:0:
192,192,180236,1,0,0:0:0:0:
448,192,180551,1,0,0:0:0:0:
192,192,180551,1,0,0:0:0:0:
64,192,180551,1,0,0:0:0:0:
320,192,180867,1,0,0:0:0:0:
448,192,181025,1,0,0:0:0:0:
320,192,181183,1,0,0:0:0:0:
192,192,181499,1,0,0:0:0:0:
64,192,181499,1,0,0:0:0:0:
448,192,181815,1,0,0:0:0:0:
320,192,181815,1,0,0:0:0:0:
192,192,181815,1,0,0:0:0:0:
64,192,182130,1,0,0:0:0:0:
192,192,182446,1,0,0:0:0:0:
448,192,182446,1,0,0:0:0:0:
64,192,182446,1,0,0:0:0:0:
448,192,182762,1,0,0:0:0:0:
448,192,183078,1,0,0:0:0:0:
64,192,183078,1,0,0:0:0:0:
320,192,183078,1,0,0:0:0:0:
192,192,183394,1,0,0:0:0:0:
64,192,183551,1,0,0:0:0:0:
192,192,183709,1,0,0:0:0:0:
448,192,184025,1,0,0:0:0:0:
320,192,184025,1,0,0:0:0:0:
320,192,184341,1,0,0:0:0:0:
192,192,184341,1,0,0:0:0:0:
64,192,184341,1,0,0:0:0:0:
448,192,184657,1,0,0:0:0:0:
192,192,184973,1,0,0:0:0:0:
64,192,184973,1,0,0:0:0:0:
320,192,185288,1,0,0:0:0:0:
448,192,185604,1,0,0:0:0:0:
192,192,185604,1,0,0:0:0:0:
64,192,185604,1,0,0:0:0:0:
320,192,185920,1,0,0:0:0:0:
192,192,186078,1,0,0:0:0:0:
64,192,186236,1,0,0:0:0:0:
320,192,186551,1,0,0:0:0:0:
192,192,186551,1,0,0:0:0:0:
448,192,186867,1,0,0:0:0:0:
192,192,186867,1,0,0:0:0:0:
64,192,186867,1,0,0:0:0:0:
192,192,187183,1,0,0:0:0:0:
448,192,187499,1,0,0:0:0:0:
320,192,187499,1,0,0:0:0:0:
192,192,187815,1,0,0:0:0:0:
320,192,188130,1,0,0:0:0:0:
448,192,188130,1,0,0:0:0:0:
64,192,188130,1,0,0:0:0:0:
192,192,188446,1,0,0:0:0:0:
320,192,188604,1,0,0:0:0:0:
448,192,188762,1,0,0:0:0:0:
320,192,189078,1,0,0:0:0:0:
192,192,189078,1,0,0:0:0:0:
448,192,189394,1,0,0:0:0:0:
320,192,189394,1,0,0:0:0:0:
64,192,189394,1,0,0:0:0:0:
192,192,189709,1,0,0:0:0:0:
448,192,190025,1,0,0:0:0:0:
64,192,190025,1,0,0:0:0:0:
192,192,190025,1,0,0:0:0:0:
320,192,190341,1,0,0:0:0:0:
320,192,190657,1,0,0:0:0:0:
192,192,190657,1,0,0:0:0:0:
448,192,190657,1,0,0:0:0:0:
64,192,190973,1,0,0:0:0:0:
320,192,191130,1,0,0:0:0:0:
448,192,191130,1,0,0:0:0:0:
192,192,191288,1,0,0:0:0:0:
64,192,191288,1,0,0:0:0:0:
320,192,191446,1,0,0:0:0:0:
448,192,191446,1,0,0:0:0:0:
192,192,191604,1,0,0:0:0:0:
320,192,191920,1,0,0:0:0:0:
448,192,191920,1,0,0:0:0:0:
192,192,192078,1,0,0:0:0:0:
64,192,192078,1,0,0:0:0:0:
320,192,192236,1,0,0:0:0:0:
448,192,192236,1,0,0:0:0:0:
192,192,192394,1,0,0:0:0:0:
64,192,192394,1,0,0:0:0:0:
320,192,192551,1,0,0:0:0:0:
448,192,192551,1,0,0:0:0:0:
64,192,192551,1,0,0:0:0:0:
192,192,192867,1,0,0:0:0:0:
320,192,193183,1,0,0:0:0:0:
448,192,193183,1,0,0:0:0:0:
64,192,193183,1,0,0:0:0:0:
192,192,193499,1,0,0:0:0:0:
320,192,193657,1,0,0:0:0:0:
448,192,193815,1,0,0:0:0:0:
192,192,194130,1,0,0:0:0:0:
320,192,194130,1,0,0:0:0:0:
64,192,194446,1,0,0:0:0:0:
192,192,194446,1,0,0:0:0:0:
448,192,194446,1,0,0:0:0:0:
320,192,194762,1,0,0:0:0:0:
192,192,195078,1,0,0:0:0:0:
64,192,195078,1,0,0:0:0:0:
448,192,195394,1,0,0:0:0:0:
64,192,195709,1,0,0:0:0:0:
192,192,195709,1,0,0:0:0:0:
320,192,195709,1,0,0:0:0:0:
448,192,196025,1,0,0:0:0:0:
320,192,196183,1,0,0:0:0:0:
192,192,196341,1,0,0:0:0:0:
64,192,196657,1,0,0:0:0:0:
192,192,196657,1,0,0:0:0:0:
64,192,196973,1,0,0:0:0:0:
320,192,196973,1,0,0:0:0:0:
448,192,196973,1,0,0:0:0:0:
192,192,197288,1,0,0:0:0:0:
320,192,197604,1,0,0:0:0:0:
448,192,197604,1,0,0:0:0:0:
64,192,197920,1,0,0:0:0:0:
192,192,198236,1,0,0:0:0:0:
320,192,198236,1,0,0:0:0:0:
448,192,198236,1,0,0:0:0:0:
64,192,198551,1,0,0:0:0:0:
192,192,198709,1,0,0:0:0:0:
320,192,198867,1,0,0:0:0:0:
320,192,199183,1,0,0:0:0:0:
448,192,199183,1,0,0:0:0:0:
64,192,199499,1,0,0:0:0:0:
192,192,199499,1,0,0:0:0:0:
448,192,199499,1,0,0:0:0:0:
320,192,199815,1,0,0:0:0:0:
192,192,200130,1,0,0:0:0:0:
448,192,200130,1,0,0:0:0:0:
320,192,200446,1,0,0:0:0:0:
448,192,200762,1,0,0:0:0:0:
64,192,200762,1,0,0:0:0:0:
320,192,200762,1,0,0:0:0:0:
192,192,201078,1,0,0:0:0:0:
64,192,201236,1,0,0:0:0:0:
192,192,201394,1,0,0:0:0:0:
320,192,201709,1,0,0:0:0:0:
448,192,201709,1,0,0:0:0:0:
64,192,202025,1,0,0:0:0:0:
192,192,202025,1,0,0:0:0:0:
320,192,202025,1,0,0:0:0:0:
448,192,202341,1,0,0:0:0:0:
320,192,202657,1,0,0:0:0:0:
64,192,202657,1,0,0:0:0:0:
448,192,202657,1,0,0:0:0:0:
64,192,202973,1,0,0:0:0:0:
448,192,203288,1,0,0:0:0:0:
192,192,203288,1,0,0:0:0:0:
64,192,203288,1,0,0:0:0:0:
320,192,203604,1,0,0:0:0:0:
448,192,203762,1,0,0:0:0:0:
320,192,203920,1,0,0:0:0:0:
64,192,204236,1,0,0:0:0:0:
192,192,204236,1,0,0:0:0:0:
192,192,204551,1,0,0:0:0:0:
320,192,204551,1,0,0:0:0:0:
448,192,204551,1,0,0:0:0:0:
64,192,204867,1,0,0:0:0:0:
320,192,205183,1,0,0:0:0:0:
448,192,205183,1,0,0:0:0:0:
192,192,205499,1,0,0:0:0:0:
64,192,205815,1,0,0:0:0:0:
320,192,205815,1,0,0:0:0:0:
448,192,205815,1,0,0:0:0:0:
192,192,206130,1,0,0:0:0:0:
320,192,206288,1,0,0:0:0:0:
448,192,206446,1,0,0:0:0:0:
192,192,206762,1,0,0:0:0:0:
320,192,206762,1,0,0:0:0:0:
64,192,207078,1,0,0:0:0:0:
320,192,207078,1,0,0:0:0:0:
448,192,207078,1,0,0:0:0:0:
192,192,207394,1,0,0:0:0:0:
64,192,207709,1,0,0:0:0:0:
192,192,207709,1,0,0:0:0:0:
320,192,208025,1,0,0:0:0:0:
64,192,208341,1,0,0:0:0:0:
448,192,208341,1,0,0:0:0:0:
192,192,208341,1,0,0:0:0:0:
320,192,208657,1,0,0:0:0:0:
192,192,208815,1,0,0:0:0:0:
64,192,208973,1,0,0:0:0:0:
192,192,209288,1,0,0:0:0:0:
320,192,209288,1,0,0:0:0:0:
64,192,209604,1,0,0:0:0:0:
192,192,209604,1,0,0:0:0:0:
448,192,209604,1,0,0:0:0:0:
320,192,209920,1,0,0:0:0:0:
192,192,210236,1,0,0:0:0:0:
64,192,210236,1,0,0:0:0:0:
448,192,210236,1,0,0:0:0:0:
192,192,210552,1,0,0:0:0:0:
64,192,210867,1,0,0:0:0:0:
320,192,210867,1,0,0:0:0:0:
448,192,210867,1,0,0:0:0:0:
64,192,211183,1,0,0:0:0:0:
320,192,211341,1,0,0:0:0:0:
448,192,211341,1,0,0:0:0:0:
192,192,211499,1,0,0:0:0:0:
64,192,211499,1,0,0:0:0:0:
320,192,211657,1,0,0:0:0:0:
448,192,211657,1,0,0:0:0:0:
192,192,211815,1,0,0:0:0:0:
320,192,212130,1,0,0:0:0:0:
448,192,212130,1,0,0:0:0:0:
192,192,212288,1,0,0:0:0:0:
64,192,212288,1,0,0:0:0:0:
320,192,212446,1,0,0:0:0:0:
448,192,212446,1,0,0:0:0:0:
192,192,212604,1,0,0:0:0:0:
64,192,212604,1,0,0:0:0:0:
320,192,212762,1,0,0:0:0:0:
448,192,212762,1,0,0:0:0:0:
64,192,212762,1,0,0:0:0:0:
192,192,213078,1,0,0:0:0:0:
192,192,213394,1,0,0:0:0:0:
64,192,213394,1,0,0:0:0:0:
448,192,213709,1,0,0:0:0:0:
64,192,213867,1,0,0:0:0:0:
192,192,214025,1,0,0:0:0:0:
320,192,214025,1,0,0:0:0:0:
192,192,214341,1,0,0:0:0:0:
448,192,214657,1,0,0:0:0:0:
320,192,214657,1,0,0:0:0:0:
320,192,214973,1,0,0:0:0:0:
64,192,215288,1,0,0:0:0:0:
448,192,215288,1,0,0:0:0:0:
320,192,215604,1,0,0:0:0:0:
448,192,215604,1,0,0:0:0:0:
192,192,215762,1,0,0:0:0:0:
64,192,215762,1,0,0:0:0:0:
448,192,215920,1,0,0:0:0:0:
320,192,215920,1,0,0:0:0:0:
64,192,216078,1,0,0:0:0:0:
192,192,216236,1,0,0:0:0:0:
320,192,216236,1,0,0:0:0:0:
448,192,216552,1,0,0:0:0:0:
64,192,216867,1,0,0:0:0:0:
320,192,217183,1,0,0:0:0:0:
448,192,217183,1,0,0:0:0:0:
192,192,217341,1,0,0:0:0:0:
64,192,217341,1,0,0:0:0:0:
320,192,217499,1,0,0:0:0:0:
448,192,217499,1,0,0:0:0:0:
192,192,217815,1,0,0:0:0:0:
320,192,217815,1,0,0:0:0:0:
64,192,218130,1,0,0:0:0:0:
192,192,218130,1,0,0:0:0:0:
320,192,218288,1,0,0:0:0:0:
448,192,218288,1,0,0:0:0:0:
64,192,218446,1,0,0:0:0:0:
192,192,218604,1,0,0:0:0:0:
320,192,218762,1,0,0:0:0:0:
448,192,218762,1,0,0:0:0:0:
448,192,219078,1,0,0:0:0:0:
64,192,219078,1,0,0:0:0:0:
320,192,219394,1,0,0:0:0:0:
64,192,219709,1,0,0:0:0:0:
192,192,219709,1,0,0:0:0:0:
320,192,219867,1,0,0:0:0:0:
448,192,219867,1,0,0:0:0:0:
64,192,220025,1,0,0:0:0:0:
192,192,220025,1,0,0:0:0:0:
192,192,220341,1,0,0:0:0:0:
448,192,220341,1,0,0:0:0:0:
320,192,220657,1,0,0:0:0:0:
64,192,220973,1,0,0:0:0:0:
448,192,220973,1,0,0:0:0:0:
192,192,220973,1,0,0:0:0:0:
64,192,221288,1,0,0:0:0:0:
192,192,221446,1,0,0:0:0:0:
320,192,221604,1,0,0:0:0:0:
448,192,221604,1,0,0:0:0:0:
192,192,221762,1,0,0:0:0:0:
64,192,221762,1,0,0:0:0:0:
320,192,221920,1,0,0:0:0:0:
448,192,221920,1,0,0:0:0:0:
64,192,222236,1,0,0:0:0:0:
192,192,222236,1,0,0:0:0:0:
320,192,222394,1,0,0:0:0:0:
448,192,222394,1,0,0:0:0:0:
192,192,222552,1,0,0:0:0:0:
64,192,222552,1,0,0:0:0:0:
320,192,222709,1,0,0:0:0:0:
448,192,222709,1,0,0:0:0:0:
192,192,222867,1,0,0:0:0:0:
64,192,222867,1,0,0:0:0:0:
448,192,222867,1,0,0:0:0:0:
320,192,223183,1,0,0:0:0:0:
320,192,223499,1,0,0:0:0:0:
448,192,223499,1,0,0:0:0:0:
192,192,223815,1,0,0:0:0:0:
64,192,224130,1,0,0:0:0:0:
320,192,224130,1,0,0:0:0:0:
192,192,224446,1,0,0:0:0:0:
320,192,224446,1,0,0:0:0:0:
64,192,224762,1,0,0:0:0:0:
448,192,224762,1,0,0:0:0:0:
192,192,224762,1,0,0:0:0:0:
320,192,225078,1,0,0:0:0:0:
192,192,225236,1,0,0:0:0:0:
64,192,225236,1,0,0:0:0:0:
320,192,225394,1,0,0:0:0:0:
448,192,225394,1,0,0:0:0:0:
64,192,225709,1,0,0:0:0:0:
320,192,225709,1,0,0:0:0:0:
192,192,225867,1,0,0:0:0:0:
448,192,225867,1,0,0:0:0:0:
320,192,226025,1,0,0:0:0:0:
448,192,226025,1,0,0:0:0:0:
192,192,226183,1,0,0:0:0:0:
64,192,226183,1,0,0:0:0:0:
320,192,226341,1,0,0:0:0:0:
448,192,226341,1,0,0:0:0:0:
192,192,226657,1,0,0:0:0:0:
64,192,226973,1,0,0:0:0:0:
320,192,226973,1,0,0:0:0:0:
192,192,227288,1,0,0:0:0:0:
320,192,227288,1,0,0:0:0:0:
192,192,227604,1,0,0:0:0:0:
448,192,227604,1,0,0:0:0:0:
320,192,227920,1,0,0:0:0:0:
448,192,227920,1,0,0:0:0:0:
64,192,228236,1,0,0:0:0:0:
320,192,228236,1,0,0:0:0:0:
192,192,228394,1,0,0:0:0:0:
448,192,228394,1,0,0:0:0:0:
64,192,228552,1,0,0:0:0:0:
448,192,228552,1,0,0:0:0:0:
320,192,228552,1,0,0:0:0:0:
320,192,228867,1,0,0:0:0:0:
192,192,229025,1,0,0:0:0:0:
64,192,229183,1,0,0:0:0:0:
320,192,229499,1,0,0:0:0:0:
448,192,229499,1,0,0:0:0:0:
320,192,229815,1,0,0:0:0:0:
192,192,229815,1,0,0:0:0:0:
64,192,230130,1,0,0:0:0:0:
192,192,230130,1,0,0:0:0:0:
192,192,230446,1,0,0:0:0:0:
320,192,230446,1,0,0:0:0:0:
448,192,230446,1,0,0:0:0:0:
320,192,230762,1,0,0:0:0:0:
192,192,231078,1,0,0:0:0:0:
64,192,231078,1,0,0:0:0:0:
448,192,231078,1,0,0:0:0:0:
320,192,231394,1,0,0:0:0:0:
192,192,231552,1,0,0:0:0:0:
64,192,231552,1,0,0:0:0:0:
320,192,231709,1,0,0:0:0:0:
448,192,231709,1,0,0:0:0:0:
64,192,231867,1,0,0:0:0:0:
192,192,231867,1,0,0:0:0:0:
320,192,232025,1,0,0:0:0:0:
448,192,232025,1,0,0:0:0:0:
192,192,232341,1,0,0:0:0:0:
64,192,232341,1,0,0:0:0:0:
320,192,232499,1,0,0:0:0:0:
448,192,232499,1,0,0:0:0:0:
192,192,232657,1,0,0:0:0:0:
64,192,232657,1,0,0:0:0:0:
320,192,232815,1,0,0:0:0:0:
448,192,232815,1,0,0:0:0:0:
64,192,232973,1,0,0:0:0:0:
192,192,233052,1,0,0:0:0:0:
320,192,233130,1,0,0:0:0:0:
448,192,233209,128,0,235499:0:0:0:0:
64,192,234236,1,0,0:0:0:0:
192,192,234236,1,0,0:0:0:0:
320,192,234552,1,0,0:0:0:0:
192,192,234867,1,0,0:0:0:0:
64,192,235183,1,0,0:0:0:0:
320,192,235499,1,0,0:0:0:0:
192,192,235499,1,0,0:0:0:0:
64,192,235815,1,0,0:0:0:0:
192,192,236130,1,0,0:0:0:0:
448,192,236446,1,0,0:0:0:0:
320,192,237078,1,0,0:0:0:0:
64,192,237394,1,0,0:0:0:0:
192,192,237709,1,0,0:0:0:0:
64,192,238025,1,0,0:0:0:0:
192,192,238341,1,0,0:0:0:0:
320,192,238657,1,0,0:0:0:0:
448,192,238973,1,0,0:0:0:0:
192,192,239288,1,0,0:0:0:0:
64,192,239341,1,0,0:0:0:0:
448,192,239604,1,0,0:0:0:0:
192,192,239920,1,0,0:0:0:0:
64,192,240236,1,0,0:0:0:0:
320,192,240552,1,0,0:0:0:0:
448,192,240604,1,0,0:0:0:0:
64,192,240867,1,0,0:0:0:0:
192,192,241183,1,0,0:0:0:0:
320,192,241499,1,0,0:0:0:0:
448,192,241815,1,0,0:0:0:0:
64,192,242130,1,0,0:0:0:0:
192,192,242446,1,0,0:0:0:0:
448,192,242762,1,0,0:0:0:0:
320,192,243078,1,0,0:0:0:0:
192,192,243394,1,0,0:0:0:0:
64,192,243709,1,0,0:0:0:0:
192,192,244025,1,0,0:0:0:0:
320,192,244341,1,0,0:0:0:0:
448,192,244380,1,0,0:0:0:0:
320,192,244657,1,0,0:0:0:0:
192,192,244973,1,0,0:0:0:0:
64,192,245288,128,0,245604:0:0:0:0:
448,192,245604,1,0,0:0:0:0:
320,192,245604,1,0,0:0:0:0:
320,192,245920,1,0,0:0:0:0:
192,192,245920,1,0,0:0:0:0:
192,192,246236,1,0,0:0:0:0:
64,192,246236,1,0,0:0:0:0:
192,192,246552,1,0,0:0:0:0:
320,192,246552,1,0,0:0:0:0:
320,192,246867,1,0,0:0:0:0:
448,192,246867,1,0,0:0:0:0:
448,192,247183,1,0,0:0:0:0:
192,192,247183,1,0,0:0:0:0:
320,192,247499,1,0,0:0:0:0:
64,192,247499,1,0,0:0:0:0:
448,192,247815,1,0,0:0:0:0:
192,192,247815,1,0,0:0:0:0:
320,192,248130,1,0,0:0:0:0:
64,192,248130,1,0,0:0:0:0:
192,192,248446,1,0,0:0:0:0:
64,192,248446,1,0,0:0:0:0:
320,192,248762,1,0,0:0:0:0:
192,192,248762,1,0,0:0:0:0:
448,192,249078,1,0,0:0:0:0:
320,192,249078,1,0,0:0:0:0:
320,192,249394,1,0,0:0:0:0:
192,192,249394,1,0,0:0:0:0:
64,192,249709,1,0,0:0:0:0:
192,192,249709,1,0,0:0:0:0:
320,192,250025,1,0,0:0:0:0:
64,192,250025,1,0,0:0:0:0:
448,192,250341,1,0,0:0:0:0:
192,192,250341,1,0,0:0:0:0:
192,192,250657,1,0,0:0:0:0:
320,192,250657,1,0,0:0:0:0:
192,192,250973,1,0,0:0:0:0:
64,192,250973,1,0,0:0:0:0:
192,192,251288,1,0,0:0:0:0:
320,192,251288,1,0,0:0:0:0:
192,192,251604,1,0,0:0:0:0:
64,192,251604,1,0,0:0:0:0:
448,192,251920,1,0,0:0:0:0:
320,192,251920,1,0,0:0:0:0:
192,192,252236,1,0,0:0:0:0:
64,192,252236,1,0,0:0:0:0:
448,192,252552,1,0,0:0:0:0:
320,192,252552,1,0,0:0:0:0:
64,192,252867,1,0,0:0:0:0:
192,192,252867,1,0,0:0:0:0:
320,192,253183,1,0,0:0:0:0:
448,192,253183,1,0,0:0:0:0:
64,192,253183,128,0,253815:0:0:0:0:
192,192,253815,1,0,0:0:0:0:
448,192,253815,1,0,0:0:0:0:
320,192,253815,1,0,0:0:0:0:
320,192,254288,1,0,0:0:0:0:
448,192,254288,1,0,0:0:0:0:
192,192,254446,1,0,0:0:0:0:
64,192,254446,1,0,0:0:0:0:
320,192,254604,1,0,0:0:0:0:
448,192,254604,1,0,0:0:0:0:
64,192,254762,1,0,0:0:0:0:
192,192,254762,1,0,0:0:0:0:
192,192,255078,1,0,0:0:0:0:
64,192,255078,1,0,0:0:0:0:
320,192,255236,1,0,0:0:0:0:
448,192,255236,1,0,0:0:0:0:
64,192,255394,1,0,0:0:0:0:
192,192,255394,1,0,0:0:0:0:
320,192,255552,1,0,0:0:0:0:
448,192,255552,1,0,0:0:0:0:
64,192,255709,1,0,0:0:0:0:
192,192,255709,1,0,0:0:0:0:
448,192,255709,1,0,0:0:0:0:
192,192,256025,1,0,0:0:0:0:
320,192,256341,1,0,0:0:0:0:
448,192,256341,1,0,0:0:0:0:
64,192,256341,1,0,0:0:0:0:
192,192,256657,1,0,0:0:0:0:
320,192,256815,1,0,0:0:0:0:
448,192,256973,1,0,0:0:0:0:
192,192,257288,1,0,0:0:0:0:
320,192,257288,1,0,0:0:0:0:
64,192,257604,1,0,0:0:0:0:
192,192,257604,1,0,0:0:0:0:
448,192,257604,1,0,0:0:0:0:
320,192,257920,1,0,0:0:0:0:
192,192,258236,1,0,0:0:0:0:
64,192,258236,1,0,0:0:0:0:
448,192,258551,1,0,0:0:0:0:
64,192,258867,1,0,0:0:0:0:
192,192,258867,1,0,0:0:0:0:
320,192,258867,1,0,0:0:0:0:
448,192,259183,1,0,0:0:0:0:
320,192,259341,1,0,0:0:0:0:
192,192,259499,1,0,0:0:0:0:
64,192,259815,1,0,0:0:0:0:
192,192,259815,1,0,0:0:0:0:
64,192,260130,1,0,0:0:0:0:
320,192,260130,1,0,0:0:0:0:
448,192,260130,1,0,0:0:0:0:
192,192,260446,1,0,0:0:0:0:
320,192,260762,1,0,0:0:0:0:
448,192,260762,1,0,0:0:0:0:
64,192,261078,1,0,0:0:0:0:
192,192,261394,1,0,0:0:0:0:
320,192,261394,1,0,0:0:0:0:
448,192,261394,1,0,0:0:0:0:
64,192,261709,1,0,0:0:0:0:
192,192,261867,1,0,0:0:0:0:
320,192,262025,1,0,0:0:0:0:
320,192,262341,1,0,0:0:0:0:
448,192,262341,1,0,0:0:0:0:
64,192,262657,1,0,0:0:0:0:
192,192,262657,1,0,0:0:0:0:
448,192,262657,1,0,0:0:0:0:
320,192,262973,1,0,0:0:0:0:
192,192,263288,1,0,0:0:0:0:
448,192,263288,1,0,0:0:0:0:
320,192,263604,1,0,0:0:0:0:
448,192,263920,1,0,0:0:0:0:
64,192,263920,1,0,0:0:0:0:
320,192,263920,1,0,0:0:0:0:
192,192,264236,1,0,0:0:0:0:
64,192,264394,1,0,0:0:0:0:
192,192,264552,1,0,0:0:0:0:
320,192,264867,1,0,0:0:0:0:
448,192,264867,1,0,0:0:0:0:
64,192,265183,1,0,0:0:0:0:
192,192,265183,1,0,0:0:0:0:
320,192,265183,1,0,0:0:0:0:
448,192,265499,1,0,0:0:0:0:
320,192,265815,1,0,0:0:0:0:
64,192,265815,1,0,0:0:0:0:
448,192,265815,1,0,0:0:0:0:
64,192,266130,1,0,0:0:0:0:
64,192,266446,1,0,0:0:0:0:
448,192,266446,1,0,0:0:0:0:
192,192,266446,1,0,0:0:0:0:
320,192,266762,1,0,0:0:0:0:
448,192,266920,1,0,0:0:0:0:
320,192,267078,1,0,0:0:0:0:
64,192,267394,1,0,0:0:0:0:
192,192,267394,1,0,0:0:0:0:
192,192,267709,1,0,0:0:0:0:
320,192,267709,1,0,0:0:0:0:
448,192,267709,1,0,0:0:0:0:
64,192,268025,1,0,0:0:0:0:
320,192,268341,1,0,0:0:0:0:
448,192,268341,1,0,0:0:0:0:
192,192,268657,1,0,0:0:0:0:
320,192,268973,1,0,0:0:0:0:
448,192,268973,1,0,0:0:0:0:
64,192,268973,1,0,0:0:0:0:
192,192,269288,1,0,0:0:0:0:
320,192,269446,1,0,0:0:0:0:
448,192,269604,1,0,0:0:0:0:
192,192,269920,1,0,0:0:0:0:
320,192,269920,1,0,0:0:0:0:
64,192,270236,1,0,0:0:0:0:
320,192,270236,1,0,0:0:0:0:
448,192,270236,1,0,0:0:0:0:
320,192,270552,1,0,0:0:0:0:
64,192,270867,1,0,0:0:0:0:
192,192,270867,1,0,0:0:0:0:
320,192,271183,1,0,0:0:0:0:
192,192,271499,1,0,0:0:0:0:
64,192,271499,1,0,0:0:0:0:
448,192,271499,1,0,0:0:0:0:
320,192,271815,1,0,0:0:0:0:
192,192,271973,1,0,0:0:0:0:
64,192,272130,1,0,0:0:0:0:
192,192,272446,1,0,0:0:0:0:
320,192,272446,1,0,0:0:0:0:
64,192,272762,1,0,0:0:0:0:
192,192,272762,1,0,0:0:0:0:
448,192,272762,1,0,0:0:0:0:
320,192,273078,1,0,0:0:0:0:
64,192,273394,1,0,0:0:0:0:
448,192,273394,1,0,0:0:0:0:
320,192,273394,1,0,0:0:0:0:
192,192,273709,1,0,0:0:0:0:
192,192,274025,1,0,0:0:0:0:
320,192,274025,1,0,0:0:0:0:
64,192,274025,1,0,0:0:0:0:
448,192,274341,1,0,0:0:0:0:
192,192,274499,1,0,0:0:0:0:
64,192,274499,1,0,0:0:0:0:
320,192,274657,1,0,0:0:0:0:
448,192,274657,1,0,0:0:0:0:
192,192,274815,1,0,0:0:0:0:
64,192,274815,1,0,0:0:0:0:
320,192,274973,1,0,0:0:0:0:
192,192,275288,1,0,0:0:0:0:
64,192,275288,1,0,0:0:0:0:
320,192,275446,1,0,0:0:0:0:
448,192,275446,1,0,0:0:0:0:
192,192,275604,1,0,0:0:0:0:
64,192,275604,1,0,0:0:0:0:
320,192,275762,1,0,0:0:0:0:
448,192,275762,1,0,0:0:0:0:
64,192,275920,1,0,0:0:0:0:
448,192,275920,1,0,0:0:0:0:
192,192,275920,1,0,0:0:0:0:
320,192,276236,1,0,0:0:0:0:
192,192,276236,1,0,0:0:0:0:
192,192,276552,1,0,0:0:0:0:
64,192,276552,1,0,0:0:0:0:
448,192,276552,1,0,0:0:0:0:
320,192,276867,1,0,0:0:0:0:
448,192,276867,1,0,0:0:0:0:
192,192,277025,1,0,0:0:0:0:
64,192,277025,1,0,0:0:0:0:
448,192,277183,1,0,0:0:0:0:
320,192,277499,1,0,0:0:0:0:
192,192,277499,1,0,0:0:0:0:
448,192,277815,1,0,0:0:0:0:
320,192,277815,1,0,0:0:0:0:
64,192,277815,1,0,0:0:0:0:
192,192,278130,1,0,0:0:0:0:
448,192,278130,1,0,0:0:0:0:
320,192,278446,1,0,0:0:0:0:
448,192,278446,1,0,0:0:0:0:
64,192,278762,1,0,0:0:0:0:
192,192,278762,1,0,0:0:0:0:
448,192,279078,1,0,0:0:0:0:
320,192,279078,1,0,0:0:0:0:
64,192,279078,1,0,0:0:0:0:
64,192,279394,1,0,0:0:0:0:
192,192,279394,1,0,0:0:0:0:
448,192,279552,1,0,0:0:0:0:
320,192,279552,1,0,0:0:0:0:
192,192,279709,1,0,0:0:0:0:
448,192,280025,1,0,0:0:0:0:
320,192,280025,1,0,0:0:0:0:
448,192,280341,1,0,0:0:0:0:
192,192,280341,1,0,0:0:0:0:
64,192,280341,1,0,0:0:0:0:
320,192,280657,1,0,0:0:0:0:
192,192,280657,1,0,0:0:0:0:
192,192,280973,1,0,0:0:0:0:
64,192,280973,1,0,0:0:0:0:
448,192,281288,1,0,0:0:0:0:
320,192,281288,1,0,0:0:0:0:
448,192,281604,1,0,0:0:0:0:
192,192,281604,1,0,0:0:0:0:
64,192,281604,1,0,0:0:0:0:
448,192,281920,1,0,0:0:0:0:
320,192,281920,1,0,0:0:0:0:
64,192,282078,1,0,0:0:0:0:
192,192,282078,1,0,0:0:0:0:
320,192,282236,1,0,0:0:0:0:
192,192,282552,1,0,0:0:0:0:
64,192,282552,1,0,0:0:0:0:
448,192,282867,1,0,0:0:0:0:
320,192,282867,1,0,0:0:0:0:
64,192,282867,1,0,0:0:0:0:
192,192,283183,1,0,0:0:0:0:
320,192,283183,1,0,0:0:0:0:
64,192,283499,1,0,0:0:0:0:
192,192,283499,1,0,0:0:0:0:
320,192,283815,1,0,0:0:0:0:
192,192,284130,1,0,0:0:0:0:
64,192,284130,1,0,0:0:0:0:
448,192,284130,1,0,0:0:0:0:
320,192,284446,1,0,0:0:0:0:
448,192,284604,1,0,0:0:0:0:
320,192,284762,1,0,0:0:0:0:
192,192,285078,1,0,0:0:0:0:
64,192,285078,1,0,0:0:0:0:
448,192,285394,1,0,0:0:0:0:
320,192,285394,1,0,0:0:0:0:
192,192,285394,1,0,0:0:0:0:
64,192,285709,1,0,0:0:0:0:
320,192,286025,1,0,0:0:0:0:
448,192,286025,1,0,0:0:0:0:
64,192,286025,1,0,0:0:0:0:
448,192,286341,1,0,0:0:0:0:
192,192,286341,1,0,0:0:0:0:
448,192,286657,1,0,0:0:0:0:
64,192,286657,1,0,0:0:0:0:
320,192,286657,1,0,0:0:0:0:
192,192,286973,1,0,0:0:0:0:
448,192,286973,1,0,0:0:0:0:
64,192,287130,1,0,0:0:0:0:
320,192,287130,1,0,0:0:0:0:
192,192,287288,1,0,0:0:0:0:
64,192,287604,1,0,0:0:0:0:
320,192,287604,1,0,0:0:0:0:
192,192,287920,1,0,0:0:0:0:
64,192,287920,1,0,0:0:0:0:
320,192,287920,1,0,0:0:0:0:
448,192,288236,1,0,0:0:0:0:
192,192,288236,1,0,0:0:0:0:
192,192,288552,1,0,0:0:0:0:
64,192,288552,1,0,0:0:0:0:
320,192,288867,1,0,0:0:0:0:
64,192,288867,1,0,0:0:0:0:
448,192,289183,1,0,0:0:0:0:
192,192,289183,1,0,0:0:0:0:
64,192,289183,1,0,0:0:0:0:
448,192,289499,1,0,0:0:0:0:
192,192,289499,1,0,0:0:0:0:
320,192,289657,1,0,0:0:0:0:
64,192,289657,1,0,0:0:0:0:
192,192,289815,1,0,0:0:0:0:
320,192,290130,1,0,0:0:0:0:
64,192,290130,1,0,0:0:0:0:
448,192,290446,1,0,0:0:0:0:
192,192,290446,1,0,0:0:0:0:
64,192,290446,1,0,0:0:0:0:
192,192,290762,1,0,0:0:0:0:
448,192,290762,1,0,0:0:0:0:
320,192,291078,1,0,0:0:0:0:
64,192,291078,1,0,0:0:0:0:
192,192,291394,1,0,0:0:0:0:
448,192,291709,1,0,0:0:0:0:
64,192,291709,1,0,0:0:0:0:
320,192,291709,1,0,0:0:0:0:
192,192,292025,1,0,0:0:0:0:
320,192,292183,1,0,0:0:0:0:
448,192,292341,1,0,0:0:0:0:
320,192,292657,1,0,0:0:0:0:
192,192,292657,1,0,0:0:0:0:
448,192,292973,1,0,0:0:0:0:
320,192,292973,1,0,0:0:0:0:
64,192,292973,1,0,0:0:0:0:
192,192,293288,1,0,0:0:0:0:
448,192,293604,1,0,0:0:0:0:
64,192,293604,1,0,0:0:0:0:
192,192,293604,1,0,0:0:0:0:
320,192,293920,1,0,0:0:0:0:
320,192,294236,1,0,0:0:0:0:
192,192,294236,1,0,0:0:0:0:
64,192,294236,1,0,0:0:0:0:
448,192,294552,1,0,0:0:0:0:
192,192,294709,1,0,0:0:0:0:
64,192,294709,1,0,0:0:0:0:
320,192,294867,1,0,0:0:0:0:
448,192,294867,1,0,0:0:0:0:
192,192,295025,1,0,0:0:0:0:
64,192,295025,1,0,0:0:0:0:
320,192,295183,1,0,0:0:0:0:
192,192,295499,1,0,0:0:0:0:
64,192,295499,1,0,0:0:0:0:
320,192,295657,1,0,0:0:0:0:
448,192,295657,1,0,0:0:0:0:
192,192,295815,1,0,0:0:0:0:
64,192,295815,1,0,0:0:0:0:
320,192,295973,1,0,0:0:0:0:
448,192,295973,1,0,0:0:0:0:
64,192,296130,1,0,0:0:0:0:
192,192,296209,1,0,0:0:0:0:
320,192,296288,1,0,0:0:0:0:
64,192,296367,128,0,301183:0:0:0:0:
448,192,296367,128,0,301183:0:0:0:0:
320,192,300236,128,0,301183:0:0:0:0:
