osu file format v14

[General]
AudioFilename: audio.mp3
AudioLeadIn: 0
PreviewTime: 30979
Countdown: 0
SampleSet: Soft
StackLeniency: 0.7
Mode: 0
LetterboxInBreaks: 0
WidescreenStoryboard: 0

[Editor]
Bookmarks: 35113
DistanceSpacing: 1.1
BeatDivisor: 4
GridSize: 32
TimelineZoom: 1.5

[Metadata]
Title:Minority
TitleUnicode:Minority
Artist:Yuki Yumeno
ArtistUnicode:夢乃ゆき
Creator:ArThasCD
Version:Normal
Source:少女マイノリティ-慰めの愛-
Tags:DMM hentai eroge game visual novel opening pure more assassincread
BeatmapID:1587660
BeatmapSetID:581584

[Difficulty]
HPDrainRate:4
CircleSize:3.5
OverallDifficulty:4
ApproachRate:4.5
SliderMultiplier:1.1
SliderTickRate:1

[Events]
//Background and Video events
0,0,"BG.jpg",0,0
//Break Periods
//Storyboard Layer 0 (Background)
//Storyboard Layer 1 (Fail)
//Storyboard Layer 2 (Pass)
//Storyboard Layer 3 (Foreground)
//Storyboard Sound Samples

[TimingPoints]
1901,461.538461538462,4,2,1,40,1,0
16670,-100,4,2,1,60,0,0
31439,-100,4,2,1,40,0,0
46208,-100,4,2,1,60,0,0
60977,-100,4,2,1,70,0,0
75747,-100,4,2,1,70,0,1
102977,-100,4,2,1,60,0,1
105285,-100,4,2,1,40,0,0

[Colours]
Combo1 : 248,52,24
Combo2 : 251,87,210
Combo3 : 162,68,255

[HitObjects]
149,283,1901,6,0,L|124:163,1,110,2|8,0:0|0:0,0:0:0:0:
111,116,2593,1,2,0:0:0:0:
276,40,3285,1,8,0:0:0:0:
389,80,3747,2,0,L|378:194,1,110,2|8,0:0|0:0,0:0:0:0:
373,249,4439,1,2,0:0:0:0:
222,349,5131,1,8,0:0:0:0:
114,293,5593,6,0,L|101:173,1,110,2|8,0:0|0:0,0:0:0:0:
95,123,6285,1,2,0:0:0:0:
256,41,6977,1,8,0:0:0:0:
444,192,7901,1,8,0:0:0:0:
256,343,8824,1,8,0:0:0:0:
174,253,9285,6,0,L|64:226,1,110,2|8,0:0|0:0,0:0:0:0:
7,214,9977,1,2,0:0:0:0:
80,47,10670,1,8,0:0:0:0:
179,116,11131,2,0,L|297:104,1,110,2|8,0:0|0:0,0:0:0:0:
348,99,11824,1,2,0:0:0:0:
474,228,12516,2,0,L|442:277,1,55,8|2,0:0|0:0,0:0:0:0:
407,322,12977,6,0,P|362:342|326:348,2,82.5,2|2|2,0:0|0:0|0:0,0:0:0:0:
443,274,13901,2,0,P|442:216|436:178,2,82.5,2|2|2,0:0|0:0|0:0,0:0:0:0:
383,268,14824,2,0,L|309:223,1,82.5,2|2,0:0|0:0,0:0:0:0:
234,178,15516,2,0,L|203:127,1,55,2|2,0:0|0:0,0:0:0:0:
170,81,15977,2,0,P|136:76|109:76,2,55,2|8|2,0:0|0:0|0:0,0:0:0:0:
230,81,16670,6,0,P|287:74|343:53,1,110,2|8,0:0|0:0,0:0:0:0:
388,24,17362,2,0,P|406:75|412:130,1,110,2|0,0:0|0:0,0:0:0:0:
406,190,18054,1,8,0:0:0:0:
344,294,18516,1,2,0:0:0:0:
229,253,18977,1,8,0:0:0:0:
229,253,19208,2,0,P|181:285|133:303,1,110,2|0,0:0|0:0,0:0:0:0:
71,305,19901,1,8,0:0:0:0:
28,191,20362,6,0,P|76:159|124:141,1,110,2|8,0:0|0:0,0:0:0:0:
183,126,21054,2,0,P|234:106|279:75,1,110,2|0,0:0|0:0,0:0:0:0:
328,39,21747,1,8,0:0:0:0:
445,67,22208,2,0,L|490:171,1,110,0|8,0:0|0:0,0:0:0:0:
409,259,23131,2,0,L|365:158,1,110,0|8,0:0|0:0,0:0:0:0:
264,90,24054,6,0,P|208:83|149:88,1,110,2|8,0:0|0:0,0:0:0:0:
114,132,24747,2,0,P|107:188|112:247,1,110,2|0,0:0|0:0,0:0:0:0:
121,300,25439,1,8,0:0:0:0:
223,364,25901,1,2,0:0:0:0:
337,324,26362,1,8,0:0:0:0:
337,324,26593,2,0,P|381:290|431:266,1,110,2|0,0:0|0:0,0:0:0:0:
488,250,27285,2,0,L|493:195,1,55,8|2,0:0|0:0,0:0:0:0:
484,134,27747,6,0,P|424:118|372:96,1,110,2|8,0:0|0:0,0:0:0:0:
328,67,28439,1,2,0:0:0:0:
150,104,29131,1,8,0:0:0:0:
54,177,29593,1,0,0:0:0:0:
90,292,30054,1,8,0:0:0:0:
211,292,30516,1,0,0:0:0:0:
250,177,30977,1,8,0:0:0:0:
150,104,31439,6,0,L|34:91,1,110,2|8,0:0|0:0,0:0:0:0:
159,302,32824,1,8,0:0:0:0:
262,239,33285,2,0,P|325:232|379:237,1,110,2|8,0:0|0:0,0:0:0:0:
429,251,33977,1,2,0:0:0:0:
490,79,34670,1,8,0:0:0:0:
383,136,35131,6,0,L|253:150,1,110,2|8,0:0|0:0,0:0:0:0:
56,41,36516,1,8,0:0:0:0:
133,133,36977,2,0,P|139:192|121:252,1,110,2|8,0:0|0:0,0:0:0:0:
90,289,37670,1,2,0:0:0:0:
260,226,38362,1,8,0:0:0:0:
355,300,38824,6,0,L|474:307,1,110,2|8,0:0|0:0,0:0:0:0:
334,102,40208,1,8,0:0:0:0:
228,161,40670,2,0,P|165:163|116:155,1,110,2|8,0:0|0:0,0:0:0:0:
61,137,41362,1,2,0:0:0:0:
11,311,42054,1,8,0:0:0:0:
119,257,42516,6,0,P|182:255|231:263,1,110,2|8,0:0|0:0,0:0:0:0:
281,290,43208,1,0,0:0:0:0:
413,165,43901,1,8,0:0:0:0:
361,55,44362,1,2,0:0:0:0:
293,155,44824,1,8,0:0:0:0:
293,155,45054,1,2,0:0:0:0:
124,86,45747,1,0,0:0:0:0:
178,194,46208,6,0,L|79:248,1,110,2|8,0:0|0:0,0:0:0:0:
135,355,47131,2,0,L|231:302,1,110,0|8,0:0|0:0,0:0:0:0:
339,248,48054,2,0,P|347:188|340:140,1,110,2|8,0:0|0:0,0:0:0:0:
302,91,48747,2,0,L|194:71,1,110,2|0,0:0|0:0,0:0:0:0:
134,61,49439,1,8,0:0:0:0:
45,144,49901,5,2,0:0:0:0:
65,263,50362,1,8,0:0:0:0:
173,317,50824,1,0,0:0:0:0:
282,264,51285,1,8,0:0:0:0:
328,152,51747,2,0,P|386:144|446:152,1,110,2|8,0:0|0:0,0:0:0:0:
481,190,52439,2,0,L|461:298,1,110,2|0,0:0|0:0,0:0:0:0:
450,357,53131,1,8,0:0:0:0:
328,360,53593,6,0,L|214:340,1,110,2|8,0:0|0:0,0:0:0:0:
199,221,54516,2,0,L|313:241,1,110,0|8,0:0|0:0,0:0:0:0:
425,266,55439,2,0,P|454:209|463:158,1,110,2|8,0:0|0:0,0:0:0:0:
449,104,56131,2,0,L|337:48,1,110,2|0,0:0|0:0,0:0:0:0:
295,28,56824,1,8,0:0:0:0:
177,56,57285,6,0,P|185:113|171:171,1,110,2|8,0:0|0:0,0:0:0:0:
116,182,57977,2,0,L|259:276,1,165,0|8,0:0|0:0,0:0:0:0:
362,327,59131,2,0,L|440:303,2,82.5,2|2|2,0:0|0:0|0:0,0:0:0:0:
324,279,60054,2,0,L|365:204,2,82.5,2|2|2,0:0|0:0|0:0,0:0:0:0:
264,288,60977,6,0,P|211:294|150:288,1,110,2|8,0:0|0:0,0:0:0:0:
99,181,61901,2,0,P|152:175|213:181,1,110,2|8,0:0|0:0,0:0:0:0:
327,199,62824,1,2,0:0:0:0:
421,123,63285,1,8,0:0:0:0:
339,33,63747,2,0,L|228:24,1,110,2|8,0:0|0:0,0:0:0:0:
121,79,64670,6,0,P|92:129|81:180,1,110,2|8,0:0|0:0,0:0:0:0:
160,270,65593,2,0,P|189:220|200:169,1,110,2|8,0:0|0:0,0:0:0:0:
244,56,66516,1,2,0:0:0:0:
363,70,66977,2,0,L|412:114,1,55,8|2,0:0|0:0,0:0:0:0:
294,158,67670,2,0,L|343:202,1,55,2|8,0:0|0:0,0:0:0:0:
436,260,68362,6,0,P|404:293|343:312,1,110,2|8,0:0|0:0,0:0:0:0:
223,304,69285,2,0,P|170:289|131:252,1,110,2|8,0:0|0:0,0:0:0:0:
76,143,70208,1,2,0:0:0:0:
173,70,70670,1,8,0:0:0:0:
274,135,71131,2,0,P|332:146|392:129,1,110,2|8,0:0|0:0,0:0:0:0:
480,66,72054,6,0,L|464:185,1,110,2|8,0:0|0:0,0:0:0:0:
456,235,72747,1,0,0:0:0:0:
359,307,73208,1,2,0:0:0:0:
359,307,73439,2,0,L|303:325,1,55,8|2,0:0|0:0,0:0:0:0:
249,345,73901,1,8,0:0:0:0:
187,240,74362,1,8,0:0:0:0:
128,345,74824,1,8,0:0:0:0:
332,215,75747,6,0,B|346:161|346:161|340:107,1,110,4|8,0:0|0:0,0:0:0:0:
301,60,76439,2,0,L|184:43,1,110,2|0,0:0|0:0,0:0:0:0:
131,37,77131,1,8,0:0:0:0:
38,115,77593,1,2,0:0:0:0:
90,224,78054,1,8,0:0:0:0:
127,271,78285,2,0,B|181:285|181:285|238:277,1,110,2|0,0:0|0:0,0:0:0:0:
284,242,78977,1,8,0:0:0:0:
357,145,79439,5,2,0:0:0:0:
470,187,79901,2,0,B|481:241|481:241|469:298,1,110,8|0,0:0|0:0,0:0:0:0:
434,344,80593,2,0,L|374:359,1,55,0|8,0:0|0:0,0:0:0:0:
263,326,81285,1,2,0:0:0:0:
162,258,81747,2,0,B|149:205|149:205|159:150,1,110,8|0,0:0|0:0,0:0:0:0:
223,48,82670,1,8,0:0:0:0:
311,130,83131,6,0,B|370:131|370:131|425:117,1,110,2|8,0:0|0:0,0:0:0:0:
469,83,83824,1,2,0:0:0:0:
508,197,84285,1,0,0:0:0:0:
508,197,84516,1,8,0:0:0:0:
420,279,84977,2,0,B|361:278|361:278|306:292,1,110,2|8,0:0|0:0,0:0:0:0:
257,318,85670,1,2,0:0:0:0:
138,343,86131,1,0,0:0:0:0:
138,343,86362,1,8,0:0:0:0:
48,261,86824,6,0,B|40:205|40:205|56:155,1,110,2|8,0:0|0:0,0:0:0:0:
97,110,87516,2,0,L|279:69,1,165,2|8,0:0|0:0,0:0:0:0:
373,38,88670,1,2,0:0:0:0:
345,155,89131,1,8,0:0:0:0:
248,228,89593,2,0,L|180:216,1,55,0|2,0:0|0:0,0:0:0:0:
153,173,90054,2,0,L|85:161,1,55,8|2,0:0|0:0,0:0:0:0:
42,186,90516,6,0,B|18:238|18:238|17:297,1,110,2|8,0:0|0:0,0:0:0:0:
49,341,91208,2,0,L|163:362,1,110,2|0,0:0|0:0,0:0:0:0:
217,370,91901,1,8,0:0:0:0:
290,274,92362,1,2,0:0:0:0:
400,322,92824,1,8,0:0:0:0:
447,284,93054,2,0,B|475:232|475:232|476:171,1,110,2|0,0:0|0:0,0:0:0:0:
458,122,93747,1,8,0:0:0:0:
361,49,94208,5,2,0:0:0:0:
262,119,94670,2,0,B|209:123|209:123|151:105,1,110,8|0,0:0|0:0,0:0:0:0:
97,85,95362,2,0,L|60:130,1,55,0|8,0:0|0:0,0:0:0:0:
12,237,96054,1,2,0:0:0:0:
105,313,96516,2,0,B|163:305|163:305|221:320,1,110,8|0,0:0|0:0,0:0:0:0:
328,352,97439,1,8,0:0:0:0:
422,275,97901,6,0,B|430:223|430:223|413:158,1,110,2|8,0:0|0:0,0:0:0:0:
393,110,98593,1,2,0:0:0:0:
286,53,99054,1,0,0:0:0:0:
286,53,99285,1,8,0:0:0:0:
173,96,99747,6,0,B|140:137|140:137|122:201,1,110,2|8,0:0|0:0,0:0:0:0:
115,253,100439,1,2,0:0:0:0:
179,356,100901,1,0,0:0:0:0:
179,356,101131,1,8,0:0:0:0:
288,304,101593,2,0,B|345:295|345:295|397:307,1,110,2|8,0:0|0:0,0:0:0:0:
443,343,102285,2,0,L|497:182,1,165,2|8,0:0|0:0,0:0:0:0:
341,90,103670,6,0,L|306:30,2,55,2|0|2,0:0|0:0|0:0,0:0:0:0:
367,144,104362,1,2,0:0:0:0:
339,261,104824,1,2,0:0:0:0:
231,315,105285,5,2,0:0:0:0:
121,264,105747,1,8,0:0:0:0:
121,264,105977,1,2,0:0:0:0:
188,95,106670,1,8,0:0:0:0:
294,152,107131,1,2,0:0:0:0:
293,30,107593,1,8,0:0:0:0:
293,30,107824,1,2,0:0:0:0:
458,104,108516,5,8,0:0:0:0:
379,195,108977,1,2,0:0:0:0:
497,218,109439,1,8,0:0:0:0:
497,218,109670,1,2,0:0:0:0:
377,354,110362,1,8,0:0:0:0:
142,293,111285,1,8,0:0:0:0:
315,124,112208,5,8,0:0:0:0:
239,29,112670,1,2,0:0:0:0:
196,142,113131,1,8,0:0:0:0:
196,142,113362,1,2,0:0:0:0:
341,249,114054,1,8,0:0:0:0:
431,168,114516,1,2,0:0:0:0:
315,124,114977,1,8,0:0:0:0:
315,124,115208,1,2,0:0:0:0:
161,220,115901,6,0,L|97:204,1,55,8|2,0:0|0:0,0:0:0:0:
48,192,116362,1,2,0:0:0:0:
162,51,117054,1,2,0:0:0:0:
