osu file format v14

[General]
AudioFilename: audio.mp3
AudioLeadIn: 0
PreviewTime: 30979
Countdown: 0
SampleSet: Soft
StackLeniency: 0.4
Mode: 0
LetterboxInBreaks: 0
WidescreenStoryboard: 0

[Editor]
Bookmarks: 35113,99056
DistanceSpacing: 1
BeatDivisor: 4
GridSize: 32
TimelineZoom: 1.5

[Metadata]
Title:Minority
TitleUnicode:Minority
Artist:Yuki Yumeno
ArtistUnicode:夢乃ゆき
Creator:ArThasCD
Version:Minority
Source:少女マイノリティ-慰めの愛-
Tags:DMM hentai eroge game visual novel opening pure more assassincread
BeatmapID:1601863
BeatmapSetID:581584

[Difficulty]
HPDrainRate:6
CircleSize:4.5
OverallDifficulty:8
ApproachRate:8.8
SliderMultiplier:2
SliderTickRate:1

[Events]
//Background and Video events
0,0,"BG.jpg",0,0
//Break Periods
//Storyboard Layer 0 (Background)
//Storyboard Layer 1 (Fail)
//Storyboard Layer 2 (Pass)
//Storyboard Layer 3 (Foreground)
//Storyboard Sound Samples

[TimingPoints]
1901,461.538461538462,4,2,1,40,1,0
3516,-100,4,2,1,10,0,0
3747,-100,4,2,1,40,0,0
5362,-100,4,2,1,10,0,0
5593,-100,4,2,1,40,0,0
10901,-100,4,2,1,10,0,0
11131,-100,4,2,1,40,0,0
16208,-80,4,2,1,40,0,0
16670,-100,4,2,1,60,0,0
31439,-100,4,2,1,40,0,0
46208,-100,4,2,1,50,0,0
46670,-100,4,2,1,55,0,0
47131,-100,4,2,1,60,0,0
47593,-100,4,2,1,65,0,0
50362,-100,4,2,1,60,0,0
50824,-100,4,2,1,55,0,0
51285,-100,4,2,1,50,0,0
54054,-100,4,2,1,55,0,0
54516,-100,4,2,1,60,0,0
54977,-100,4,2,1,65,0,0
55901,-100,4,2,1,60,0,0
60977,-100,4,2,1,70,0,0
75054,-200,4,2,1,50,0,0
75747,-83.3333333333333,4,2,1,70,0,1
103439,-100,4,2,1,60,0,1
105285,-100,4,2,1,40,0,0
106439,-100,4,2,1,10,0,0
106670,-100,4,2,1,40,0,0
108285,-100,4,2,1,10,0,0
108516,-100,4,2,1,40,0,0
110131,-100,4,2,1,10,0,0
110362,-100,4,2,1,40,0,0
113824,-100,4,2,1,10,0,0
114054,-100,4,2,1,40,0,0
115670,-100,4,2,1,10,0,0
115901,-100,4,2,1,40,0,0

[Colours]
Combo1 : 248,52,24
Combo2 : 251,87,210
Combo3 : 162,68,255

[HitObjects]
164,128,1901,6,0,B|189:89|189:89|165:72|133:77|107:129|136:195,1,200,2|8,0:0|0:0,0:0:0:0:
219,326,2593,1,2,0:0:0:0:
304,237,3285,2,0,B|254:245|254:245|201:237,1,100,8|0,0:0|0:0,0:0:0:0:
348,128,3747,6,0,B|323:89|323:89|347:72|379:77|405:129|376:195,1,200,2|8,0:0|0:0,0:0:0:0:
293,326,4439,1,2,0:0:0:0:
205,237,5131,2,0,B|254:245|254:245|304:237,1,100,8|0,0:0|0:0,0:0:0:0:
210,88,5593,6,0,B|183:128|224:160|257:174|288:160|328:127|298:87,1,200,2|8,0:0|0:0,0:0:0:0:
128,192,6285,1,2,0:0:0:0:
320,288,6977,1,8,0:0:0:0:
192,288,7439,5,0,0:0:0:0:
320,288,7901,1,8,0:0:0:0:
192,288,8362,1,0,0:0:0:0:
320,288,8824,1,8,0:0:0:0:
199,77,9285,6,0,B|227:123|198:170|148:181|103:152|102:103,1,200,2|8,0:0|0:0,0:0:0:0:
306,128,9977,1,2,0:0:0:0:
405,128,10670,2,0,B|355:136|355:136|306:128,1,100,8|0,0:0|0:0,0:0:0:0:
313,307,11131,6,0,B|285:261|314:214|368:203|409:232|409:279,1,200,2|8,0:0|0:0,0:0:0:0:
206,256,11824,1,2,0:0:0:0:
107,256,12516,1,8,0:0:0:0:
245,164,12747,1,2,0:0:0:0:
188,360,12977,1,2,0:0:0:0:
46,133,13324,5,2,0:0:0:0:
79,110,13439,1,8,0:0:0:0:
245,164,13670,1,2,0:0:0:0:
110,9,13901,1,2,0:0:0:0:
371,135,14247,5,2,0:0:0:0:
399,106,14362,1,8,0:0:0:0:
276,35,14593,1,2,0:0:0:0:
313,236,14824,1,2,0:0:0:0:
46,133,15170,5,2,0:0:0:0:
79,110,15285,1,8,0:0:0:0:
245,164,15516,1,2,0:0:0:0:
110,9,15747,1,8,0:0:0:0:
144,177,15977,1,2,0:0:0:0:
264,60,16208,6,0,B|314:76|333:42|264:17|204:65|174:103,1,187.5,8|0,0:0|0:0,0:0:0:0:
40,264,16670,6,0,P|150:252|240:266,1,200,2|8,0:0|0:0,0:0:0:0:
449,149,17362,2,0,P|339:161|249:147,1,200,2|2,0:0|0:3,0:0:0:0:
57,117,18054,1,8,0:0:0:0:
94,103,18170,1,0,0:0:0:0:
131,88,18285,2,0,L|172:127,1,50,2|0,0:3|0:0,0:0:0:0:
348,264,18516,6,0,P|324:163|351:71,1,200,2|8,0:0|0:0,0:0:0:0:
167,122,19208,2,0,P|191:223|164:315,1,200,2|2,0:0|0:3,0:0:0:0:
24,241,19901,1,8,0:0:0:0:
40,229,20016,1,0,0:0:0:0:
57,219,20131,2,0,L|106:234,1,50,2|0,0:3|0:0,0:0:0:0:
218,309,20362,6,0,P|191:213|215:117,1,200,2|8,0:0|0:0,0:0:0:0:
418,215,21054,2,0,P|329:199|216:217,1,200,2|2,0:0|0:3,0:0:0:0:
78,320,21747,5,8,0:0:0:0:
92,299,21862,1,0,0:0:0:0:
98,274,21977,1,2,0:3:0:0:
95,249,22093,1,0,0:0:0:0:
71,223,22208,5,0,0:0:0:0:
52,193,22324,1,0,0:0:0:0:
58,158,22439,1,2,0:3:0:0:
79,130,22554,1,0,0:0:0:0:
122,116,22670,5,8,0:0:0:0:
164,129,22785,1,0,0:0:0:0:
188,166,22901,1,2,0:3:0:0:
187,210,23016,1,0,0:0:0:0:
217,255,23131,5,0,0:0:0:0:
269,273,23247,1,0,0:0:0:0:
322,262,23362,1,2,0:3:0:0:
363,226,23477,1,0,0:0:0:0:
360,160,23593,6,0,L|311:121,1,50,8|0,0:0|0:0,0:0:0:0:
192,125,23824,2,0,L|231:156,1,50,2|0,0:3|0:0,0:0:0:0:
394,30,24054,1,2,0:0:0:0:
485,177,24516,5,8,0:0:0:0:
394,30,24747,2,0,P|294:49|189:27,1,200,2|2,0:0|0:3,0:0:0:0:
34,165,25439,1,8,0:0:0:0:
69,147,25554,1,0,0:0:0:0:
105,129,25670,2,0,L|66:97,1,50,2|0,0:3|0:0,0:0:0:0:
236,149,25901,1,2,0:0:0:0:
109,287,26362,5,8,0:0:0:0:
236,149,26593,2,0,P|336:168|441:146,1,200,2|2,0:0|0:3,0:0:0:0:
479,332,27285,2,0,L|458:281,1,50,8|0,0:0|0:0,0:0:0:0:
391,242,27516,2,0,L|410:288,1,50,2|0,0:3|0:0,0:0:0:0:
498,205,27747,1,2,0:0:0:0:
396,52,28208,5,8,0:0:0:0:
498,205,28439,2,0,P|399:188|299:210,1,200,2|2,0:0|0:3,0:0:0:0:
207,303,29131,5,8,0:0:0:0:
177,262,29247,1,0,0:0:0:0:
136,232,29362,1,2,0:3:0:0:
86,225,29477,1,0,0:0:0:0:
5,247,29593,5,0,0:0:0:0:
16,198,29708,1,0,0:0:0:0:
28,149,29824,1,2,0:3:0:0:
42,101,29939,1,0,0:0:0:0:
107,43,30054,5,8,0:0:0:0:
137,84,30170,1,0,0:0:0:0:
178,114,30285,1,2,0:3:0:0:
228,121,30401,1,0,0:0:0:0:
309,99,30516,5,0,0:0:0:0:
298,148,30631,1,0,0:0:0:0:
286,197,30747,1,2,0:3:0:0:
273,245,30862,1,0,0:0:0:0:
202,304,30977,6,0,L|155:288,1,50,8|0,0:0|0:0,0:0:0:0:
110,177,31208,2,0,L|157:193,1,50,2|0,0:3|0:0,0:0:0:0:
286,197,31439,5,2,0:0:0:0:
99,58,31901,1,8,0:0:0:0:
286,197,32362,1,0,0:0:0:0:
58,259,32824,1,8,0:0:0:0:
180,101,33054,1,0,0:0:0:0:
332,148,33285,6,0,B|283:138|283:138|234:148,1,100,2|0,0:0|0:0,0:0:0:0:
187,215,33631,2,0,B|236:225|236:225|285:215,1,100
399,188,33977,2,0,B|355:232|340:283|340:283|254:303,1,200,2|0,0:0|0:0,0:0:0:0:
102,240,34670,1,8,0:0:0:0:
189,366,34901,1,0,0:0:0:0:
13,251,35131,5,2,0:0:0:0:
255,302,35593,1,8,0:0:0:0:
103,107,36054,1,0,0:0:0:0:
255,302,36516,1,8,0:0:0:0:
199,89,36747,1,0,0:0:0:0:
87,249,36977,6,0,B|136:259|136:259|185:249,1,100,2|0,0:0|0:0,0:0:0:0:
232,182,37324,2,0,B|183:172|183:172|134:182,1,100
20,209,37670,2,0,B|64:165|79:114|79:114|165:94,1,200,2|0,0:0|0:0,0:0:0:0:
318,152,38362,1,8,0:0:0:0:
228,31,38593,1,0,0:0:0:0:
423,141,38824,5,2,0:0:0:0:
163,94,39285,1,8,0:0:0:0:
334,286,39747,1,0,0:0:0:0:
163,94,40208,1,8,0:0:0:0:
309,29,40439,1,0,0:0:0:0:
423,141,40670,6,0,B|374:131|374:131|325:141,1,100,2|0,0:0|0:0,0:0:0:0:
278,208,41016,2,0,B|327:218|327:218|376:208,1,100
490,181,41362,2,0,B|446:225|431:276|431:276|345:296,1,200,2|0,0:0|0:0,0:0:0:0:
177,316,42054,1,8,0:0:0:0:
335,69,42516,6,0,B|398:84|398:84|428:176|371:211,1,200,2|8,0:0|0:0,0:0:0:0:
135,207,43208,2,0,B|84:176|114:84|114:84|177:69,1,200
376,207,43901,1,8,0:0:0:0:
175,345,44362,6,0,B|226:313|196:221|196:221|133:206,1,200,2|8,0:0|0:0,0:0:0:0:
376,207,45054,1,2,0:0:0:0:
134,184,45747,5,0,0:0:0:0:
377,227,45977,1,0,0:0:0:0:
256,108,46208,6,0,L|244:157,1,50,2|0,0:0|0:0,0:0:0:0:
256,276,46439,2,0,L|268:227,1,50
238,104,46670,6,0,L|226:153,1,50,8|0,0:0|0:0,0:0:0:0:
274,280,46901,2,0,L|286:231,1,50
220,100,47131,6,0,L|162:108,1,50,2|0,0:0|0:0,0:0:0:0:
292,284,47362,2,0,L|350:276,1,50
206,83,47593,6,0,L|148:91,1,50,8|0,0:0|0:0,0:0:0:0:
306,301,47824,2,0,L|364:293,1,50
456,189,48054,5,2,0:0:0:0:
192,312,48285,1,0,0:0:0:0:
215,279,48401,2,0,L|113:266,1,100
237,245,48747,2,0,L|135:232,1,100,2|0,0:0|0:0,0:0:0:0:
7,204,49208,1,0,0:0:0:0:
35,175,49324,1,0,0:0:0:0:
51,138,49439,1,8,0:0:0:0:
16,14,49670,1,0,0:0:0:0:
150,105,49901,6,0,L|201:115,1,50,2|0,0:0|0:0,0:0:0:0:
369,72,50131,2,0,L|318:62,1,50
169,137,50362,6,0,L|220:133,1,50,8|0,0:0|0:0,0:0:0:0:
363,88,50593,2,0,L|311:91,1,50
189,166,50824,6,0,L|238:149,1,50,2|0,0:0|0:0,0:0:0:0:
355,107,51054,2,0,L|305:123,1,50
261,232,51285,5,8,0:0:0:0:
279,225,51401,1,0,0:0:0:0:
297,218,51516,1,0,0:0:0:0:
315,211,51631,1,0,0:0:0:0:
368,188,51747,5,2,0:0:0:0:
104,286,51977,1,0,0:0:0:0:
137,309,52093,2,0,L|150:207,1,100
171,331,52439,2,0,L|184:229,1,100,2|0,0:0|0:0,0:0:0:0:
212,93,52901,1,0,0:0:0:0:
183,82,53016,1,0,0:0:0:0:
153,81,53131,1,8,0:0:0:0:
31,141,53362,1,0,0:0:0:0:
183,231,53593,6,0,L|232:243,1,50,2|0,0:0|0:0,0:0:0:0:
351,231,53824,2,0,L|302:219,1,50
179,249,54054,6,0,L|228:261,1,50,8|0,0:0|0:0,0:0:0:0:
355,213,54285,2,0,L|306:201,1,50
175,267,54516,6,0,L|183:325,1,50,2|0,0:0|0:0,0:0:0:0:
359,195,54747,2,0,L|351:137,1,50
158,281,54977,6,0,L|166:339,1,50,8|0,0:0|0:0,0:0:0:0:
376,181,55208,2,0,L|368:123,1,50
256,32,55439,5,2,0:0:0:0:
44,186,55670,1,0,0:0:0:0:
77,163,55785,2,0,L|90:265,1,100
111,141,56131,2,0,L|124:243,1,100,2|0,0:0|0:0,0:0:0:0:
235,340,56593,1,0,0:0:0:0:
207,350,56708,1,0,0:0:0:0:
177,356,56824,1,8,0:0:0:0:
285,221,57054,1,0,0:0:0:0:
432,340,57285,6,0,B|402:270|406:198|406:198|465:227,1,200,2|8,0:0|0:0,0:0:0:0:
260,80,57977,2,0,B|290:150|286:222|286:222|227:193,1,200
56,112,58670,2,0,P|110:119|160:112,1,100,8|0,0:0|0:0,0:0:0:0:
285,220,59131,6,0,B|185:231|185:231|219:273,1,150,2|2,0:0|0:0,0:0:0:0:
267,335,59593,1,8,0:0:0:0:
37,207,59824,1,2,0:0:0:0:
268,222,60054,6,0,B|168:233|168:233|202:275,1,150,2|2,0:0|0:0,0:0:0:0:
250,337,60516,1,8,0:0:0:0:
20,209,60747,1,2,0:0:0:0:
189,70,60977,6,0,B|240:81|240:81|289:71,1,100,2|0,0:0|0:0,0:0:0:0:
474,178,61439,2,0,L|429:204,1,50,8|0,0:0|0:0,0:0:0:0:
402,89,61670,1,0,0:0:0:0:
270,240,61901,5,2,0:0:0:0:
189,70,62131,1,0,0:0:0:0:
44,215,62362,2,0,L|97:209,1,50,8|0,0:0|0:0,0:0:0:0:
19,113,62593,1,0,0:0:0:0:
191,261,62824,6,0,B|184:212|184:212|192:156,1,100,2|0,0:0|0:0,0:0:0:0:
371,100,63285,2,0,L|312:79,1,50,8|0,0:0|0:0,0:0:0:0:
435,18,63516,1,0,0:0:0:0:
306,189,63747,5,2,0:0:0:0:
204,76,63977,1,0,0:0:0:0:
237,53,64093,1,0,0:0:0:0:
306,189,64324,1,0,0:0:0:0:
273,212,64439,1,0,0:0:0:0:
84,143,64670,6,0,B|92:190|92:190|82:241,1,100,2|0,0:0|0:0,0:0:0:0:
255,333,65131,2,0,L|200:313,1,50,8|0,0:0|0:0,0:0:0:0:
273,212,65362,1,0,0:0:0:0:
83,344,65593,5,2,0:0:0:0:
183,166,65824,1,0,0:0:0:0:
354,296,66054,2,0,L|299:276,1,50,8|0,0:0|0:0,0:0:0:0:
372,175,66285,1,0,0:0:0:0:
113,253,66516,1,2,0:0:0:0:
376,191,66977,5,8,0:0:0:0:
109,236,67208,1,2,0:0:0:0:
375,205,67670,5,2,0:0:0:0:
104,217,67901,2,0,B|156:224|156:224|203:217,1,100,8|0,0:0|0:0,0:0:0:0:
396,330,68362,6,0,B|344:323|344:323|297:330,1,100,2|0,0:0|0:0,0:0:0:0:
375,205,68824,2,0,L|423:254,1,50,8|0,0:0|0:0,0:0:0:0:
281,206,69054,1,0,0:0:0:0:
486,178,69285,5,2,0:0:0:0:
327,48,69516,1,0,0:0:0:0:
193,191,69747,2,0,L|211:138,1,50,8|0,0:0|0:0,0:0:0:0:
92,202,69977,1,0,0:0:0:0:
232,54,70208,6,0,B|180:60|180:60|133:53,1,100,2|0,0:0|0:0,0:0:0:0:
15,151,70670,2,0,L|33:95,1,50,8|0,0:0|0:0,0:0:0:0:
92,202,70901,1,0,0:0:0:0:
299,137,71131,5,2,0:0:0:0:
234,343,71362,1,0,0:0:0:0:
226,303,71477,1,0,0:0:0:0:
92,202,71708,1,0,0:0:0:0:
84,242,71824,1,0,0:0:0:0:
299,137,72054,6,0,B|249:192|146:141|182:84|219:75|234:136,1,200,2|8,0:0|0:0,0:0:0:0:
290,311,72747,2,0,B|303:365|340:356|376:299|273:248|223:304,1,200
63,360,73439,2,0,P|114:351|166:362,1,100,8|0,0:0|0:0,0:0:0:0:
217,212,73901,5,8,0:0:0:0:
167,215,74016,1,0,0:0:0:0:
117,221,74131,1,0,0:0:0:0:
42,74,74362,1,8,0:0:0:0:
92,77,74477,1,0,0:0:0:0:
142,83,74593,1,0,0:0:0:0:
329,150,74824,1,8,0:0:0:0:
267,58,75054,5,2,0:0:0:0:
259,47,75285,1,0,0:0:0:0:
251,36,75516,1,2,0:0:0:0:
448,259,75747,6,0,P|332:231|216:258,1,239.999992675781,4|8,0:0|0:0,0:0:0:0:
36,103,76439,2,0,P|93:116|151:103,1,119.999996337891,2|0,0:0|0:0,0:0:0:0:
330,31,76901,2,0,P|351:61|358:88,1,59.9999981689454,2|0,0:0|0:0,0:0:0:0:
235,156,77131,2,0,P|250:122|270:103,1,59.9999981689454,8|0,0:0|0:0,0:0:0:0:
391,176,77362,2,0,P|354:179|327:171,1,59.9999981689454,2|0,0:0|0:0,0:0:0:0:
124,54,77593,6,0,P|151:169|123:285,1,239.999992675781,2|8,0:0|0:0,0:0:0:0:
348,349,78285,2,0,P|334:291|347:233,1,119.999996337891,2|0,0:0|0:0,0:0:0:0:
467,106,78747,2,0,P|430:112|395:109,1,59.9999981689454,2|0,0:0|0:0,0:0:0:0:
258,68,78977,2,0,P|282:41|308:20,1,59.9999981689454,8|0,0:0|0:0,0:0:0:0:
250,194,79208,2,0,P|226:221|200:242,1,59.9999981689454,2|0,0:0|0:0,0:0:0:0:
41,325,79439,5,2,0:0:0:0:
407,111,79901,1,8,0:0:0:0:
106,210,80247,1,2,0:0:0:0:
134,171,80362,1,0,0:0:0:0:
300,220,80593,1,2,0:0:0:0:
133,57,80824,1,8,0:0:0:0:
361,137,81054,1,2,0:0:0:0:
201,257,81285,5,0,0:0:0:0:
307,45,81516,1,2,0:0:0:0:
385,273,81747,1,8,0:0:0:0:
63,114,82093,1,2,0:0:0:0:
103,89,82208,1,0,0:0:0:0:
293,140,82439,2,0,P|259:117|243:90,1,59.9999981689454,2|0,0:0|0:0,0:0:0:0:
171,188,82670,2,0,P|205:211|221:238,1,59.9999981689454,8|0,0:0|0:0,0:0:0:0:
370,230,82901,2,0,P|329:237|304:256,1,59.9999981689454,2|0,0:0|0:0,0:0:0:0:
111,306,83131,6,0,P|139:190|112:74,1,239.999992675781,2|8,0:0|0:0,0:0:0:0:
320,23,83824,2,0,P|306:80|320:138,1,119.999996337891,2|0,0:0|0:0,0:0:0:0:
464,218,84285,2,0,P|436:235|410:260,1,59.9999981689454,2|0,0:0|0:0,0:0:0:0:
307,368,84516,2,0,P|314:339|313:297,1,59.9999981689454,8|0,0:0|0:0,0:0:0:0:
147,244,84747,2,0,P|171:267|200:281,1,59.9999981689454,2|0,0:0|0:0,0:0:0:0:
320,138,84977,6,0,P|204:111|88:139,1,239.999992675781,2|8,0:0|0:0,0:0:0:0:
30,331,85670,2,0,P|87:345|145:331,1,119.999996337891,2|0,0:0|0:0,0:0:0:0:
208,155,86131,2,0,P|221:194|225:223,1,59.9999981689454,2|0,0:0|0:0,0:0:0:0:
351,351,86362,2,0,P|338:312|334:283,1,59.9999981689454,8|0,0:0|0:0,0:0:0:0:
385,148,86593,2,0,P|398:187|402:216,1,59.9999981689454,2|0,0:0|0:0,0:0:0:0:
487,363,86824,5,2,0:0:0:0:
96,224,87285,1,8,0:0:0:0:
314,76,87516,2,0,P|198:103|82:75,1,239.999992675781,2|0,0:0|0:0,0:0:0:0:
233,236,88208,2,0,P|291:222|349:236,1,119.999996337891,8|0,0:0|0:0,0:0:0:0:
463,322,88670,5,0,0:0:0:0:
419,156,88901,1,2,0:0:0:0:
289,326,89131,1,8,0:0:0:0:
273,68,89362,1,2,0:0:0:0:
143,238,89593,1,0,0:0:0:0:
397,245,89824,1,2,0:0:0:0:
141,105,90054,1,8,0:0:0:0:
289,326,90285,2,0,L|326:278,1,59.9999981689454,2|0,0:0|0:0,0:0:0:0:
449,127,90516,6,0,P|333:154|217:126,1,239.999992675781,2|8,0:0|0:0,0:0:0:0:
71,299,91208,2,0,P|129:285|187:299,1,119.999996337891,2|0,0:0|0:0,0:0:0:0:
397,323,91670,2,0,P|368:307|347:281,1,59.9999981689454,2|0,0:0|0:0,0:0:0:0:
290,108,91901,2,0,P|306:136|314:172,1,59.9999981689454,8|0,0:0|0:0,0:0:0:0:
139,219,92131,2,0,P|149:191|169:160,1,59.9999981689454,2|0,0:0|0:0,0:0:0:0:
334,57,92362,6,0,P|218:84|102:56,1,239.999992675781,2|8,0:0|0:0,0:0:0:0:
23,218,93054,2,0,P|81:204|139:218,1,119.999996337891,2|0,0:0|0:0,0:0:0:0:
267,322,93516,2,0,P|303:325|337:313,1,59.9999981689454,2|0,0:0|0:0,0:0:0:0:
449,251,93747,2,0,P|419:244|390:247,1,59.9999981689454,8|0,0:0|0:0,0:0:0:0:
263,188,93977,2,0,P|299:191|333:179,1,59.9999981689454,2|0,0:0|0:0,0:0:0:0:
461,82,94208,5,2,0:0:0:0:
173,369,94670,1,8,0:0:0:0:
257,73,95016,1,2,0:0:0:0:
212,90,95131,1,0,0:0:0:0:
401,186,95362,1,2,0:0:0:0:
360,29,95593,1,8,0:0:0:0:
181,236,95824,1,2,0:0:0:0:
75,52,96054,5,0,0:0:0:0:
293,212,96285,1,2,0:0:0:0:
20,164,96516,1,8,0:0:0:0:
327,329,96862,1,2,0:0:0:0:
370,309,96977,1,0,0:0:0:0:
233,229,97208,2,0,P|204:208|184:181,1,59.9999981689454,2|0,0:0|0:0,0:0:0:0:
417,198,97439,2,0,P|432:161|436:137,1,59.9999981689454,8|0,0:0|0:0,0:0:0:0:
299,61,97670,2,0,P|298:91|310:122,1,59.9999981689454,2|0,0:0|0:0,0:0:0:0:
459,299,97901,6,0,P|340:288|229:332,1,239.999992675781,2|8,0:0|0:0,0:0:0:0:
16,236,98593,2,0,P|75:241|130:219,1,119.999996337891,2|0,0:0|0:0,0:0:0:0:
208,44,99054,2,0,P|192:73|186:105,1,59.9999981689454,2|0,0:0|0:0,0:0:0:0:
335,191,99285,2,0,P|328:161|313:135,1,59.9999981689454,8|0,0:0|0:0,0:0:0:0:
130,218,99516,2,0,P|169:228|196:228,1,59.9999981689454,2|0,0:0|0:0,0:0:0:0:
460,197,99747,6,0,P|342:221|249:295,1,239.999992675781,2|8,0:0|0:0,0:0:0:0:
67,373,100439,2,0,P|82:315|64:253,1,119.999996337891,2|0,0:0|0:0,0:0:0:0:
21,108,100901,2,0,P|50:112|87:107,1,59.9999981689454,2|0,0:0|0:0,0:0:0:0:
192,32,101131,2,0,P|167:51|147:77,1,59.9999981689454,8|0,0:0|0:0,0:0:0:0:
161,209,101362,2,0,P|156:179|146:151,1,59.9999981689454,2|0,0:0|0:0,0:0:0:0:
295,47,101593,6,0,P|267:162|294:278,1,239.999992675781,2|8,0:0|0:0,0:0:0:0:
46,350,102285,2,0,P|74:235|47:119,1,239.999992675781,2|0,0:0|0:0,0:0:0:0:
196,83,102977,2,0,P|258:93|316:84,1,119.999996337891,8|0,0:0|0:0,0:0:0:0:
484,41,103439,5,0,0:0:0:0:
447,75,103554,1,0,0:0:0:0:
429,122,103670,1,2,0:0:0:0:
424,171,103785,1,0,0:0:0:0:
446,216,103901,5,2,0:0:0:0:
396,214,104016,1,0,0:0:0:0:
347,227,104131,1,0,0:0:0:0:
304,254,104247,1,0,0:0:0:0:
268,289,104362,6,0,P|238:291|206:285,1,50,2|0,0:0|0:0,0:0:0:0:
65,178,104593,2,0,P|89:188|109:209,1,50
232,370,104824,2,0,P|202:372|170:366,1,50,2|0,0:0|0:0,0:0:0:0:
36,260,105054,2,0,P|60:270|80:291,1,50
17,108,105285,5,2,0:0:0:0:
190,286,105747,1,8,0:0:0:0:
164,128,105977,2,0,B|189:89|189:89|165:72|133:77|107:129|136:195,1,200,2|0,0:0|0:0,0:0:0:0:
256,32,106670,1,8,0:0:0:0:
495,108,107131,5,2,0:0:0:0:
322,286,107593,1,8,0:0:0:0:
348,128,107824,2,0,B|323:89|323:89|347:72|379:77|405:129|376:195,1,200,2|0,0:0|0:0,0:0:0:0:
256,32,108516,1,8,0:0:0:0:
128,320,108977,5,2,0:0:0:0:
384,320,109439,1,8,0:0:0:0:
210,227,109670,2,0,B|183:187|224:155|257:141|288:155|328:188|298:228,1,200,2|0,0:0|0:0,0:0:0:0:
256,32,110362,1,8,0:0:0:0:
96,128,110824,5,0,0:0:0:0:
256,32,111285,1,8,0:0:0:0:
416,128,111747,1,0,0:0:0:0:
256,32,112208,1,8,0:0:0:0:
64,288,112670,5,2,0:0:0:0:
320,192,113131,1,8,0:0:0:0:
192,96,113362,2,0,B|220:142|191:189|141:200|96:171|95:122,1,200,2|0,0:0|0:0,0:0:0:0:
256,32,114054,1,8,0:0:0:0:
448,288,114516,5,2,0:0:0:0:
192,192,114977,1,8,0:0:0:0:
320,96,115208,2,0,B|292:142|321:189|371:200|416:171|417:122,1,200,2|0,0:0|0:0,0:0:0:0:
256,32,115901,1,8,0:0:0:0:
192,192,116131,1,2,0:0:0:0:
106,41,116362,5,2,0:0:0:0:
406,343,117054,1,2,0:0:0:0:
