osu file format v14

[General]
AudioFilename: audio.mp3
AudioLeadIn: 0
PreviewTime: 30979
Countdown: 0
SampleSet: Soft
StackLeniency: 0.4
Mode: 0
LetterboxInBreaks: 0
WidescreenStoryboard: 0

[Editor]
Bookmarks: 35113,99056
DistanceSpacing: 1.2
BeatDivisor: 4
GridSize: 32
TimelineZoom: 1.5

[Metadata]
Title:Minority
TitleUnicode:Minority
Artist:Yuki Yumeno
ArtistUnicode:夢乃ゆき
Creator:ArThasCD
Version:Light Insane
Source:少女マイノリティ-慰めの愛-
Tags:DMM hentai eroge game visual novel opening pure more assassincread
BeatmapID:1587973
BeatmapSetID:581584

[Difficulty]
HPDrainRate:6
CircleSize:4
OverallDifficulty:6
ApproachRate:7.5
SliderMultiplier:1.5
SliderTickRate:1

[Events]
//Background and Video events
0,0,"BG.jpg",0,0
//Break Periods
//Storyboard Layer 0 (Background)
//Storyboard Layer 1 (Fail)
//Storyboard Layer 2 (Pass)
//Storyboard Layer 3 (Foreground)
//Storyboard Sound Samples

[TimingPoints]
1901,461.538461538462,4,2,1,40,1,0
16670,-100,4,2,1,60,0,0
31439,-100,4,2,1,40,0,0
46208,-100,4,2,1,60,0,0
60977,-100,4,2,1,70,0,0
75747,-83.3333333333333,4,2,1,70,0,1
103439,-100,4,2,1,60,0,1
105285,-100,4,2,1,40,0,0

[Colours]
Combo1 : 248,52,24
Combo2 : 251,87,210
Combo3 : 162,68,255

[HitObjects]
127,243,1901,6,0,B|158:198|157:146|124:104|124:104|155:35,2,225,2|2|8,0:0|0:0|0:0,0:0:0:0:
385,243,3747,2,0,B|353:198|354:146|388:104|388:104|356:35,2,225,2|2|8,0:0|0:0|0:0,0:0:0:0:
145,344,5593,6,0,B|256:324|256:324|367:344,2,225,2|2|8,0:0|0:0|0:0,0:0:0:0:
145,39,7901,1,8,0:0:0:0:
367,345,8824,1,8,0:0:0:0:
346,136,9285,6,0,B|264:135|206:91|206:91|149:139,2,225,2|2|8,0:0|0:0|0:0,0:0:0:0:
165,247,11131,2,0,B|248:249|306:293|306:293|363:245,2,225,2|2|8,0:0|0:0|0:0,0:0:0:0:
99,169,12747,1,2,0:0:0:0:
147,85,12977,6,0,B|195:71|195:71|225:73|265:59,2,112.5,2|2|2,0:0|0:0|0:0,0:0:0:0:
64,47,13901,1,2,0:0:0:0:
205,157,14247,1,2,0:0:0:0:
345,43,14593,1,2,0:0:0:0:
421,90,14824,2,0,B|435:138|435:138|433:168|447:208,2,112.5,2|2|2,0:0|0:0|0:0,0:0:0:0:
300,125,15747,5,2,0:0:0:0:
226,50,15977,1,2,0:0:0:0:
140,111,16208,1,8,0:0:0:0:
64,37,16439,1,2,0:0:0:0:
12,164,16670,6,0,P|80:193|163:194,1,150,2|8,0:0|0:0,0:0:0:0:
280,156,17362,1,2,0:0:0:0:
280,156,17824,1,2,0:3:0:0:
349,99,18054,2,0,P|391:93|431:100,1,75,8|2,0:0|0:3,0:0:0:0:
353,251,18516,6,0,P|278:266|202:251,1,150,2|8,0:0|0:0,0:0:0:0:
95,196,19208,1,2,0:0:0:0:
95,196,19670,1,2,0:3:0:0:
153,137,19901,2,0,P|160:97|154:56,1,75,8|2,0:0|0:3,0:0:0:0:
294,30,20362,6,0,P|280:111|295:193,1,150,2|8,0:0|0:0,0:0:0:0:
366,277,21054,1,2,0:0:0:0:
366,277,21516,1,2,0:3:0:0:
440,226,21747,1,8,0:0:0:0:
439,136,21977,1,2,0:3:0:0:
221,329,22439,5,2,0:3:0:0:
276,258,22670,1,8,0:0:0:0:
366,277,22901,1,2,0:3:0:0:
291,55,23362,1,2,0:3:0:0:
236,126,23593,1,8,0:0:0:0:
146,107,23824,1,2,0:3:0:0:
80,245,24054,5,2,0:0:0:0:
80,245,24516,1,8,0:0:0:0:
149,302,24747,2,0,P|231:306|301:288,1,150,2|2,0:0|0:3,0:0:0:0:
384,169,25439,2,0,P|346:190|319:222,1,75,8|2,0:0|0:3,0:0:0:0:
443,320,25901,5,2,0:0:0:0:
443,320,26362,1,8,0:0:0:0:
354,302,26593,2,0,P|272:298|202:316,1,150,2|2,0:0|0:3,0:0:0:0:
49,341,27285,1,8,0:0:0:0:
123,290,27516,1,2,0:3:0:0:
26,158,27747,5,2,0:0:0:0:
26,158,28208,1,8,0:0:0:0:
109,190,28439,2,0,P|184:192|264:166,1,150,2|2,0:0|0:3,0:0:0:0:
309,98,29131,1,8,0:0:0:0:
256,24,29362,1,2,0:3:0:0:
202,274,29824,5,2,0:3:0:0:
129,221,30054,1,8,0:0:0:0:
142,132,30285,1,2,0:3:0:0:
310,274,30747,1,2,0:3:0:0:
383,221,30977,1,8,0:0:0:0:
370,132,31208,1,2,0:3:0:0:
202,159,31439,5,2,0:0:0:0:
235,191,31901,1,8,0:0:0:0:
277,191,32362,1,0,0:0:0:0:
310,159,32824,1,8,0:0:0:0:
372,223,33054,1,0,0:0:0:0:
477,112,33285,6,0,P|474:149|466:185,1,75,2|0,0:0|0:0,0:0:0:0:
404,140,33631,2,0,P|406:102|414:66,1,75
414,66,33977,2,0,P|329:58|264:37,1,150,2|0,0:0|0:0,0:0:0:0:
177,33,34670,2,0,L|131:96,1,75,8|0,0:0|0:0,0:0:0:0:
64,201,35131,5,2,0:0:0:0:
108,196,35593,1,8,0:0:0:0:
152,190,36054,1,0,0:0:0:0:
196,186,36516,1,8,0:0:0:0:
298,85,36747,1,0,0:0:0:0:
408,192,36977,6,0,P|361:185|328:189,1,75,2|0,0:0|0:0,0:0:0:0:
327,261,37324,2,0,P|374:268|407:264,1,75
401,265,37670,2,0,L|266:360,1,150,2|0,0:0|0:0,0:0:0:0:
195,353,38362,2,0,L|129:318,1,75,8|0,0:0|0:0,0:0:0:0:
46,244,38824,5,2,0:0:0:0:
42,199,39285,1,8,0:0:0:0:
39,154,39747,1,0,0:0:0:0:
34,109,40208,1,8,0:0:0:0:
121,131,40439,1,0,0:0:0:0:
257,48,40670,6,0,P|301:42|344:48,1,75,2|0,0:0|0:0,0:0:0:0:
296,115,41016,2,0,P|252:121|209:115,1,75
221,117,41362,2,0,L|309:254,1,150,2|0,0:0|0:0,0:0:0:0:
348,321,42054,1,8,0:0:0:0:
159,199,42516,6,0,P|85:184|0:186,1,150,2|8,0:0|0:0,0:0:0:0:
127,70,43208,2,0,P|201:85|286:83,1,150
368,54,43901,1,8,0:0:0:0:
256,288,44362,5,2,0:0:0:0:
144,54,44824,1,8,0:0:0:0:
144,54,45054,1,2,0:0:0:0:
448,192,45747,2,0,L|352:192,1,75
266,146,46208,6,0,L|261:100,2,37.5,2|0|0,0:0|0:0|0:0,0:0:0:0:
214,238,46670,1,8,0:0:0:0:
211,256,46785,1,0,0:0:0:0:
209,274,46901,1,0,0:0:0:0:
159,130,47131,2,0,L|154:84,2,37.5
86,244,47593,1,8,0:0:0:0:
83,262,47708,1,0,0:0:0:0:
81,280,47824,1,0,0:0:0:0:
17,149,48054,6,0,P|10:109|12:67,1,75,2|0,0:0|0:0,0:0:0:0:
20,30,48401,1,0,0:0:0:0:
98,72,48631,1,0,0:0:0:0:
98,72,48747,2,0,P|177:91|245:96,1,150,2|0,0:0|0:0,0:0:0:0:
334,86,49439,2,0,P|378:100|416:125,1,75,8|0,0:0|0:0,0:0:0:0:
471,193,49901,6,0,L|507:201,2,37.5,2|0|0,0:0|0:0|0:0,0:0:0:0:
369,218,50362,1,8,0:0:0:0:
350,222,50477,1,0,0:0:0:0:
331,226,50593,1,0,0:0:0:0:
443,269,50824,2,0,L|479:277,2,37.5
373,297,51285,1,8,0:0:0:0:
354,301,51401,1,0,0:0:0:0:
335,305,51516,1,0,0:0:0:0:
255,233,51747,6,0,P|208:225|177:226,1,75,2|0,0:0|0:0,0:0:0:0:
144,236,52093,1,0,0:0:0:0:
66,282,52324,1,0,0:0:0:0:
66,282,52439,2,0,P|73:205|51:122,1,150,2|0,0:0|0:0,0:0:0:0:
15,54,53131,2,0,P|61:45|106:56,1,75,8|0,0:0|0:0,0:0:0:0:
152,130,53593,6,0,L|154:172,2,37.5,2|0|0,0:0|0:0|0:0,0:0:0:0:
240,72,54054,1,8,0:0:0:0:
241,53,54170,1,0,0:0:0:0:
242,34,54285,1,0,0:0:0:0:
316,165,54516,2,0,L|317:202,2,37.5
400,59,54977,1,8,0:0:0:0:
401,40,55093,1,0,0:0:0:0:
402,21,55208,1,0,0:0:0:0:
493,169,55439,6,0,P|497:209|490:247,1,75,2|0,0:0|0:0,0:0:0:0:
474,285,55785,1,0,0:0:0:0:
395,329,56016,1,0,0:0:0:0:
395,329,56131,2,0,P|320:316|247:322,1,150,2|0,0:0|0:0,0:0:0:0:
158,343,56824,1,8,0:0:0:0:
34,143,57285,6,0,P|109:156|182:150,1,150,2|8,0:0|0:0,0:0:0:0:
277,256,57977,2,0,P|202:243|129:249,1,150
30,323,58670,2,0,P|36:285|33:248,1,75,8|0,0:0|0:0,0:0:0:0:
34,143,59131,5,2,0:0:0:0:
260,333,59477,1,2,0:0:0:0:
260,333,59593,2,0,L|170:318,1,75,8|2,0:0|0:0,0:0:0:0:
373,275,60054,1,2,0:0:0:0:
182,87,60401,1,2,0:0:0:0:
182,87,60516,2,0,L|272:102,1,75,8|2,0:0|0:0,0:0:0:0:
420,126,60977,5,2,0:0:0:0:
281,251,61208,1,0,0:0:0:0:
326,173,61439,1,8,0:0:0:0:
371,250,61670,1,0,0:0:0:0:
192,330,61901,5,2,0:0:0:0:
150,147,62131,1,0,0:0:0:0:
102,223,62362,1,8,0:0:0:0:
191,228,62593,1,0,0:0:0:0:
169,54,62824,5,2,0:0:0:0:
327,150,63054,1,0,0:0:0:0:
284,70,63285,1,8,0:0:0:0:
238,147,63516,1,0,0:0:0:0:
313,314,63747,5,2,0:0:0:0:
373,247,63977,1,0,0:0:0:0:
373,247,64093,1,0,0:0:0:0:
284,231,64324,1,0,0:0:0:0:
284,231,64439,1,0,0:0:0:0:
111,288,64670,6,0,L|196:320,1,75,2|0,0:0|0:0,0:0:0:0:
182,224,65131,2,0,L|97:192,1,75,8|0,0:0|0:0,0:0:0:0:
34,86,65593,6,0,P|73:90|109:86,1,75,2|0,0:0|0:0,0:0:0:0:
249,132,66054,2,0,P|211:128|174:132,1,75,8|0,0:0|0:0,0:0:0:0:
284,38,66516,5,2,0:0:0:0:
449,245,66977,1,8,0:0:0:0:
489,106,67208,1,2,0:0:0:0:
308,316,67670,1,2,0:0:0:0:
114,258,67901,2,0,P|158:245|196:218,1,75,8|0,0:0|0:0,0:0:0:0:
262,75,68362,5,2,0:0:0:0:
88,137,68593,1,0,0:0:0:0:
92,47,68824,1,8,0:0:0:0:
165,97,69054,1,0,0:0:0:0:
15,210,69285,5,2,0:0:0:0:
134,339,69516,1,0,0:0:0:0:
139,249,69747,1,8,0:0:0:0:
59,289,69977,1,0,0:0:0:0:
246,323,70208,5,2,0:0:0:0:
315,170,70439,1,0,0:0:0:0:
397,206,70670,1,8,0:0:0:0:
324,259,70901,1,0,0:0:0:0:
164,164,71131,5,2,0:0:0:0:
235,109,71362,1,0,0:0:0:0:
235,109,71477,1,0,0:0:0:0:
151,75,71708,1,0,0:0:0:0:
151,75,71824,1,0,0:0:0:0:
135,247,72054,6,0,P|203:277|296:269,1,150,2|8,0:0|0:0,0:0:0:0:
377,137,72747,2,0,P|308:106|215:114,1,150
149,136,73439,1,8,0:0:0:0:
390,303,73901,6,0,P|408:258|415:219,1,75,10|0,0:0|0:0,0:0:0:0:
348,81,74362,2,0,P|356:117|371:151,1,75,8|0,0:0|0:0,0:0:0:0:
510,214,74824,1,8,0:0:0:0:
172,278,75747,6,0,B|151:192|151:192|175:94,1,179.999994506836,4|8,0:0|0:0,0:0:0:0:
339,103,76439,2,2,B|361:192|361:192|340:278,1,179.999994506836
211,346,77131,2,0,B|256:338|256:338|304:347,1,89.9999972534181,8|2,0:0|0:0,0:0:0:0:
103,276,77593,5,2,0:0:0:0:
409,276,78054,1,8,0:0:0:0:
473,178,78285,1,2,0:0:0:0:
197,126,78747,1,2,0:0:0:0:
256,24,78977,1,8,0:0:0:0:
315,126,79208,1,2,0:0:0:0:
97,63,79439,5,2,0:0:0:0:
415,63,79901,1,8,0:0:0:0:
256,256,80247,1,2,0:0:0:0:
256,256,80362,1,0,0:0:0:0:
172,173,80593,1,2,0:0:0:0:
144,286,80824,1,8,0:0:0:0:
256,256,81054,1,2,0:0:0:0:
340,173,81285,5,0,0:0:0:0:
368,286,81516,1,2,0:0:0:0:
256,256,81747,1,8,0:0:0:0:
186,47,82093,1,2,0:0:0:0:
186,47,82208,2,0,L|137:125,1,89.9999972534181,0|2,0:0|0:0,0:0:0:0:
326,47,82670,2,0,L|375:125,1,89.9999972534181,8|2,0:0|0:0,0:0:0:0:
168,213,83131,6,0,B|256:197|256:197|347:214,1,179.999994506836,2|8,0:0|0:0,0:0:0:0:
256,310,83824,2,0,L|256:129,1,179.999994506836,2|2,0:0|0:0,0:0:0:0:
212,21,84516,2,0,B|257:29|257:29|305:20,1,89.9999972534181,8|2,0:0|0:0,0:0:0:0:
123,102,84977,5,2,0:0:0:0:
389,102,85439,1,8,0:0:0:0:
463,192,85670,1,2,0:0:0:0:
123,282,86131,1,2,0:0:0:0:
49,192,86362,1,8,0:0:0:0:
123,102,86593,1,2,0:0:0:0:
256,192,86824,5,2,0:0:0:0:
256,192,87285,1,8,0:0:0:0:
386,103,87516,2,0,B|402:191|402:191|387:281,1,179.999994506836,2|0,0:0|0:0,0:0:0:0:
256,352,88208,1,8,0:0:0:0:
94,59,88670,5,0,0:0:0:0:
182,251,88901,1,2,0:0:0:0:
182,135,89131,1,8,0:0:0:0:
94,325,89362,1,2,0:0:0:0:
330,249,89593,6,0,B|376:254|376:254|421:249,1,89.9999972534181,0|2,0:0|0:0,0:0:0:0:
182,135,90054,2,0,B|136:130|136:130|91:135,1,89.9999972534181,8|2,0:0|0:0,0:0:0:0:
46,301,90516,6,0,B|134:317|134:317|224:302,1,179.999994506836,2|8,0:0|0:0,0:0:0:0:
330,249,91208,1,2,0:0:0:0:
46,83,91670,1,2,0:0:0:0:
133,161,91901,2,0,B|138:207|138:207|133:252,1,89.9999972534181,8|2,0:0|0:0,0:0:0:0:
46,83,92362,6,0,B|134:67|134:67|224:82,1,179.999994506836,2|8,0:0|0:0,0:0:0:0:
330,135,93054,1,2,0:0:0:0:
83,310,93516,1,2,0:0:0:0:
180,246,93747,1,8,0:0:0:0:
75,192,93977,1,2,0:0:0:0:
256,64,94208,5,2,0:0:0:0:
83,310,94670,1,8,0:0:0:0:
332,246,95016,1,2,0:0:0:0:
332,246,95131,1,0,0:0:0:0:
437,192,95362,1,2,0:0:0:0:
429,310,95593,1,8,0:0:0:0:
332,246,95824,1,2,0:0:0:0:
256,334,96054,5,0,0:0:0:0:
180,246,96285,1,2,0:0:0:0:
83,310,96516,1,8,0:0:0:0:
198,107,96862,1,2,0:0:0:0:
198,107,96977,1,0,0:0:0:0:
315,107,97208,1,2,0:0:0:0:
302,223,97439,2,0,B|256:232|256:232|209:223,1,89.9999972534181,8|2,0:0|0:0,0:0:0:0:
314,107,97901,6,0,B|395:135|395:135|458:206,1,179.999994506836,2|8,0:0|0:0,0:0:0:0:
486,319,98593,1,2,0:0:0:0:
198,277,99054,1,2,0:0:0:0:
256,175,99285,1,8,0:0:0:0:
315,277,99516,1,2,0:0:0:0:
104,238,99747,6,0,B|134:148|134:148|198:91,1,179.999994506836,2|8,0:0|0:0,0:0:0:0:
314,91,100439,1,2,0:0:0:0:
198,351,100901,1,2,0:0:0:0:
256,250,101131,1,8,0:0:0:0:
314,351,101362,1,2,0:0:0:0:
138,250,101593,6,0,B|147:194|177:169|177:169|191:73,1,179.999994506836,2|8,0:0|0:0,0:0:0:0:
322,81,102285,2,0,B|335:169|335:169|365:194|374:250,1,179.999994506836,2|0,0:0|0:0,0:0:0:0:
256,320,102977,1,8,0:0:0:0:
256,192,103439,12,2,104824,0:0:0:0:
89,244,105285,5,2,0:0:0:0:
216,236,105977,1,2,0:0:0:0:
125,326,106670,1,8,0:0:0:0:
306,36,107131,5,2,0:0:0:0:
256,153,107824,1,2,0:0:0:0:
206,36,108516,1,8,0:0:0:0:
423,244,108977,5,2,0:0:0:0:
296,236,109670,1,2,0:0:0:0:
387,326,110362,1,8,0:0:0:0:
125,58,111285,5,8,0:0:0:0:
387,326,112208,1,8,0:0:0:0:
467,65,112670,5,2,0:0:0:0:
339,59,113362,1,2,0:0:0:0:
433,144,114054,1,8,0:0:0:0:
45,319,114516,5,2,0:0:0:0:
173,325,115208,1,2,0:0:0:0:
79,240,115901,1,8,0:0:0:0:
256,192,116131,1,2,0:0:0:0:
96,64,116362,5,2,0:0:0:0:
416,320,117054,1,2,0:0:0:0:
