osu file format v14

[General]
AudioFilename: audio.mp3
AudioLeadIn: 0
PreviewTime: 30979
Countdown: 0
SampleSet: Soft
StackLeniency: 0.5
Mode: 0
LetterboxInBreaks: 0
WidescreenStoryboard: 0

[Editor]
Bookmarks: 35113,99056
DistanceSpacing: 1.2
BeatDivisor: 4
GridSize: 32
TimelineZoom: 1.5

[Metadata]
Title:Minority
TitleUnicode:Minority
Artist:Yuki Yumeno
ArtistUnicode:夢乃ゆき
Creator:ArThasCD
Version:Insane
Source:少女マイノリティ-慰めの愛-
Tags:DMM hentai eroge game visual novel opening pure more assassincread
BeatmapID:1599012
BeatmapSetID:581584

[Difficulty]
HPDrainRate:6
CircleSize:4
OverallDifficulty:7
ApproachRate:8.3
SliderMultiplier:1.8
SliderTickRate:1

[Events]
//Background and Video events
0,0,"BG.jpg",0,0
//Break Periods
//Storyboard Layer 0 (Background)
//Storyboard Layer 1 (Fail)
//Storyboard Layer 2 (Pass)
//Storyboard Layer 3 (Foreground)
//Storyboard Sound Samples

[TimingPoints]
1901,461.538461538462,4,2,1,40,1,0
16670,-100,4,2,1,60,0,0
31439,-100,4,2,1,40,0,0
46208,-100,4,2,1,50,0,0
46670,-100,4,2,1,55,0,0
47131,-100,4,2,1,60,0,0
47593,-100,4,2,1,65,0,0
50362,-100,4,2,1,60,0,0
50824,-100,4,2,1,55,0,0
51285,-100,4,2,1,50,0,0
54054,-100,4,2,1,55,0,0
54516,-100,4,2,1,60,0,0
54977,-100,4,2,1,65,0,0
55901,-100,4,2,1,60,0,0
60977,-100,4,2,1,70,0,0
75054,-200,4,2,1,50,0,0
75747,-83.3333333333333,4,2,1,70,0,1
103439,-100,4,2,1,60,0,1
105285,-100,4,2,1,40,0,0
106439,-100,4,2,1,10,0,0
106670,-100,4,2,1,40,0,0
108285,-100,4,2,1,10,0,0
108516,-100,4,2,1,40,0,0
110131,-100,4,2,1,10,0,0
110362,-100,4,2,1,40,0,0
113824,-100,4,2,1,10,0,0
114054,-100,4,2,1,40,0,0
115670,-100,4,2,1,10,0,0
115901,-100,4,2,1,40,0,0

[Colours]
Combo1 : 248,52,24
Combo2 : 251,87,210
Combo3 : 162,68,255

[HitObjects]
292,106,1901,6,0,P|367:157|466:174,1,180,2|8,0:0|0:0,0:0:0:0:
319,273,2593,1,2,0:0:0:0:
223,221,3285,5,8,0:0:0:0:
400,63,3747,2,0,P|309:80|216:61,1,180,2|8,0:0|0:0,0:0:0:0:
314,171,4439,1,2,0:0:0:0:
390,247,5131,5,8,0:0:0:0:
112,321,5593,2,0,P|203:304|296:323,1,180,2|8,0:0|0:0,0:0:0:0:
197,214,6285,1,2,0:0:0:0:
132,127,6977,5,8,0:0:0:0:
222,125,7439,1,0,0:0:0:0:
297,173,7901,1,8,0:0:0:0:
308,262,8362,1,0,0:0:0:0:
257,336,8824,1,8,0:0:0:0:
463,164,9285,6,0,L|284:209,1,180,2|8,0:0|0:0,0:0:0:0:
82,269,9977,1,2,0:0:0:0:
185,239,10670,5,8,0:0:0:0:
462,366,11131,2,0,L|380:200,1,180,2|8,0:0|0:0,0:0:0:0:
280,15,11824,1,2,0:0:0:0:
330,109,12516,5,8,0:0:0:0:
387,16,12747,1,2,0:0:0:0:
221,105,12977,5,2,0:0:0:0:
221,105,13324,1,2,0:0:0:0:
221,105,13439,1,8,0:0:0:0:
330,109,13670,1,2,0:0:0:0:
324,326,13901,5,2,0:0:0:0:
324,326,14247,1,2,0:0:0:0:
324,326,14362,1,8,0:0:0:0:
303,220,14593,1,2,0:0:0:0:
58,283,14824,5,2,0:0:0:0:
58,283,15170,1,2,0:0:0:0:
58,283,15285,1,8,0:0:0:0:
116,192,15516,1,2,0:0:0:0:
324,326,15747,5,2,0:0:0:0:
386,148,15977,1,2,0:0:0:0:
434,265,16208,1,8,0:0:0:0:
276,210,16439,1,2,0:0:0:0:
424,55,16670,6,0,P|330:69|246:55,1,180,2|8,0:0|0:0,0:0:0:0:
87,150,17362,1,2,0:0:0:0:
141,263,17824,5,2,0:3:0:0:
87,150,18054,1,8,0:0:0:0:
141,263,18285,1,2,0:3:0:0:
290,143,18516,2,0,P|384:157|468:143,1,180,2|8,0:0|0:0,0:0:0:0:
331,277,19208,1,2,0:0:0:0:
418,367,19670,5,2,0:3:0:0:
331,277,19901,1,8,0:0:0:0:
418,367,20131,1,2,0:3:0:0:
209,311,20362,2,0,P|222:219|209:134,1,180,2|8,0:0|0:0,0:0:0:0:
416,192,21054,1,2,0:0:0:0:
462,74,21516,5,2,0:3:0:0:
416,192,21747,1,8,0:0:0:0:
317,112,21977,1,2,0:3:0:0:
303,111,22093,1,0,0:0:0:0:
289,109,22208,1,0,0:0:0:0:
202,212,22439,1,2,0:3:0:0:
224,209,22554,1,0,0:0:0:0:
246,205,22670,1,8,0:0:0:0:
140,82,22901,5,2,0:3:0:0:
108,77,23016,1,0,0:0:0:0:
76,75,23131,1,0,0:0:0:0:
13,234,23362,1,2,0:3:0:0:
53,230,23477,1,0,0:0:0:0:
93,227,23593,1,8,0:0:0:0:
246,338,23824,1,2,0:3:0:0:
294,330,23939,1,0,0:0:0:0:
342,322,24054,6,0,P|368:230|364:145,1,180,2|8,0:0|0:0,0:0:0:0:
461,299,24747,1,2,0:0:0:0:
364,146,25208,5,2,0:3:0:0:
461,299,25439,2,0,P|454:253|457:208,1,90,8|2,0:0|0:3,0:0:0:0:
305,324,25901,2,0,P|216:322|120:344,1,180,2|8,0:0|0:0,0:0:0:0:
244,230,26593,1,2,0:0:0:0:
127,341,27054,5,2,0:3:0:0:
244,230,27285,2,0,P|201:214|165:189,1,90,8|2,0:0|0:3,0:0:0:0:
350,126,27747,2,0,P|377:208|368:303,1,180,2|8,0:0|0:0,0:0:0:0:
466,148,28439,1,2,0:0:0:0:
368,300,28901,5,2,0:3:0:0:
285,206,29131,1,8,0:0:0:0:
197,309,29362,1,2,0:3:0:0:
193,295,29477,1,0,0:0:0:0:
190,281,29593,1,0,0:0:0:0:
67,189,29824,1,2,0:3:0:0:
61,210,29939,1,0,0:0:0:0:
55,231,30054,1,8,0:0:0:0:
220,188,30285,5,2,0:3:0:0:
217,156,30401,1,0,0:0:0:0:
216,124,30516,1,0,0:0:0:0:
61,27,30747,1,2,0:3:0:0:
49,65,30862,1,0,0:0:0:0:
35,103,30977,1,8,0:0:0:0:
216,124,31208,1,2,0:3:0:0:
263,109,31324,1,0,0:0:0:0:
310,94,31439,5,2,0:0:0:0:
414,164,31901,1,8,0:0:0:0:
310,94,32362,1,0,0:0:0:0:
414,164,32824,1,8,0:0:0:0:
325,288,33054,1,0,0:0:0:0:
174,258,33285,5,2,0:0:0:0:
265,200,33516,1,0,0:0:0:0:
265,200,33631,1,0,0:0:0:0:
168,150,33862,1,0,0:0:0:0:
168,150,33977,2,0,P|250:107|310:37,1,180,2|0,0:0|0:0,0:0:0:0:
403,90,34670,1,8,0:0:0:0:
202,290,35131,5,2,0:0:0:0:
98,220,35593,1,8,0:0:0:0:
202,290,36054,1,0,0:0:0:0:
98,220,36516,1,8,0:0:0:0:
187,96,36747,1,0,0:0:0:0:
338,126,36977,5,2,0:0:0:0:
247,184,37208,1,0,0:0:0:0:
247,184,37324,1,0,0:0:0:0:
344,234,37554,1,0,0:0:0:0:
344,234,37670,2,0,P|262:277|202:347,1,180,2|0,0:0|0:0,0:0:0:0:
109,294,38362,1,8,0:0:0:0:
310,94,38824,5,2,0:0:0:0:
414,164,39285,1,8,0:0:0:0:
310,94,39747,1,0,0:0:0:0:
414,164,40208,1,8,0:0:0:0:
325,288,40439,1,0,0:0:0:0:
174,258,40670,5,2,0:0:0:0:
265,200,40901,1,0,0:0:0:0:
265,200,41016,1,0,0:0:0:0:
168,150,41247,1,0,0:0:0:0:
168,150,41362,2,0,P|250:107|310:37,1,180,2|0,0:0|0:0,0:0:0:0:
403,90,42054,1,8,0:0:0:0:
166,326,42516,6,0,P|181:242|166:144,1,180,2|8,0:0|0:0,0:0:0:0:
346,326,43208,2,0,P|331:242|346:144,1,180
414,66,43901,1,8,0:0:0:0:
98,318,44362,5,2,0:0:0:0:
247,30,44824,1,8,0:0:0:0:
414,66,45054,1,2,0:0:0:0:
106,210,45747,2,0,P|62:205|16:211,1,90
168,114,46208,5,2,0:0:0:0:
168,114,46324,1,0,0:0:0:0:
168,114,46439,2,0,L|226:105,1,45
337,147,46670,1,8,0:0:0:0:
337,147,46785,1,0,0:0:0:0:
337,147,46901,2,0,L|279:138,1,45
165,213,47131,5,2,0:0:0:0:
165,213,47247,1,0,0:0:0:0:
165,213,47362,2,0,L|223:204,1,45
359,280,47593,1,8,0:0:0:0:
359,280,47708,1,0,0:0:0:0:
359,280,47824,2,0,L|301:271,1,45
163,371,48054,6,0,P|206:357|245:330,1,90,2|0,0:0|0:0,0:0:0:0:
173,285,48401,2,0,P|130:299|91:326,1,90
30,369,48747,2,0,P|38:317|28:272,1,90,2|0,0:0|0:0,0:0:0:0:
25,163,49208,1,0,0:0:0:0:
52,139,49324,1,0,0:0:0:0:
83,122,49439,1,8,0:0:0:0:
185,155,49670,1,0,0:0:0:0:
312,72,49901,5,2,0:0:0:0:
312,72,50016,1,0,0:0:0:0:
312,72,50131,2,0,L|322:28,1,45
423,162,50362,1,8,0:0:0:0:
423,162,50477,1,0,0:0:0:0:
423,162,50593,2,0,L|413:118,1,45
311,223,50824,5,2,0:0:0:0:
311,223,50939,1,0,0:0:0:0:
311,223,51054,2,0,L|321:179,1,45
407,288,51285,1,8,0:0:0:0:
407,288,51401,1,0,0:0:0:0:
407,288,51516,2,0,L|397:244,1,45
320,306,51747,6,0,P|275:316|232:310,1,90,2|0,0:0|0:0,0:0:0:0:
178,254,52093,2,0,P|176:302|157:345,1,90
87,322,52439,2,0,P|89:274|108:231,1,90,2|0,0:0|0:0,0:0:0:0:
177,154,52901,1,0,0:0:0:0:
212,147,53016,1,0,0:0:0:0:
247,150,53131,1,8,0:0:0:0:
342,98,53362,1,0,0:0:0:0:
441,201,53593,5,2,0:0:0:0:
441,201,53708,1,0,0:0:0:0:
441,201,53824,2,0,L|492:189,1,45
376,279,54054,1,8,0:0:0:0:
376,279,54170,1,0,0:0:0:0:
376,279,54285,2,0,L|325:267,1,45
194,236,54516,5,2,0:0:0:0:
194,236,54631,1,0,0:0:0:0:
194,236,54747,2,0,L|245:224,1,45
116,140,54977,1,8,0:0:0:0:
116,140,55093,1,0,0:0:0:0:
116,140,55208,2,0,L|65:128,1,45
201,72,55439,6,0,P|246:72|296:64,1,90,2|0,0:0|0:0,0:0:0:0:
406,87,55785,2,0,P|361:87|311:95,1,90
324,169,56131,2,0,P|369:169|419:161,1,90,2|0,0:0|0:0,0:0:0:0:
498,229,56593,1,0,0:0:0:0:
480,260,56708,1,0,0:0:0:0:
451,282,56824,1,8,0:0:0:0:
344,299,57054,1,0,0:0:0:0:
144,105,57285,6,0,P|160:194|145:282,1,180,2|8,0:0|0:0,0:0:0:0:
79,189,57977,2,0,P|168:197|249:234,1,180
379,343,58670,2,0,P|373:295|380:248,1,90,8|0,0:0|0:0,0:0:0:0:
455,129,59131,5,2,0:0:0:0:
173,322,59477,1,2,0:0:0:0:
192,291,59593,2,0,L|96:308,1,90,8|2,0:0|0:0,0:0:0:0:
339,322,60054,1,2,0:0:0:0:
448,95,60401,1,2,0:0:0:0:
467,126,60516,2,0,L|371:109,1,90,8|2,0:0|0:0,0:0:0:0:
161,65,60977,5,2,0:0:0:0:
210,216,61208,1,0,0:0:0:0:
301,156,61439,1,8,0:0:0:0:
252,307,61670,1,0,0:0:0:0:
104,200,61901,5,2,0:0:0:0:
301,156,62131,1,0,0:0:0:0:
416,316,62362,1,8,0:0:0:0:
301,156,62593,1,0,0:0:0:0:
123,285,62824,5,2,0:0:0:0:
66,136,63054,1,0,0:0:0:0:
250,60,63285,1,8,0:0:0:0:
193,209,63516,1,0,0:0:0:0:
131,41,63747,5,2,0:0:0:0:
304,167,63977,1,0,0:0:0:0:
304,167,64093,1,0,0:0:0:0:
131,41,64324,1,0,0:0:0:0:
131,41,64439,1,0,0:0:0:0:
122,221,64670,5,2,0:0:0:0:
304,276,64901,1,0,0:0:0:0:
200,145,65131,1,8,0:0:0:0:
28,168,65362,1,0,0:0:0:0:
131,41,65593,5,2,0:0:0:0:
258,83,65824,1,0,0:0:0:0:
122,221,66054,1,8,0:0:0:0:
131,41,66285,1,0,0:0:0:0:
249,263,66516,1,2,0:0:0:0:
463,170,66977,5,8,0:0:0:0:
249,263,67208,1,2,0:0:0:0:
384,73,67670,5,2,0:0:0:0:
249,263,67901,2,0,P|202:256|159:262,1,90,8|0,0:0|0:0,0:0:0:0:
46,183,68362,5,2,0:0:0:0:
203,339,68593,1,0,0:0:0:0:
161,140,68824,1,8,0:0:0:0:
66,312,69054,1,0,0:0:0:0:
278,161,69285,5,2,0:0:0:0:
386,292,69516,1,0,0:0:0:0:
379,118,69747,1,8,0:0:0:0:
236,261,69977,1,0,0:0:0:0:
103,68,70208,5,2,0:0:0:0:
278,161,70439,1,0,0:0:0:0:
247,50,70670,1,8,0:0:0:0:
136,220,70901,1,0,0:0:0:0:
332,250,71131,5,2,0:0:0:0:
247,50,71362,1,0,0:0:0:0:
247,50,71477,1,0,0:0:0:0:
332,250,71708,1,0,0:0:0:0:
332,250,71824,1,0,0:0:0:0:
101,161,72054,6,0,P|185:175|283:159,1,180,2|8,0:0|0:0,0:0:0:0:
425,345,72747,2,0,P|341:331|243:347,1,180
82,367,73439,2,0,P|109:326|120:285,1,90,8|0,0:0|0:0,0:0:0:0:
162,129,73901,5,8,0:0:0:0:
118,118,74016,1,0,0:0:0:0:
74,106,74131,1,0,0:0:0:0:
254,235,74362,1,8,0:0:0:0:
298,224,74477,1,0,0:0:0:0:
342,212,74593,1,0,0:0:0:0:
435,95,74824,1,8,0:0:0:0:
493,191,75054,5,2,0:0:0:0:
423,300,75285,2,0,P|438:282|455:268,1,45,0|2,0:0|0:0,0:0:0:0:
329,111,75747,6,0,P|224:129|118:102,1,215.999993408203,4|8,0:0|0:0,0:0:0:0:
22,277,76439,2,0,P|75:266|140:276,1,107.999996704102,2|0,0:0|0:0,0:0:0:0:
263,344,76901,1,2,0:0:0:0:
159,188,77131,1,8,0:0:0:0:
358,98,77362,2,0,L|321:136,1,53.9999983520508,2|0,0:0|0:0,0:0:0:0:
221,263,77593,6,0,P|330:246|433:264,1,215.999993408203,2|8,0:0|0:0,0:0:0:0:
464,98,78285,2,0,P|409:106|357:97,1,107.999996704102,2|0,0:0|0:0,0:0:0:0:
225,34,78747,1,2,0:0:0:0:
324,170,78977,1,8,0:0:0:0:
61,137,79208,2,0,L|80:71,1,53.9999983520508,2|0,0:0|0:0,0:0:0:0:
153,233,79439,5,2,0:0:0:0:
448,56,79901,1,8,0:0:0:0:
379,286,80247,1,2,0:0:0:0:
415,308,80362,1,0,0:0:0:0:
480,201,80593,1,2,0:0:0:0:
267,265,80824,1,8,0:0:0:0:
331,116,81054,1,2,0:0:0:0:
181,174,81285,5,0,0:0:0:0:
379,286,81516,1,2,0:0:0:0:
462,92,81747,1,8,0:0:0:0:
205,292,82093,1,2,0:0:0:0:
247,284,82208,1,0,0:0:0:0:
212,96,82439,1,2,0:0:0:0:
54,268,82670,1,8,0:0:0:0:
271,184,82901,2,0,L|315:218,1,53.9999983520508,2|0,0:0|0:0,0:0:0:0:
458,339,83131,6,0,P|434:237|460:130,1,215.999993408203,2|8,0:0|0:0,0:0:0:0:
271,79,83824,2,0,P|283:130|270:183,1,107.999996704102,2|0,0:0|0:0,0:0:0:0:
172,332,84285,1,2,0:0:0:0:
355,232,84516,1,8,0:0:0:0:
101,221,84747,2,0,L|146:180,1,53.9999983520508,2|0,0:0|0:0,0:0:0:0:
271,79,84977,6,0,P|164:98|55:78,1,215.999993408203,2|8,0:0|0:0,0:0:0:0:
249,232,85670,2,0,P|302:222|357:232,1,107.999996704102,2|0,0:0|0:0,0:0:0:0:
480,159,86131,1,2,0:0:0:0:
299,319,86362,1,8,0:0:0:0:
222,124,86593,2,0,L|284:95,1,53.9999983520508,2|0,0:0|0:0,0:0:0:0:
133,30,86824,5,2,0:0:0:0:
413,190,87285,1,8,0:0:0:0:
233,286,87516,2,0,P|125:269|20:286,1,215.999993408203,2|0,0:0|0:0,0:0:0:0:
73,107,88208,2,0,P|126:115|179:107,1,107.999996704102,8|0,0:0|0:0,0:0:0:0:
296,49,88670,5,0,0:0:0:0:
436,203,88901,1,2,0:0:0:0:
401,27,89131,1,8,0:0:0:0:
256,192,89362,1,2,0:0:0:0:
484,111,89593,5,0,0:0:0:0:
336,293,89824,1,2,0:0:0:0:
256,64,90054,1,8,0:0:0:0:
108,246,90285,2,0,L|165:226,1,53.9999983520508,2|0,0:0|0:0,0:0:0:0:
360,149,90516,6,0,P|258:165|145:148,1,215.999993408203,2|8,0:0|0:0,0:0:0:0:
336,293,91208,1,2,0:0:0:0:
147,148,91670,1,2,0:0:0:0:
334,86,91901,1,8,0:0:0:0:
201,284,92131,2,0,L|232:235,1,53.9999983520508,2|0,0:0|0:0,0:0:0:0:
334,86,92362,6,0,P|309:206|336:293,1,215.999993408203,2|8,0:0|0:0,0:0:0:0:
471,182,93054,1,2,0:0:0:0:
335,292,93516,1,2,0:0:0:0:
471,182,93747,1,8,0:0:0:0:
233,117,93977,2,0,L|295:88,1,53.9999983520508,2|0,0:0|0:0,0:0:0:0:
146,34,94208,5,2,0:0:0:0:
436,271,94670,1,8,0:0:0:0:
147,300,95016,1,2,0:0:0:0:
177,269,95131,1,0,0:0:0:0:
66,163,95362,1,2,0:0:0:0:
282,226,95593,1,8,0:0:0:0:
196,67,95824,1,2,0:0:0:0:
62,261,96054,5,0,0:0:0:0:
258,136,96285,1,2,0:0:0:0:
213,354,96516,1,8,0:0:0:0:
424,130,96862,1,2,0:0:0:0:
395,97,96977,1,0,0:0:0:0:
271,246,97208,1,2,0:0:0:0:
267,43,97439,1,8,0:0:0:0:
63,187,97670,2,0,L|111:153,1,53.9999983520508,2|0,0:0|0:0,0:0:0:0:
267,43,97901,6,0,P|161:58|49:43,1,215.999993408203,2|8,0:0|0:0,0:0:0:0:
227,175,98593,1,2,0:0:0:0:
53,44,99054,1,2,0:0:0:0:
103,237,99285,1,8,0:0:0:0:
284,51,99516,2,0,L|238:94,1,53.9999983520508,2|0,0:0|0:0,0:0:0:0:
103,237,99747,6,0,P|212:223|318:240,1,215.999993408203,2|8,0:0|0:0,0:0:0:0:
154,114,100439,1,2,0:0:0:0:
316,239,100901,1,2,0:0:0:0:
392,54,101131,1,8,0:0:0:0:
176,203,101362,2,0,L|229:166,1,53.9999983520508,2|0,0:0|0:0,0:0:0:0:
392,54,101593,6,0,P|280:70|180:53,1,215.999993408203,2|8,0:0|0:0,0:0:0:0:
26,254,102285,2,0,P|138:238|238:255,1,215.999993408203,2|0,0:0|0:0,0:0:0:0:
429,349,102977,2,0,P|420:305|428:241,1,107.999996704102,8|0,0:0|0:0,0:0:0:0:
408,99,103439,5,0,0:0:0:0:
377,74,103554,1,0,0:0:0:0:
341,59,103670,1,2,0:0:0:0:
305,58,103785,1,0,0:0:0:0:
270,68,103901,2,0,L|225:110,3,45,2|0|0|0,0:0|0:0|0:0|0:0,0:0:0:0:
147,128,104362,6,0,L|154:78,1,45,2|0,0:0|0:0,0:0:0:0:
261,183,104593,2,0,L|215:186,1,45
120,128,104824,6,0,L|127:78,1,45,2|0,0:0|0:0,0:0:0:0:
264,210,105054,2,0,L|218:213,1,45
53,259,105285,1,2,0:0:0:0:
161,323,105747,5,8,0:0:0:0:
292,179,105977,2,0,P|276:278|298:375,1,180,2|0,0:0|0:0,0:0:0:0:
139,211,106670,1,8,0:0:0:0:
410,48,107131,1,2,0:0:0:0:
355,171,107593,5,8,0:0:0:0:
146,139,107824,2,0,P|232:113|299:53,1,180,2|0,0:0|0:0,0:0:0:0:
215,243,108516,1,8,0:0:0:0:
496,368,108977,1,2,0:0:0:0:
439,255,109439,5,8,0:0:0:0:
242,328,109670,2,0,P|333:324|420:350,1,180,2|0,0:0|0:0,0:0:0:0:
267,205,110362,1,8,0:0:0:0:
328,94,110824,5,0,0:0:0:0:
451,121,111285,1,8,0:0:0:0:
466,245,111747,1,0,0:0:0:0:
351,296,112208,1,8,0:0:0:0:
81,77,112670,1,2,0:0:0:0:
194,132,113131,5,8,0:0:0:0:
29,283,113362,2,0,P|117:268|205:284,1,180,2|0,0:0|0:0,0:0:0:0:
44,154,114054,1,8,0:0:0:0:
400,66,114516,1,2,0:0:0:0:
312,157,114977,5,8,0:0:0:0:
121,72,115208,2,0,P|201:80|294:41,1,180,2|0,0:0|0:0,0:0:0:0:
146,191,115901,1,8,0:0:0:0:
36,56,116131,1,2,0:0:0:0:
11,274,116362,5,2,0:0:0:0:
448,96,117054,1,2,0:0:0:0:
