osu file format v14

[General]
AudioFilename: audio.mp3
AudioLeadIn: 0
PreviewTime: 54867
Countdown: 0
SampleSet: Soft
StackLeniency: 0.6
Mode: 0
LetterboxInBreaks: 0
WidescreenStoryboard: 0

[Editor]
Bookmarks: 141669
DistanceSpacing: 1
BeatDivisor: 4
GridSize: 4
TimelineZoom: 1

[Metadata]
Title:First Love
TitleUnicode:First Love
Artist:Yuki Yumeno
ArtistUnicode:夢乃ゆき
Creator:timemon
Version:Normal
Source:ヒマワリと恋の記憶
Tags:ED visual novel eroge Himakoi More MME BEST 2013-2016
BeatmapID:1451925
BeatmapSetID:685946

[Difficulty]
HPDrainRate:4
CircleSize:3.3
OverallDifficulty:4
ApproachRate:4.8
SliderMultiplier:1
SliderTickRate:1

[Events]
//Background and Video events
0,0,"waifu2g.jpg",0,0
//Break Periods
2,86779,93225
2,190850,193553
//Storyboard Layer 0 (Background)
//Storyboard Layer 1 (Fail)
//Storyboard Layer 2 (Pass)
//Storyboard Layer 3 (Foreground)
//Storyboard Sound Samples

[TimingPoints]
5924,491.803278688525,4,2,1,40,1,0
7891,-100,4,2,1,40,0,0
39366,-100,4,2,1,40,0,0
47235,-100,4,2,1,50,0,0
49202,-100,4,2,1,40,0,0
55104,-100,4,2,1,50,0,1
56333,-100,4,2,1,50,0,1
59038,-100,4,2,1,50,0,1
60268,-100,4,2,1,50,0,1
69858,-100,4,2,1,50,0,0
70842,-100,4,2,1,50,0,1
72071,-100,4,2,1,50,0,1
74776,-100,4,2,1,50,0,1
76005,-100,4,2,1,50,0,1
86579,-100,4,2,1,40,0,0
94448,-100,4,2,1,40,0,0
101333,-100,4,2,1,40,0,0
102317,-100,4,2,1,40,0,0
125924,-100,4,2,1,50,0,0
133792,-100,4,2,1,50,0,0
135760,-100,4,2,1,50,0,0
141661,-100,4,2,1,60,0,1
142645,-100,4,2,1,60,0,1
145596,-100,4,2,1,60,0,1
146579,-100,4,2,1,60,0,1
156415,-100,4,2,1,60,0,0
157399,-100,4,2,1,60,0,1
158383,-100,4,2,1,60,0,1
161333,-100,4,2,1,60,0,1
162317,-100,4,2,1,60,0,1
173137,-100,4,2,1,50,0,0
189612,-100,4,2,1,40,0,0
196743,-100,4,2,1,60,0,0
197235,-100,4,2,1,70,0,0
197727,-100,4,2,1,80,0,0
198096,-100,4,2,1,60,0,0
198710,-100,4,2,1,60,0,1
205596,-100,4,2,1,60,0,0
206579,-100,4,2,1,60,0,1
220350,-100,4,2,1,40,0,0
228219,-100,4,2,1,30,0,0
230186,-100,4,2,1,30,0,0
247891,-100,4,2,1,5,0,0

[Colours]
Combo1 : 255,170,213
Combo2 : 254,200,150
Combo3 : 255,149,149
Combo4 : 192,192,192

[HitObjects]
92,147,7891,6,0,L|92:79,1,50,2|2,0:0|0:0,0:0:0:0:
131,62,8383,1,0,0:0:0:0:
131,62,8628,2,0,P|182:47|231:70,1,100,0|0,0:0|0:0,0:0:0:0:
265,90,9366,1,0,0:0:0:0:
328,167,9858,2,0,P|348:204|336:267,2,100,2|0|0,0:0|0:0|0:0,0:0:0:0:
285,140,11087,2,0,L|216:143,2,50,0|0|0,0:0|0:0|0:0,0:0:0:0:
328,167,11825,6,0,L|441:162,1,100,2|0,0:0|0:0,0:0:0:0:
469,191,12563,2,0,P|489:224|481:284,2,100,0|0|0,0:0|0:0|0:0,0:0:0:0:
427,162,13792,2,0,P|407:129|415:69,1,100,2|0,0:0|0:0,0:0:0:0:
337,5,14776,2,0,L|226:10,1,100,0|0,0:0|0:0,0:0:0:0:
127,105,16251,5,0,0:0:0:0:
127,105,16497,2,0,L|132:222,1,100,0|0,0:0|0:0,0:0:0:0:
165,241,17235,2,0,L|162:299,1,50,0|0,0:0|0:0,0:0:0:0:
135,332,17727,2,0,P|200:302|267:333,1,150,2|0,0:0|0:0,0:0:0:0:
359,371,18956,2,0,L|426:369,2,50,0|0|0,0:0|0:0|0:0,0:0:0:0:
335,326,19694,6,0,B|308:276|308:276|314:222,1,100,2|0,0:0|0:0,0:0:0:0:
321,183,20432,2,0,P|272:199|214:172,2,100,0|0|0,0:0|0:0|0:0,0:0:0:0:
359,151,21661,1,2,0:0:0:0:
305,66,22153,1,0,0:0:0:0:
390,12,22645,1,0,0:0:0:0:
444,97,23137,1,2,0:0:0:0:
359,151,23628,5,2,0:0:0:0:
305,66,24120,1,0,0:0:0:0:
305,66,24366,2,0,L|186:58,1,100,0|0,0:0|0:0,0:0:0:0:
166,90,25104,2,0,P|158:114|165:153,1,50,0|0,0:0|0:0,0:0:0:0:
195,173,25596,2,0,L|195:293,1,100,2|0,0:0|0:0,0:0:0:0:
194,323,26333,1,0,0:0:0:0:
101,360,26825,2,0,L|40:352,2,50,0|0|0,0:0|0:0|0:0,0:0:0:0:
137,325,27563,6,0,B|196:304|196:304|249:315,1,100,2|0,0:0|0:0,0:0:0:0:
275,337,28301,2,0,B|311:344|311:344|370:323,2,100,0|0|0,0:0|0:0|0:0,0:0:0:0:
232,311,29530,2,0,P|215:256|234:199,1,100,2|0,0:0|0:0,0:0:0:0:
247,171,30268,2,0,L|368:185,1,100,0|0,0:0|0:0,0:0:0:0:
395,193,31005,1,0,0:0:0:0:
345,57,31989,6,0,L|296:53,1,50
258,86,32481,1,0,0:0:0:0:
258,86,32727,2,0,P|231:57|173:51,1,100,0|0,0:0|0:0,0:0:0:0:
128,73,33464,2,0,B|112:137|112:137|126:180,1,100,2|0,0:0|0:0,0:0:0:0:
135,217,34202,1,0,0:0:0:0:
214,344,34940,2,0,L|278:337,1,50,0|0,0:0|0:0,0:0:0:0:
309,317,35432,6,0,P|325:286|302:215,1,100,2|0,0:0|0:0,0:0:0:0:
289,179,36169,2,0,P|273:132|291:86,1,100,0|0,0:0|0:0,0:0:0:0:
321,46,36907,1,0,0:0:0:0:
399,108,37399,1,2,0:0:0:0:
399,108,37645,2,0,L|397:172,2,50,2|0|0,0:0|0:0|0:0,0:0:0:0:
401,57,38383,2,0,P|431:68|485:53,2,75,0|0|0,0:0|0:0|0:0,0:0:0:0:
357,31,39366,6,0,L|250:34,1,100,0|0,0:0|0:0,0:0:0:0:
219,67,40104,1,0,0:0:0:0:
219,67,40350,2,0,B|231:130|231:130|219:186,1,100,8|0,0:0|0:0,0:0:0:0:
177,253,41333,2,0,L|82:250,2,75,2|0|0,0:0|0:0|0:0,0:0:0:0:
271,370,42809,2,0,L|332:366,1,50,0|2,0:0|0:0,0:0:0:0:
349,325,43301,6,0,L|410:329,2,50,2|2|0,0:0|0:0|0:0,0:0:0:0:
309,294,44038,2,0,P|289:254|309:190,2,100,0|0|0,0:0|0:0|0:0,0:0:0:0:
349,325,45268,2,0,L|458:324,1,100,2|0,0:0|0:0,0:0:0:0:
493,302,46005,2,0,B|501:247|501:247|492:194,1,100,0|0,0:0|0:0,0:0:0:0:
487,153,46743,1,4,0:0:0:0:
399,104,47235,6,0,P|351:127|293:104,1,100,4|0,0:0|0:0,0:0:0:0:
272,79,47973,2,0,P|224:68|180:91,1,100,4|0,0:0|0:0,0:0:0:0:
151,132,48710,2,0,L|158:249,1,100,4|2,0:0|0:0,0:0:0:0:
190,269,49448,2,0,L|250:261,2,50,0|0|2,0:0|0:0|0:0,0:0:0:0:
158,308,50186,1,8,0:0:0:0:
66,267,50678,2,0,L|58:207,1,50,0|0,0:0|0:0,0:0:0:0:
83,173,51169,6,0,L|89:123,2,50,2|0|0,0:0|0:0|0:0,0:0:0:0:
59,217,51907,2,0,P|124:189|162:201,2,100,2|2|0,0:0|0:0|0:0,0:0:0:0:
25,254,53137,2,0,L|28:350,2,75,2|2|8,0:0|0:0|0:0,0:0:0:0:
164,78,54858,5,0,0:0:0:0:
164,78,55104,2,0,P|179:115|172:163,2,75,4|2|2,0:0|0:0|0:0,0:0:0:0:
147,30,56087,2,0,L|257:42,1,100,8|0,0:0|0:0,0:0:0:0:
276,81,56825,1,2,0:0:0:0:
276,81,57071,2,0,L|331:87,2,50,2|2|2,0:0|0:0|0:3,0:0:0:0:
236,112,57809,2,0,P|225:159|243:214,1,100,2|0,0:0|0:0,0:0:0:0:
304,282,58792,1,0,0:0:0:0:
304,282,59038,6,0,L|398:282,2,75,2|2|2,0:0|0:0|0:0,0:0:0:0:
277,324,60022,2,0,P|250:297|184:297,1,100,8|0,0:0|0:0,0:0:0:0:
150,323,60760,1,0,0:0:0:0:
150,323,61005,2,0,L|56:323,2,75,2|0|2,0:0|0:0|0:0,0:0:0:0:
190,293,61989,1,8,0:0:0:0:
321,364,62727,1,0,0:0:0:0:
321,364,62973,6,0,L|387:368,2,50,2|2|2,0:0|0:0|0:3,0:0:0:0:
285,328,63710,2,0,P|271:275|288:226,1,100,2|0,0:0|0:0,0:0:0:0:
313,192,64448,1,2,0:0:0:0:
254,110,64940,2,0,L|139:116,1,100,2|0,0:0|0:0,0:0:0:0:
112,143,65678,2,0,B|92:195|92:195|106:250,1,100,2|0,0:0|0:0,0:0:0:0:
111,287,66415,1,0,0:0:0:0:
187,351,66907,5,2,0:0:0:0:
187,351,67153,2,0,L|259:348,1,50,2|2,0:0|0:3,0:0:0:0:
261,305,67645,1,2,0:2:0:0:
261,305,67891,2,0,B|322:295|322:295|371:313,1,100,8|0,0:0|0:0,0:0:0:0:
431,240,68874,1,2,0:0:0:0:
431,240,69120,2,0,L|428:178,1,50,2|2,0:0|0:3,0:0:0:0:
384,166,69612,1,2,0:0:0:0:
384,166,69858,2,0,L|388:83,2,75,10|2|2,0:0|0:0|0:0,0:0:0:0:
345,197,70842,6,0,P|310:181|260:189,2,75,4|2|2,0:0|0:0|0:0,0:0:0:0:
377,234,71825,2,0,L|375:343,1,100,8|0,0:0|0:0,0:0:0:0:
335,364,72563,1,0,0:0:0:0:
335,364,72809,2,0,P|292:362|263:371,2,50,2|2|2,0:0|0:0|0:3,0:0:0:0:
375,333,73546,2,0,P|403:322|476:363,1,100,2|0,0:0|0:0,0:0:0:0:
466,245,74530,1,0,0:0:0:0:
466,245,74776,6,0,B|488:208|488:208|486:159,2,75,2|2|2,0:0|0:0|0:0,0:0:0:0:
439,287,75760,2,0,L|323:271,1,100,8|0,0:0|0:0,0:0:0:0:
290,266,76497,1,0,0:0:0:0:
290,266,76743,2,0,P|304:305|295:355,2,75,2|0|2,0:0|0:0|0:0,0:0:0:0:
259,226,77727,1,8,0:0:0:0:
345,103,78464,1,0,0:0:0:0:
345,103,78710,6,0,L|456:123,1,100,2|2,0:0|0:3,0:0:0:0:
471,162,79448,2,0,P|486:193|468:262,1,100,2|0,0:0|0:0,0:0:0:0:
391,312,80432,1,0,0:0:0:0:
391,312,80678,2,0,L|280:332,1,100,2|2,0:0|0:3,0:0:0:0:
245,345,81415,2,0,P|260:297|228:249,1,100,2|0,0:0|0:0,0:0:0:0:
205,216,82153,2,0,L|209:154,1,50
252,142,82645,6,0,L|333:148,2,75,2|0|2,0:0|0:0|0:0,0:0:0:0:
218,105,83628,1,8,0:0:0:0:
140,167,84120,1,0,0:0:0:0:
71,94,84612,2,0,L|79:-1,2,75,0|0|0,0:0|0:0|0:0,0:0:0:0:
71,94,86579,5,2,0:0:0:0:
369,176,94448,5,2,0:0:0:0:
293,110,94940,1,0,0:0:0:0:
293,110,95186,2,0,L|178:111,1,100,2|0,0:0|0:0,0:0:0:0:
156,145,95924,2,0,P|153:177|159:208,1,50,0|0,0:0|0:0,0:0:0:0:
198,221,96415,2,0,P|218:258|206:321,1,100,2|0,0:0|0:0,0:0:0:0:
155,194,97645,6,0,L|84:195,2,50
198,221,98383,2,0,L|311:216,1,100,2|0,0:0|0:0,0:0:0:0:
339,245,99120,2,0,P|359:278|351:338,2,100,0|0|0,0:0|0:0|0:0,0:0:0:0:
297,216,100350,2,0,P|310:173|353:150,2,75,2|2|2,0:0|0:0|0:0,0:0:0:0:
258,247,101333,2,0,L|176:243,2,75,0|0|0,0:0|0:0|0:0,0:0:0:0:
283,290,102317,5,2,0:0:0:0:
357,356,102809,1,2,0:0:0:0:
357,356,103055,2,0,L|456:351,1,100,2|0,0:0|0:0,0:0:0:0:
506,348,103792,1,0,0:0:0:0:
454,262,104284,2,0,P|439:227|461:162,1,100,2|0,0:0|0:0,0:0:0:0:
481,127,105022,1,0,0:0:0:0:
428,41,105514,2,0,L|491:42,2,50,0|0|0,0:0|0:0|0:0,0:0:0:0:
395,79,106251,6,0,P|353:49|290:53,1,100,2|0,0:0|0:0,0:0:0:0:
264,75,106989,2,0,L|269:182,2,100,0|0|0,0:0|0:0|0:0,0:0:0:0:
228,39,108219,2,0,P|191:50|141:31,2,75,2|2|2,0:0|0:0|0:0,0:0:0:0:
264,75,109202,2,0,L|351:67,2,75
228,39,110186,5,2,0:0:0:0:
170,120,110678,1,0,0:0:0:0:
170,120,110924,2,0,L|175:227,1,100,0|0,0:0|0:0,0:0:0:0:
210,255,111661,2,0,L|207:308,1,50,0|0,0:0|0:0,0:0:0:0:
184,349,112153,2,0,P|138:299|90:311,1,100,2|0,0:0|0:0,0:0:0:0:
61,310,112891,1,0,0:0:0:0:
26,216,113383,2,0,L|23:162,2,50,0|0|0,0:0|0:0|0:0,0:0:0:0:
61,251,114120,6,0,B|124:239|124:239|166:251,1,100,2|0,0:0|0:0,0:0:0:0:
200,276,114858,2,0,B|234:285|234:285|297:273,1,100,0|0,0:0|0:0,0:0:0:0:
371,205,115842,1,2,0:0:0:0:
371,205,116087,2,0,L|366:151,2,50,2|2|2,0:0|0:0|0:0,0:0:0:0:
412,232,116825,2,0,L|402:340,1,100,2|0,0:0|0:0,0:0:0:0:
364,364,117563,1,2,0:0:0:0:
281,307,118055,5,2,0:0:0:0:
196,360,118546,2,0,L|131:353,1,50,0|0,0:0|0:0,0:0:0:0:
109,320,119038,1,0,0:0:0:0:
109,320,119284,2,0,B|91:268|91:268|101:212,1,100,0|0,0:0|0:0,0:0:0:0:
105,173,120022,2,0,P|141:192|201:174,1,100,2|0,0:0|0:0,0:0:0:0:
238,151,120760,1,0,0:0:0:0:
148,30,121497,2,0,L|85:34,1,50,0|0,0:0|0:0,0:0:0:0:
58,63,121989,6,0,L|63:165,1,100,2|0,0:0|0:0,0:0:0:0:
97,199,122727,2,0,L|92:301,1,100,0|0,0:0|0:0,0:0:0:0:
90,348,123464,1,0,0:0:0:0:
183,313,123956,2,0,L|248:315,2,50,2|0|0,0:0|0:0|0:0,0:0:0:0:
139,338,124694,1,0,0:0:0:0:
139,338,124940,2,0,P|103:303|70:302,2,75,2|8|8,0:0|3:0|3:0,0:0:0:0:
178,368,125924,6,0,L|289:366,1,100,2|2,0:0|0:0,0:0:0:0:
320,340,126661,1,0,0:0:0:0:
320,340,126907,2,0,P|348:289|334:238,1,100,10|2,0:0|0:0,0:0:0:0:
272,176,127891,2,0,L|164:179,1,100,2|2,0:0|0:0,0:0:0:0:
122,179,128628,2,0,P|101:138|128:78,1,100,0|0,0:0|0:0,0:0:0:0:
146,49,129366,2,0,P|173:42|207:40,1,50,2|0,0:0|0:0,0:0:0:0:
230,75,129858,6,0,L|224:137,2,50,2|0|2,0:0|0:0|0:0,0:0:0:0:
267,41,130596,2,0,L|373:51,1,100,0|0,0:0|0:0,0:0:0:0:
434,124,131579,1,0,0:0:0:0:
434,124,131825,2,0,P|456:160|439:229,1,100,2|2,0:0|0:0,0:0:0:0:
414,251,132563,2,0,L|315:223,1,100,0|0,0:0|0:0,0:0:0:0:
270,207,133301,1,6,0:0:0:0:
247,304,133792,6,0,P|203:284|136:303,1,100,4|2,0:0|0:0,0:0:0:0:
113,321,134530,2,0,P|129:283|99:218,1,100,4|2,0:0|0:0,0:0:0:0:
81,188,135268,2,0,P|63:142|79:96,1,100,4|0,0:0|0:0,0:0:0:0:
163,41,136251,2,0,L|264:66,1,100,2|2,0:0|0:0,0:0:0:0:
319,145,137235,2,0,P|320:176|313:206,1,50,2|0,0:0|0:0,0:0:0:0:
290,237,137727,6,0,L|225:227,2,50,2|0|2,3:2|3:0|3:2,0:0:0:0:
315,279,138464,2,0,P|352:300|419:279,1,100,0|0,3:3|3:3,0:0:0:0:
485,228,139448,1,0,3:0:0:0:
485,228,139694,1,0,3:0:0:0:
167,148,141415,5,0,0:0:0:0:
167,148,141661,2,0,L|171:243,2,75,4|2|2,0:0|0:0|0:0,0:0:0:0:
165,97,142645,2,0,P|211:76|271:92,1,100,8|0,0:0|3:0,0:0:0:0:
296,116,143383,1,2,0:0:0:0:
296,116,143628,2,0,L|356:105,2,50,2|2|2,0:0|0:0|0:3,0:0:0:0:
273,160,144366,2,0,B|269:217|269:217|288:268,1,100,2|0,0:0|0:0,0:0:0:0:
351,331,145350,1,0,0:0:0:0:
351,331,145596,6,0,L|429:328,2,75,2|2|2,0:0|0:0|0:0,0:0:0:0:
310,360,146579,2,0,P|277:312|226:313,1,100,8|0,0:0|3:0,0:0:0:0:
197,337,147317,1,0,0:0:0:0:
197,337,147563,2,0,P|163:352|112:338,2,75,2|2|2,0:0|0:0|0:0,0:0:0:0:
238,308,148546,2,0,L|233:191,1,100,8|0,0:0|3:0,0:0:0:0:
278,118,149530,6,0,L|346:125,2,50,2|2|2,0:0|0:0|0:3,0:0:0:0:
241,83,150268,2,0,P|195:64|142:90,1,100,2|0,0:0|0:0,0:0:0:0:
117,119,151005,1,2,0:0:0:0:
174,200,151497,2,0,L|168:307,1,100,2|0,0:0|0:0,0:0:0:0:
160,349,152235,2,0,L|53:343,1,100,2|0,0:0|3:0,0:0:0:0:
22,309,152973,1,0,3:0:0:0:
75,224,153464,5,2,0:0:0:0:
75,224,153710,2,0,L|71:162,1,50,2|2,0:0|0:3,0:0:0:0:
31,144,154202,1,2,3:2:0:0:
31,144,154448,2,0,L|38:42,1,100,8|0,3:2|0:0,0:0:0:0:
136,25,155432,1,2,3:2:0:0:
136,25,155678,2,0,L|206:24,1,50,2|2,0:0|0:3,0:0:0:0:
220,60,156169,1,2,0:0:0:0:
220,60,156415,2,0,L|315:60,2,75,10|2|2,0:0|3:2|3:2,0:0:0:0:
183,94,157399,6,0,P|171:131|184:175,2,75,4|2|2,0:0|0:0|0:0,0:0:0:0:
220,60,158383,2,0,L|326:69,1,100,8|0,0:0|3:0,0:0:0:0:
355,103,159120,1,0,0:0:0:0:
355,103,159366,2,0,P|368:136|364:171,2,50,2|2|2,0:0|0:0|0:3,0:0:0:0:
319,68,160104,2,0,L|219:59,1,100,2|0,0:0|0:0,0:0:0:0:
152,134,161087,1,2,0:0:0:0:
152,134,161333,6,0,B|164:176|164:176|157:230,2,75,2|2|2,0:0|0:0|0:0,0:0:0:0:
133,87,162317,2,0,P|95:80|34:110,1,100,8|0,0:0|3:0,0:0:0:0:
25,151,163055,1,0,0:0:0:0:
25,151,163301,2,0,L|31:243,2,75,2|0|0,0:0|0:0|0:0,0:0:0:0:
40,103,164284,2,0,L|155:113,1,100,8|0,0:0|3:0,0:0:0:0:
164,155,165022,1,0,0:0:0:0:
164,155,165268,6,0,P|213:139|263:162,1,100,2|2,0:0|3:3,0:0:0:0:
287,194,166005,2,0,L|281:298,1,100,2|0,0:0|0:0,0:0:0:0:
357,358,166989,1,0,0:0:0:0:
357,358,167235,2,0,L|461:364,1,100,2|2,0:0|0:3,0:0:0:0:
493,329,167973,2,0,P|506:278|486:222,1,100,2|0,0:0|0:0,0:0:0:0:
456,199,168710,2,0,L|461:147,1,50,0|0,0:0|0:0,0:0:0:0:
439,103,169202,6,0,P|405:117|354:102,2,75,2|0|2,0:0|0:0|3:2,0:0:0:0:
478,71,170186,2,0,L|491:165,2,75,8|0|0,3:2|0:0|0:0,0:0:0:0:
439,38,171169,1,0,3:0:0:0:
340,53,171661,1,0,3:0:0:0:
241,68,172153,1,0,3:0:0:0:
241,68,172399,2,0,L|132:55,1,100,0|0,3:0|0:0,0:0:0:0:
91,54,173137,6,0,P|117:94|106:157,1,100,4|8,0:0|0:0,0:0:0:0:
82,184,173874,1,0,0:0:0:0:
82,184,174120,2,0,L|181:172,1,100,2|8,0:0|3:2,0:0:0:0:
222,200,174858,1,0,0:0:0:0:
222,200,175104,2,0,P|240:233|221:299,1,100,2|8,0:0|0:0,0:0:0:0:
190,326,175842,1,0,0:0:0:0:
190,326,176087,2,0,P|150:311|111:317,2,75,2|0|0,0:0|0:0|0:0,0:0:0:0:
227,359,177071,6,0,L|338:346,1,100,2|8,0:0|0:0,0:0:0:0:
390,270,178055,2,0,B|394:212|394:212|380:158,1,100,2|8,0:0|3:2,0:0:0:0:
362,125,178792,1,0,0:0:0:0:
362,125,179038,2,0,L|367:61,2,50,2|0|8,0:0|0:0|0:0,0:0:0:0:
331,165,179776,1,0,0:0:0:0:
331,165,180022,2,0,P|282:140|228:153,1,100,2|8,0:0|0:0,0:0:0:0:
200,178,180760,1,8,0:0:0:0:
200,178,181005,6,0,L|88:176,1,100,2|8,0:0|0:0,0:0:0:0:
20,236,181989,1,2,0:0:0:0:
20,236,182235,2,0,L|24:304,2,50,0|8|0,0:0|0:0|0:0,0:0:0:0:
45,192,182973,2,0,L|48:117,2,75,2|0|0,0:0|3:0|3:0,0:0:0:0:
77,229,183956,1,2,0:0:0:0:
37,320,184448,1,8,3:2:0:0:
126,365,184940,6,0,P|154:347|210:349,2,75,2|0|0,0:0|0:0|0:0,0:0:0:0:
76,358,185924,2,0,L|85:252,1,100,2|8,0:0|0:0,0:0:0:0:
95,209,186661,1,0,0:0:0:0:
95,209,186907,5,2,0:0:0:0:
256,192,187153,12,2,188874,0:0:0:0:
356,60,194776,5,2,0:0:0:0:
334,157,195268,1,2,0:0:0:0:
312,254,195760,1,2,0:0:0:0:
290,351,196251,1,2,0:0:0:0:
207,294,196743,6,0,L|98:301,1,100,4|4,0:0|0:0,0:0:0:0:
67,269,197481,1,0,0:0:0:0:
67,269,197727,2,0,P|78:223|70:186,2,75,4|8|8,2:1|3:0|3:0,0:0:0:0:
107,300,198710,6,0,L|207:294,1,100,4|0,0:0|0:0,0:0:0:0:
257,293,199448,2,0,P|274:262|248:189,1,100,2|0,0:0|0:0,0:0:0:0:
228,162,200186,1,0,0:0:0:0:
275,73,200678,2,0,L|382:83,1,100,2|0,0:0|0:0,0:0:0:0:
407,119,201415,2,0,P|426:167|407:221,1,100,2|0,0:0|3:0,0:0:0:0:
382,251,202153,1,2,3:2:0:0:
300,192,202645,5,2,0:0:0:0:
300,192,202891,2,0,L|229:192,1,50,2|2,0:0|0:3,0:0:0:0:
221,233,203383,1,2,3:2:0:0:
221,233,203628,2,0,L|100:232,1,100,8|0,3:2|0:0,0:0:0:0:
49,161,204612,1,2,0:0:0:0:
49,161,204858,2,0,P|45:125|51:97,1,50,2|2,0:0|0:3,0:0:0:0:
82,75,205350,1,2,3:2:0:0:
82,75,205596,2,0,P|86:43|52:4,2,75,10|2|2,3:2|0:0|0:0,0:0:0:0:
121,104,206579,6,0,L|29:113,2,75,2|2|2,0:0|0:0|0:0,0:0:0:0:
154,67,207563,2,0,P|200:51|259:66,1,100,8|0,0:0|3:0,0:0:0:0:
281,99,208301,1,0,0:0:0:0:
281,99,208546,2,0,L|276:164,2,50,2|2|2,0:0|0:0|0:3,0:0:0:0:
323,71,209284,2,0,P|371:80|418:64,1,100,2|0,0:0|3:0,0:0:0:0:
479,143,210268,1,0,0:0:0:0:
479,143,210514,6,0,L|473:227,2,75,2|2|2,0:0|0:0|0:0,0:0:0:0:
445,105,211497,2,0,P|410:128|356:109,1,100,8|0,0:0|3:0,0:0:0:0:
318,80,212235,1,0,0:0:0:0:
318,80,212481,2,0,L|234:74,2,75,2|0|2,0:0|0:0|0:0,0:0:0:0:
348,119,213464,2,0,P|362:155|351:216,1,100,8|0,0:0|0:0,0:0:0:0:
325,256,214202,1,0,0:0:0:0:
325,256,214448,6,0,P|291:217|236:214,1,100,2|2,0:0|0:3,0:0:0:0:
195,217,215186,2,0,L|204:323,1,100,2|0,0:0|0:0,0:0:0:0:
113,359,216169,1,0,0:0:0:0:
113,359,216415,2,0,L|104:259,1,100,2|2,0:0|0:3,0:0:0:0:
99,209,217153,2,0,P|136:186|201:200,1,100,2|0,0:0|0:0,0:0:0:0:
231,221,217891,2,0,L|293:214,1,50,0|0,0:0|0:0,0:0:0:0:
315,179,218383,6,0,P|334:141|318:97,2,75,2|0|2,0:0|0:0|0:0,0:0:0:0:
280,215,219366,2,0,L|205:211,2,75,8|0|0,0:0|0:0|0:0,0:0:0:0:
314,251,220350,1,0,3:0:0:0:
199,79,222071,5,0,0:0:0:0:
199,79,222317,2,0,L|91:82,1,100,2|2,0:0|0:3,0:0:0:0:
58,111,223055,2,0,P|76:136|66:204,1,100,2|0,0:0|0:0,0:0:0:0:
21,289,224038,1,0,0:0:0:0:
21,289,224284,2,0,P|50:257|120:248,1,100,2|2,0:0|0:3,0:0:0:0:
144,273,225022,2,0,L|251:266,1,100,2|0,0:0|0:0,0:0:0:0:
284,237,225760,2,0,P|294:210|292:181,1,50,0|0,0:0|0:0,0:0:0:0:
273,143,226251,6,0,B|268:93|268:93|279:59,2,75,2|2|2,0:0|0:0|0:0,0:0:0:0:
293,189,227235,1,8,0:0:0:0:
160,259,227973,1,2,0:0:0:0:
160,259,228219,6,0,P|121:240|74:238,2,75,2|0|0,0:0|0:0|0:0,0:0:0:0:
229,317,230186,5,2,0:0:0:0:
191,193,231907,5,2,0:0:0:0:
191,193,232153,2,0,L|98:198,2,75,2|0|0,0:0|0:0|0:0,0:0:0:0:
296,60,234120,5,2,0:0:0:0:
264,155,235104,1,2,0:0:0:0:
447,233,236087,6,0,L|343:236,1,100,2|2,0:0|0:0,0:0:0:0:
295,321,237071,2,0,L|394:318,1,100,2|2,0:0|0:0,0:0:0:0:
470,383,238055,5,2,0:0:0:0:
300,153,239776,5,2,0:0:0:0:
300,153,240022,2,0,P|324:186|322:237,2,75,2|2|2,0:0|0:0|0:0,0:0:0:0:
256,192,243956,12,0,247891,0:0:0:0:
