osu file format v14

[General]
AudioFilename: audio.mp3
AudioLeadIn: 0
PreviewTime: 54867
Countdown: 0
SampleSet: Soft
StackLeniency: 0.6
Mode: 0
LetterboxInBreaks: 0
WidescreenStoryboard: 0

[Editor]
Bookmarks: 141669
DistanceSpacing: 1.2
BeatDivisor: 4
GridSize: 4
TimelineZoom: 1.8

[Metadata]
Title:First Love
TitleUnicode:First Love
Artist:Yuki Yumeno
ArtistUnicode:夢乃ゆき
Creator:timemon
Version:Insane
Source:ヒマワリと恋の記憶
Tags:ED visual novel eroge Himakoi More MME BEST 2013-2016
BeatmapID:1451924
BeatmapSetID:685946

[Difficulty]
HPDrainRate:6
CircleSize:4
OverallDifficulty:7.2
ApproachRate:8
SliderMultiplier:1.6
SliderTickRate:1

[Events]
//Background and Video events
0,0,"waifu2g.jpg",0,0
//Break Periods
2,92373,93698
2,190842,194026
//Storyboard Layer 0 (Background)
//Storyboard Layer 1 (Fail)
//Storyboard Layer 2 (Pass)
//Storyboard Layer 3 (Foreground)
//Storyboard Sound Samples

[TimingPoints]
5924,491.803278688525,4,2,1,40,1,0
7891,-125,4,2,1,40,0,0
39366,-111.111111111111,4,2,1,40,0,0
47235,-100,4,2,1,50,0,0
49202,-125,4,2,1,40,0,0
55104,-76.9230769230769,4,2,1,50,0,1
56333,-90.9090909090909,4,2,1,50,0,1
59038,-76.9230769230769,4,2,1,50,0,1
60268,-90.9090909090909,4,2,1,50,0,1
69858,-166.666666666667,4,2,1,50,0,0
70842,-66.6666666666667,4,2,1,50,0,1
72071,-90.9090909090909,4,2,1,50,0,1
74776,-71.4285714285714,4,2,1,50,0,1
76005,-90.9090909090909,4,2,1,50,0,1
86579,-125,4,2,1,40,0,0
94448,-111.111111111111,4,2,1,40,0,0
101333,-166.666666666666,4,2,1,40,0,0
102317,-111.111111111111,4,2,1,40,0,0
125924,-100,4,2,1,50,0,0
133792,-90.9090909090909,4,2,1,50,0,0
135760,-100,4,2,1,50,0,0
141661,-71.4285714285714,4,2,1,60,0,1
142645,-83.3333333333333,4,2,1,60,0,1
145596,-76.9230769230769,4,2,1,60,0,1
146579,-83.3333333333333,4,2,1,60,0,1
156415,-166.666666666667,4,2,1,60,0,0
157399,-66.6666666666667,4,2,1,60,0,1
158383,-83.3333333333333,4,2,1,60,0,1
161333,-76.9230769230769,4,2,1,60,0,1
162317,-83.3333333333333,4,2,1,60,0,1
173137,-90.9090909090909,4,2,1,50,0,0
189612,-125,4,2,1,40,0,0
196743,-58.8235294117647,4,2,1,60,0,0
197235,-50,4,2,1,70,0,0
197727,-166.666666666667,4,2,1,80,0,0
198096,-166.666666666667,4,2,1,60,0,0
198710,-83.3333333333333,4,2,1,60,0,1
205596,-166.666666666667,4,2,1,60,0,0
206579,-83.3333333333333,4,2,1,60,0,1
210514,-71.4285714285714,4,2,1,60,0,1
211497,-83.3333333333333,4,2,1,60,0,1
220350,-100,4,2,1,40,0,0
228219,-125,4,2,1,30,0,0
230186,-166.666666666667,4,2,1,30,0,0
247891,-166.666666666667,4,2,1,5,0,0

[Colours]
Combo1 : 255,170,213
Combo2 : 254,200,150
Combo3 : 255,149,149
Combo4 : 192,192,192

[HitObjects]
134,73,7891,6,0,L|142:154,1,64,2|2,0:0|0:0,0:0:0:0:
201,196,8383,1,0,0:0:0:0:
138,258,8628,2,0,P|109:275|30:236,1,128
76,142,9366,2,0,L|139:135,1,64
220,18,9858,5,2,0:0:0:0:
220,18,10104,2,0,P|250:50|226:127,1,128,2|0,0:0|0:0,0:0:0:0:
395,100,11087,2,0,P|396:136|401:169,2,64
336,218,11825,6,0,P|304:201|273:189,1,64,2|2,0:0|0:0,0:0:0:0:
198,224,12317,1,0,0:0:0:0:
270,360,12563,2,0,P|237:319|150:327,2,128
342,305,13792,5,2,0:0:0:0:
342,305,14038,2,0,P|405:326|465:284,1,128,2|0,0:0|0:0,0:0:0:0:
445,187,14776,2,0,P|400:173|346:206,2,96
354,127,15760,6,0,L|357:202,1,64,2|2,0:0|0:0,0:0:0:0:
279,281,16251,1,0,0:0:0:0:
269,271,16374,1,0,0:0:0:0:
259,261,16497,2,0,L|252:128,1,128
150,140,17235,2,0,L|152:203,1,64
273,57,17727,5,2,0:0:0:0:
273,57,17973,2,0,P|210:55|174:-9,1,128,2|0,0:0|0:0,0:0:0:0:
76,209,18956,2,0,P|107:203|139:199,2,64
254,290,19694,6,0,P|222:285|191:281,1,64,2|2,0:0|0:0,0:0:0:0:
296,208,20186,1,0,0:0:0:0:
324,344,20432,2,0,P|342:285|316:228,2,128
186,281,21661,6,0,P|218:286|249:291,1,64,2|0,0:0|0:0,0:0:0:0:
315,227,22153,1,0,0:0:0:0:
293,144,22399,1,0,0:0:0:0:
219,191,22645,2,0,P|186:185|157:166,1,64
78,201,23137,2,0,L|71:265,1,64,2|0,0:0|0:0,0:0:0:0:
9,355,23628,6,0,L|73:362,1,64,2|2,0:0|0:0,0:0:0:0:
71,264,24120,1,0,0:0:0:0:
73,362,24366,2,0,P|129:337|195:358,1,128
263,236,25104,2,0,L|255:318,1,64
411,262,25596,6,0,P|416:231|410:200,1,64,2|2,0:0|0:0,0:0:0:0:
344,329,26087,1,0,0:0:0:0:
344,329,26333,2,0,P|374:352|408:360,1,64
494,321,26825,1,0,0:0:0:0:
410,200,27071,2,0,P|416:231|411:263,1,64
314,156,27563,5,2,0:0:0:0:
314,156,27809,2,0,L|321:75,1,64,2|0,0:0|0:0,0:0:0:0:
259,17,28301,2,0,P|223:44|138:16,1,128
112,216,29284,1,0,0:0:0:0:
112,216,29407,1,0,0:0:0:0:
112,216,29530,6,0,L|187:212,1,64,2|2,0:0|0:0,0:0:0:0:
259,285,30022,1,0,0:0:0:0:
287,178,30268,2,0,P|347:169|398:223,1,128
507,283,31005,2,0,P|477:290|443:279,1,64
399,148,31497,6,0,L|393:227,1,64,2|2,0:0|0:0,0:0:0:0:
280,335,31989,2,0,L|359:341,1,64
199,250,32481,1,0,0:0:0:0:
152,376,32727,2,0,P|140:316|184:261,1,128
280,189,33464,5,2,0:0:0:0:
165,110,33710,2,0,L|240:112,1,64,2|0,0:0|0:0,0:0:0:0:
362,49,34202,2,0,L|298:47,1,64
430,118,34940,1,0,0:0:0:0:
395,207,35186,1,0,0:0:0:0:
454,315,35432,5,2,0:0:0:0:
332,368,35678,2,0,P|355:319|429:305,2,128,2|0|0,0:0|0:0|0:0,0:0:0:0:
156,217,37399,6,0,L|157:288,1,64,2|2,0:0|0:0,0:0:0:0:
158,377,37891,1,0,0:0:0:0:
78,322,38137,1,0,0:0:0:0:
176,359,38383,2,0,P|217:340|279:356,2,96
396,287,39366,6,0,L|317:288,1,71.9999978027344,0|2,0:0|0:0,0:0:0:0:
443,202,39858,1,0,0:0:0:0:
473,351,40104,1,0,0:0:0:0:
324,287,40350,1,8,0:0:0:0:
497,246,40596,2,0,P|462:224|440:198,1,71.9999978027344
487,103,41087,1,0,0:0:0:0:
402,35,41333,6,0,L|317:37,1,71.9999978027344,2|2,0:0|0:0,0:0:0:0:
246,106,41825,1,0,0:0:0:0:
307,203,42071,2,0,P|334:179|376:169,2,71.9999978027344
224,263,42809,1,0,0:0:0:0:
298,343,43055,1,2,0:0:0:0:
298,343,43178,1,2,0:0:0:0:
298,343,43301,6,0,L|221:350,1,71.9999978027344,2|2,0:0|0:0,0:0:0:0:
347,257,43792,1,0,0:0:0:0:
436,310,44038,2,0,P|449:348|440:392,1,71.9999978027344,0|8,0:0|0:0,0:0:0:0:
347,257,44530,2,0,L|205:240,1,143.999995605469
449,204,45268,5,2,0:0:0:0:
447,54,45514,1,2,0:0:0:0:
450,57,46005,2,0,P|401:77|313:48,1,143.999995605469
311,200,46743,1,4,0:0:0:0:
184,113,46989,1,0,0:0:0:0:
187,289,47235,6,0,P|206:237|306:231,1,160,4|0,0:0|0:0,0:0:0:0:
203,381,47973,2,0,P|184:329|84:323,1,160,4|0,0:0|0:0,0:0:0:0:
79,158,48710,2,0,L|90:327,1,160,4|2,0:0|0:0,0:0:0:0:
180,363,49448,6,0,P|213:369|252:358,1,64
359,286,49940,2,0,P|328:280|297:287,1,64,2|8,0:0|0:0,0:0:0:0:
433,353,50678,1,0,0:0:0:0:
468,224,50924,1,0,0:0:0:0:
297,287,51169,5,2,0:0:0:0:
468,224,51415,1,0,0:0:0:0:
338,122,51661,1,0,0:0:0:0:
433,353,51907,1,2,0:0:0:0:
433,353,52399,5,2,0:0:0:0:
468,224,52645,1,8,0:0:0:0:
297,352,52891,1,0,0:0:0:0:
215,220,53137,2,0,L|278:223,1,64,2|8,0:0|0:0,0:0:0:0:
340,283,53505,2,0,L|403:279,1,64,2|0,0:0|0:0,0:0:0:0:
468,224,53874,5,8,0:0:0:0:
282,2,54858,5,0,0:0:0:0:
359,30,55104,6,0,P|373:83|355:137,1,103.999995239258,4|0,0:0|0:0,0:0:0:0:
356,236,55473,2,0,P|302:220|264:177,1,103.999995239258,2|0,0:0|0:0,0:0:0:0:
181,130,55842,2,0,P|219:90|275:80,1,103.999995239258,2|8,0:0|0:0,0:0:0:0:
116,209,56333,1,0,0:0:0:0:
63,66,56579,1,0,0:0:0:0:
32,250,56825,1,2,0:0:0:0:
32,250,56948,1,2,0:0:0:0:
32,250,57071,6,0,L|136:238,1,88.000002685547,2|2,0:0|0:0,0:0:0:0:
217,349,57563,1,2,0:3:0:0:
354,201,57809,2,0,L|250:189,1,88.000002685547,2|8,0:0|0:0,0:0:0:0:
446,104,58301,2,0,P|479:138|486:190,1,88.000002685547
433,313,58792,1,0,0:0:0:0:
346,156,59038,6,0,L|357:261,1,103.999995239258,2|0,0:0|0:0,0:0:0:0:
446,104,59407,2,0,L|435:207,1,103.999995239258,2|0,0:0|0:0,0:0:0:0:
346,52,59776,2,0,L|356:155,1,103.999995239258,2|8,0:0|0:0,0:0:0:0:
255,76,60268,1,0,0:0:0:0:
368,240,60514,1,0,0:0:0:0:
435,120,60760,1,0,0:0:0:0:
282,236,61005,6,0,P|322:246|375:237,1,88.000002685547,2|2,0:0|0:0,0:0:0:0:
406,231,61374,1,0,0:0:0:0:
406,231,61497,1,2,0:3:0:0:
195,337,61743,2,0,P|152:276|40:295,1,176.000005371094,2|0,0:0|0:0,0:0:0:0:
116,174,62481,1,0,0:0:0:0:
58,279,62727,1,0,0:0:0:0:
88,75,62973,6,0,P|135:73|180:70,1,88.000002685547,2|2,0:0|0:0,0:0:0:0:
124,220,63464,1,2,0:3:0:0:
331,156,63710,2,0,P|287:158|243:160,1,88.000002685547,2|8,0:0|0:0,0:0:0:0:
441,178,64202,1,0,0:0:0:0:
413,75,64448,2,0,P|443:115|445:162,1,88.000002685547,2|0,0:0|0:0,0:0:0:0:
355,329,64940,6,0,P|361:285|388:252,1,88.000002685547,2|2,0:0|0:3,0:0:0:0:
465,337,65432,1,0,0:0:0:0:
212,235,65678,2,0,L|394:252,1,176.000005371094,2|0,0:0|0:0,0:0:0:0:
511,165,66415,2,0,P|522:204|511:250,1,88.000002685547
468,366,66907,5,2,0:0:0:0:
311,288,67153,1,2,0:0:0:0:
511,249,67399,1,2,0:3:0:0:
363,371,67645,1,2,0:2:0:0:
399,215,67891,2,0,P|407:258|413:302,1,88.000002685547,8|0,0:0|0:0,0:0:0:0:
270,133,68383,2,0,P|276:90|285:47,1,88.000002685547
259,227,68874,5,2,0:0:0:0:
390,103,69120,1,2,0:0:0:0:
262,256,69366,1,2,0:3:0:0:
128,103,69612,1,2,0:0:0:0:
265,285,69858,6,0,L|260:368,2,71.9999978027344,10|2|2,0:0|0:0|0:0,0:0:0:0:
370,143,70842,6,0,B|467:124|467:124|452:153,1,120.000004577637,4|0,0:0|0:0,0:0:0:0:
308,209,71210,2,0,B|275:302|275:302|258:275,1,120.000004577637,2|0,0:0|0:0,0:0:0:0:
284,128,71579,2,0,B|219:53|219:53|251:51,1,120.000004577637,2|8,0:0|0:0,0:0:0:0:
308,209,72071,1,0,0:0:0:0:
171,283,72317,1,0,0:0:0:0:
303,362,72563,1,0,0:0:0:0:
92,331,72809,6,0,P|79:284|97:229,1,88.000002685547,2|2,0:0|0:0,0:0:0:0:
158,137,73301,1,2,0:3:0:0:
1,16,73546,2,0,P|44:17|92:20,1,88.000002685547,2|8,0:0|0:0,0:0:0:0:
245,140,74038,2,0,P|201:137|157:136,1,88.000002685547
319,46,74530,1,0,0:0:0:0:
483,208,74776,6,0,P|435:170|378:157,1,111.999996582031,2|0,0:0|0:0,0:0:0:0:
296,294,75145,2,0,P|344:256|401:243,1,111.999996582031,2|0,0:0|0:0,0:0:0:0:
483,380,75514,2,0,P|435:342|378:329,1,111.999996582031,2|8,0:0|0:0,0:0:0:0:
484,220,76005,1,0,0:0:0:0:
342,126,76251,1,0,0:0:0:0:
491,15,76497,1,0,0:0:0:0:
491,15,76620,1,0,0:0:0:0:
491,15,76743,6,0,L|487:134,1,88.000002685547,2|2,0:0|0:0,0:0:0:0:
434,159,77112,2,0,P|390:137|346:147,1,88.000002685547
292,188,77481,2,0,L|296:307,1,88.000002685547,2|8,0:0|0:0,0:0:0:0:
399,368,77973,1,0,0:0:0:0:
294,275,78219,1,0,0:0:0:0:
391,255,78464,1,0,0:0:0:0:
120,345,78710,6,0,P|162:354|205:345,1,88.000002685547,2|2,0:0|0:0,0:0:0:0:
158,204,79202,1,2,0:3:0:0:
381,275,79448,2,0,L|266:274,1,88.000002685547,2|8,0:0|0:0,0:0:0:0:
425,367,79940,2,0,L|512:367,1,88.000002685547
381,275,80432,1,0,0:0:0:0:
441,182,80678,6,0,P|398:192|348:178,1,88.000002685547,2|2,0:0|0:0,0:0:0:0:
272,69,81169,1,2,0:3:0:0:
350,270,81415,2,0,L|356:176,1,88.000002685547,2|8,0:0|0:0,0:0:0:0:
364,25,81907,1,0,0:0:0:0:
264,163,82153,1,0,0:0:0:0:
164,25,82399,1,0,0:0:0:0:
117,179,82645,6,0,P|162:145|244:150,1,132.00000402832,2|0,0:0|0:0,0:0:0:0:
264,163,83137,1,2,0:3:0:0:
186,327,83383,2,0,L|194:240,2,88.000002685547,2|8|0,0:0|0:0|0:0,0:0:0:0:
57,246,84120,1,0,0:0:0:0:
76,369,84366,1,0,0:0:0:0:
306,353,84612,6,0,P|252:362|181:322,2,132.00000402832
422,183,86210,1,0,0:0:0:0:
420,205,86333,1,0,0:0:0:0:
419,227,86456,1,0,0:0:0:0:
417,249,86579,5,2,0:0:0:0:
301,148,87317,1,2,0:0:0:0:
417,47,88055,1,2,0:0:0:0:
411,78,88792,5,2,0:3:0:0:
472,172,90268,5,0,0:0:0:0:
472,172,90391,1,0,0:0:0:0:
472,172,90514,2,0,L|386:168,1,64,2|0,0:3|0:0,0:0:0:0:
338,223,91005,1,0,0:0:0:0:
282,291,91251,2,0,L|286:377,1,64,2|0,0:3|0:0,0:0:0:0:
338,223,91743,1,0,0:0:0:0:
202,159,91989,1,4,0:0:0:0:
190,187,92112,2,0,L|167:190,1,16
76,73,94448,5,2,0:0:0:0:
82,99,94940,1,0,0:0:0:0:
156,50,95186,1,2,0:0:0:0:
156,50,95309,2,0,P|196:63|257:27,1,107.999996704102,0|0,3:2|0:0,0:0:0:0:
303,179,95924,1,0,0:0:0:0:
303,179,96169,1,0,0:0:0:0:
386,89,96415,6,0,L|297:95,2,71.9999978027344,2|0|0,0:0|0:0|0:0,0:0:0:0:
446,151,97153,1,0,0:0:0:0:
459,127,97645,1,0,0:0:0:0:
486,253,97891,1,0,0:0:0:0:
364,214,98137,1,0,0:0:0:0:
449,374,98383,6,0,P|485:343|473:237,1,143.999995605469,2|0,0:0|0:0,0:0:0:0:
402,298,99120,1,0,0:0:0:0:
402,298,99243,2,0,L|276:307,1,107.999996704102,0|0,3:3|0:0,0:0:0:0:
294,305,100104,1,0,0:0:0:0:
227,367,100350,6,0,P|199:340|121:340,2,107.999996704102,2|2|2,0:0|0:0|0:0,0:0:0:0:
297,233,101333,6,0,L|293:316,2,71.9999978027344
201,94,102317,5,2,0:0:0:0:
6,55,102809,2,0,L|10:123,1,35.9999989013672,2|2,0:0|0:0,0:0:0:0:
88,7,103055,1,2,0:0:0:0:
88,7,103178,2,0,L|97:129,1,107.999996704102,0|0,3:0|0:0,0:0:0:0:
34,175,103792,1,0,0:0:0:0:
65,255,104038,1,0,0:0:0:0:
40,338,104284,6,0,P|76:290|157:298,1,143.999995605469,2|0,0:0|0:0,0:0:0:0:
212,359,105022,1,0,0:0:0:0:
226,331,105514,1,0,0:0:0:0:
298,326,105760,2,0,L|218:332,1,71.9999978027344
353,246,106251,6,0,P|382:280|376:383,1,143.999995605469,2|0,0:0|0:0,0:0:0:0:
298,326,106989,1,0,0:0:0:0:
298,326,107112,2,0,L|168:334,1,107.999996704102,0|0,3:0|0:0,0:0:0:0:
0,265,107973,1,0,0:0:0:0:
41,187,108219,6,0,P|80:173|122:173,1,71.9999978027344,2|0,0:0|0:0,0:0:0:0:
138,187,108587,1,2,0:0:0:0:
138,187,108710,1,0,0:0:0:0:
95,80,108956,1,2,0:0:0:0:
225,9,109202,2,0,L|215:121,1,107.999996704102
211,148,109694,1,0,0:0:0:0:
307,112,109940,1,0,0:0:0:0:
351,268,110186,5,2,0:0:0:0:
351,268,110678,1,0,0:0:0:0:
293,346,110924,1,0,0:0:0:0:
293,346,111046,2,0,P|244:320|175:335,1,107.999996704102,0|0,3:0|0:0,0:0:0:0:
112,355,111661,1,0,0:0:0:0:
26,339,111907,1,0,0:0:0:0:
80,237,112153,6,0,L|71:92,1,143.999995605469,2|0,0:0|0:0,0:0:0:0:
65,6,112891,1,0,0:0:0:0:
300,127,113383,1,0,0:0:0:0:
221,91,113628,1,0,0:0:0:0:
148,138,113874,1,0,0:0:0:0:
300,127,114120,6,0,P|343:140|414:70,1,143.999995605469,2|0,0:0|0:0,0:0:0:0:
487,141,114858,1,0,0:0:0:0:
487,141,114981,2,0,L|476:273,1,107.999996704102,0|0,3:0|0:0,0:0:0:0:
327,330,115842,1,2,0:0:0:0:
327,330,115964,1,2,0:0:0:0:
327,330,116087,6,0,L|410:327,2,71.9999978027344,2|2|2,0:0|0:0|0:0,0:0:0:0:
250,273,116825,2,0,P|202:287|143:220,1,143.999995605469,2|0,0:0|0:0,0:0:0:0:
12,156,117563,2,0,L|84:154,1,71.9999978027344,2|0,0:0|0:0,0:0:0:0:
184,39,118055,5,2,0:0:0:0:
205,66,118546,2,0,L|201:143,1,71.9999978027344
291,110,119038,1,0,0:0:0:0:
282,272,119284,2,0,L|285:200,1,71.9999978027344
291,110,119776,1,0,0:0:0:0:
367,49,120022,6,0,P|401:73|487:26,2,143.999995605469,2|0|0,0:0|0:0|0:0,0:0:0:0:
195,12,121497,1,0,0:0:0:0:
195,12,121743,1,0,0:0:0:0:
126,75,121989,6,0,L|131:225,1,143.999995605469,2|0,0:0|0:0,0:0:0:0:
175,293,122727,1,0,0:0:0:0:
175,293,122850,2,0,P|216:274|283:293,1,107.999996704102,0|0,3:0|0:0,0:0:0:0:
301,310,123342,1,0,0:0:0:0:
301,310,123464,1,0,0:0:0:0:
359,228,123710,1,0,0:0:0:0:
449,365,123956,6,0,P|413:366|376:369,1,71.9999978027344,2|0,0:0|0:0,0:0:0:0:
451,268,124448,1,0,0:0:0:0:
359,228,124694,1,0,0:0:0:0:
437,167,124940,2,0,L|430:53,2,107.999996704102,2|8|8,0:0|3:0|3:0,0:0:0:0:
339,25,125924,6,0,P|298:13|249:21,1,80,2|0,0:0|0:0,0:0:0:0:
108,74,126415,2,0,P|149:86|198:78,1,80,2|0,0:0|0:0,0:0:0:0:
248,157,126907,1,10,0:0:0:0:
161,304,127153,2,0,L|168:224,1,80,0|2,0:0|0:0,0:0:0:0:
185,82,127645,1,0,0:0:0:0:
56,134,127891,6,0,L|48:213,1,80,2|0,0:0|0:0,0:0:0:0:
165,186,128383,1,2,0:0:0:0:
201,295,128628,2,0,P|160:305|112:286,2,80,0|2|0,0:0|0:0|0:0,0:0:0:0:
314,225,129366,1,2,0:0:0:0:
335,360,129612,1,0,0:0:0:0:
394,221,129858,6,0,L|296:226,1,80,2|0,0:0|0:0,0:0:0:0:
241,151,130350,1,2,0:0:0:0:
368,294,130596,2,0,P|391:252|389:201,1,80,0|10,0:0|0:0,0:0:0:0:
241,151,131087,2,0,L|320:146,1,80,0|2,0:0|0:0,0:0:0:0:
391,72,131579,1,0,0:0:0:0:
241,151,131825,6,0,P|206:107|94:134,1,160,2|2,0:0|0:0,0:0:0:0:
51,269,132563,2,0,L|49:188,2,80,0|2|0,0:0|0:0|0:0,0:0:0:0:
269,358,133301,1,6,0:0:0:0:
138,384,133546,1,0,0:0:0:0:
275,183,133792,6,0,L|270:358,1,176.000005371094,4|2,0:0|0:0,0:0:0:0:
424,163,134530,2,0,P|351:212|267:173,1,176.000005371094,4|2,0:0|0:0,0:0:0:0:
184,63,135268,2,0,P|262:101|271:193,1,176.000005371094,4|0,0:0|0:0,0:0:0:0:
202,280,136251,6,0,L|108:279,1,80,2|0,0:0|0:0,0:0:0:0:
57,199,136620,1,0,0:0:0:0:
57,199,136743,2,0,L|136:199,1,80,2|0,0:0|0:0,0:0:0:0:
252,84,137235,1,2,0:0:0:0:
298,319,137481,1,0,0:0:0:0:
298,319,137604,1,0,0:0:0:0:
298,319,137727,5,2,3:2:0:0:
122,171,137973,1,0,3:0:0:0:
362,196,138219,1,2,3:2:0:0:
150,377,138464,5,0,3:3:0:0:
153,347,138587,1,0,3:3:0:0:
157,317,138710,1,2,3:2:0:0:
161,287,138833,1,0,3:3:0:0:
165,257,138956,1,0,3:3:0:0:
298,319,139202,1,2,3:2:0:0:
122,171,139448,1,0,3:0:0:0:
122,171,139571,1,0,3:0:0:0:
122,171,139694,5,0,3:0:0:0:
256,192,139817,12,0,141169,0:0:0:0:
377,94,141415,5,0,3:0:0:0:
377,94,141538,1,0,3:0:0:0:
377,94,141661,6,0,L|315:193,1,111.999996582031,4|0,0:0|0:0,0:0:0:0:
336,369,142030,2,0,L|281:265,1,111.999996582031,2|0,0:0|0:0,0:0:0:0:
118,195,142399,2,0,L|234:199,1,111.999996582031,2|8,0:0|0:0,0:0:0:0:
180,59,142891,1,0,3:0:0:0:
180,59,143014,1,0,3:0:0:0:
180,59,143137,1,0,3:0:0:0:
35,241,143383,1,2,0:0:0:0:
35,241,143505,1,2,0:0:0:0:
35,241,143628,6,0,P|18:191|43:138,1,95.9999970703126,2|2,0:0|0:0,0:0:0:0:
180,59,144120,1,2,0:3:0:0:
304,193,144366,2,0,L|201:194,1,95.9999970703126,2|8,0:0|0:0,0:0:0:0:
154,330,144858,2,0,L|249:329,1,95.9999970703126
304,193,145350,1,0,0:0:0:0:
138,123,145596,6,0,P|120:70|140:23,1,103.999995239258,2|0,0:0|0:0,0:0:0:0:
221,157,145964,2,0,P|257:114|308:108,1,103.999995239258,2|0,0:0|0:0,0:0:0:0:
233,245,146333,2,0,P|287:255|318:296,1,103.999995239258,2|8,0:0|0:0,0:0:0:0:
216,353,146825,1,0,3:0:0:0:
200,357,146948,1,0,3:0:0:0:
185,361,147071,1,0,3:0:0:0:
303,107,147317,1,0,0:0:0:0:
303,107,147440,1,0,0:0:0:0:
303,107,147563,6,0,L|300:205,1,95.9999970703126,2|0,0:0|0:0,0:0:0:0:
245,260,147932,2,0,B|207:226|207:226|160:225,1,95.9999970703126,2|0,0:0|0:0,0:0:0:0:
93,339,148301,2,0,B|131:305|131:305|178:304,1,95.9999970703126,2|8,0:0|0:0,0:0:0:0:
306,362,148792,1,0,3:0:0:0:
306,362,148915,1,0,3:0:0:0:
306,362,149038,1,0,3:0:0:0:
368,195,149284,1,0,0:0:0:0:
104,205,149530,6,0,L|215:201,1,95.9999970703126,2|2,0:0|0:0,0:0:0:0:
145,64,150022,1,2,0:3:0:0:
295,17,150268,2,0,P|309:60|296:112,1,95.9999970703126,2|8,0:0|0:0,0:0:0:0:
199,201,150760,1,0,0:0:0:0:
393,111,151005,2,0,L|282:107,1,95.9999970703126,2|0,0:0|0:0,0:0:0:0:
114,252,151497,6,0,P|100:209|113:157,1,95.9999970703126,2|2,0:0|0:3,0:0:0:0:
132,128,151866,1,0,0:0:0:0:
132,128,151989,1,0,0:0:0:0:
287,324,152235,2,0,L|177:330,1,95.9999970703126,2|8,0:0|0:0,0:0:0:0:
334,213,152727,1,0,3:0:0:0:
334,213,152850,1,0,3:0:0:0:
334,213,152973,2,0,L|429:207,1,95.9999970703126,0|0,3:0|0:0,0:0:0:0:
170,98,153464,5,2,0:0:0:0:
326,31,153710,1,2,0:0:0:0:
136,97,153956,1,2,0:3:0:0:
292,164,154202,1,2,3:2:0:0:
292,164,154325,1,0,3:2:0:0:
292,164,154448,5,8,3:2:0:0:
102,230,154694,1,0,0:0:0:0:
258,297,154940,1,0,0:0:0:0:
72,222,155186,1,0,3:2:0:0:
72,222,155309,1,0,3:2:0:0:
72,222,155432,5,2,3:2:0:0:
316,70,155678,1,2,0:0:0:0:
258,297,155924,1,2,0:3:0:0:
194,70,156169,1,2,0:0:0:0:
269,331,156415,6,0,L|361:326,2,71.9999978027344,10|2|2,0:0|3:2|3:2,0:0:0:0:
171,279,157276,1,0,0:0:0:0:
171,279,157399,6,0,B|190:376|190:376|161:361,1,120.000004577637,4|0,0:0|0:0,0:0:0:0:
105,217,157768,2,0,B|12:184|12:184|39:167,1,120.000004577637,2|0,0:0|0:0,0:0:0:0:
186,193,158137,2,0,B|261:128|261:128|263:160,1,120.000004577637,2|8,0:0|0:0,0:0:0:0:
171,366,158628,1,0,3:0:0:0:
171,366,158751,1,0,3:0:0:0:
171,366,158874,1,0,3:0:0:0:
319,265,159120,1,0,0:0:0:0:
166,100,159366,6,0,P|151:143|165:194,1,95.9999970703126,2|2,0:0|0:0,0:0:0:0:
273,56,159858,1,2,0:3:0:0:
319,265,160104,2,0,P|276:250|225:264,1,95.9999970703126,2|8,0:0|0:0,0:0:0:0:
422,358,160596,2,0,P|465:373|516:359,1,95.9999970703126
477,199,161087,1,2,0:0:0:0:
477,199,161210,1,2,0:0:0:0:
477,199,161333,6,0,L|466:94,1,103.999995239258,2|0,0:0|0:0,0:0:0:0:
377,251,161702,2,0,L|388:146,1,103.999995239258,2|0,0:0|0:0,0:0:0:0:
477,303,162071,2,0,L|466:198,1,103.999995239258,2|8,0:0|0:0,0:0:0:0:
397,334,162563,1,0,3:0:0:0:
388,344,162686,1,0,3:0:0:0:
379,354,162809,1,0,3:0:0:0:
287,184,163055,1,0,0:0:0:0:
287,184,163178,1,0,0:0:0:0:
287,184,163301,6,0,P|234:167|201:127,1,95.9999970703126,2|0,0:0|0:0,0:0:0:0:
282,11,163669,2,0,P|293:65|275:113,1,95.9999970703126
134,101,164038,2,0,P|175:63|226:55,1,95.9999970703126,0|8,0:0|0:0,0:0:0:0:
368,138,164530,1,0,3:0:0:0:
368,138,164653,1,0,3:0:0:0:
368,138,164776,1,0,3:0:0:0:
493,14,165022,1,0,0:0:0:0:
512,228,165268,6,0,P|463:228|417:229,1,95.9999970703126,2|2,0:0|0:0,0:0:0:0:
237,334,165760,1,2,3:3:0:0:
237,334,165883,1,0,3:0:0:0:
237,334,166005,2,0,P|284:332|332:332,1,95.9999970703126,2|8,0:0|0:0,0:0:0:0:
413,136,166497,2,0,P|426:181|412:235,1,95.9999970703126
292,187,166989,1,0,0:0:0:0:
126,315,167235,6,0,P|171:296|225:302,1,95.9999970703126,2|2,0:0|0:0,0:0:0:0:
332,332,167727,1,2,0:3:0:0:
126,315,167973,2,0,L|131:203,2,95.9999970703126,2|8|0,0:0|0:0|0:0,0:0:0:0:
238,131,168710,1,0,0:0:0:0:
87,43,168956,1,0,0:0:0:0:
238,131,169202,6,0,P|190:190|106:159,1,143.999995605469,2|0,0:0|0:0,0:0:0:0:
100,169,169694,1,2,0:3:0:0:
295,266,169940,1,2,3:2:0:0:
295,266,170063,1,0,3:0:0:0:
295,266,170186,2,0,L|448:258,2,143.999995605469,8|0|0,3:2|0:0|0:0,0:0:0:0:
149,120,171169,5,0,3:0:0:0:
149,120,171292,1,0,3:0:0:0:
149,120,171415,1,0,3:2:0:0:
305,334,171661,1,0,3:0:0:0:
305,334,171784,1,0,3:0:0:0:
305,334,171907,1,0,3:0:0:0:
305,69,172153,5,0,3:0:0:0:
149,283,172399,1,0,3:0:0:0:
149,283,172522,1,0,3:0:0:0:
149,283,172645,1,0,3:0:0:0:
400,201,172891,1,0,0:0:0:0:
400,201,173014,1,0,0:0:0:0:
400,201,173137,6,0,L|303:183,1,88.000002685547,4|0,0:0|0:0,0:0:0:0:
305,69,173628,1,8,0:0:0:0:
92,121,173874,1,0,0:0:0:0:
92,121,173997,1,0,0:0:0:0:
92,121,174120,2,0,L|189:103,1,88.000002685547,2|0,0:0|3:0,0:0:0:0:
209,100,174489,1,0,3:0:0:0:
209,100,174612,1,8,3:2:0:0:
38,210,174858,1,0,0:0:0:0:
48,223,174981,1,0,0:0:0:0:
59,236,175104,6,0,L|54:331,1,88.000002685547,2|0,0:0|0:0,0:0:0:0:
55,362,175473,1,0,0:0:0:0:
55,362,175596,1,8,0:0:0:0:
236,253,175842,1,0,0:0:0:0:
269,364,176087,2,0,P|218:371|170:342,1,88.000002685547,2|0,0:0|0:0,0:0:0:0:
153,338,176456,1,0,0:0:0:0:
153,338,176579,2,0,L|155:229,1,88.000002685547,8|0,0:0|0:0,0:0:0:0:
314,108,177071,6,0,L|312:195,1,88.000002685547,2|0,0:0|0:0,0:0:0:0:
315,229,177440,1,0,0:0:0:0:
315,229,177563,1,8,0:0:0:0:
154,25,177809,2,0,P|203:40|252:25,1,88.000002685547,0|2,0:0|0:0,0:0:0:0:
412,28,178301,1,0,3:0:0:0:
405,44,178424,1,0,3:0:0:0:
398,60,178546,1,8,3:2:0:0:
496,169,178792,1,0,0:0:0:0:
227,220,179038,6,0,L|345:231,1,88.000002685547,2|0,0:0|0:0,0:0:0:0:
420,367,179530,1,8,0:0:0:0:
488,201,179776,1,0,0:0:0:0:
359,4,180022,2,0,P|340:67|387:136,1,132.00000402832,2|0,0:0|0:0,0:0:0:0:
397,143,180514,1,8,0:0:0:0:
501,18,180760,1,8,0:0:0:0:
488,201,181005,5,2,0:0:0:0:
386,259,181251,1,0,0:0:0:0:
386,259,181374,1,0,0:0:0:0:
386,259,181497,2,0,L|275:244,2,88.000002685547,8|0|2,0:0|0:0|0:0,0:0:0:0:
241,331,182235,1,0,0:0:0:0:
207,152,182481,1,8,0:0:0:0:
126,263,182727,1,0,0:0:0:0:
206,24,182973,6,0,B|222:113|222:113|201:164,2,132.00000402832,2|0|0,0:0|3:0|3:0,0:0:0:0:
184,231,183956,2,0,P|146:211|126:173,1,88.000002685547,2|0,0:0|3:0,0:0:0:0:
131,136,184325,1,0,3:0:0:0:
131,136,184448,1,8,3:2:0:0:
212,325,184694,1,0,0:0:0:0:
212,325,184817,1,0,0:0:0:0:
212,325,184940,6,0,P|258:300|304:309,1,88.000002685547,2|0,0:0|0:0,0:0:0:0:
350,356,185309,2,0,L|446:348,1,88.000002685547
483,288,185678,2,0,B|494:243|494:243|488:197,2,88.000002685547,0|2|0,0:0|0:0|0:0,0:0:0:0:
385,171,186415,1,8,0:0:0:0:
494,89,186661,1,0,0:0:0:0:
307,0,186907,6,0,L|314:96,1,88.000002685547,2|0,0:0|0:0,0:0:0:0:
265,148,187276,1,0,0:0:0:0:
265,148,187399,2,0,L|204:147,3,44.0000013427735,8|0|0|0,0:0|0:0|0:0|0:0,0:0:0:0:
126,207,187891,2,0,L|169:206,3,44.0000013427735,2|0|0|0,0:0|0:0|0:0|0:0,0:0:0:0:
221,265,188383,1,8,0:0:0:0:
235,294,188505,1,0,0:0:0:0:
234,326,188628,1,0,0:0:0:0:
217,355,188751,1,0,0:0:0:0:
190,372,188874,6,0,P|128:349|54:356,2,132.00000402832,2|2|2,0:0|0:0|0:0,0:0:0:0:
389,59,194776,5,2,0:0:0:0:
380,93,195268,1,2,0:0:0:0:
371,127,195760,1,2,0:0:0:0:
362,161,196251,1,2,0:0:0:0:
203,119,196497,5,2,0:0:0:0:
203,119,196620,1,2,0:0:0:0:
203,119,196743,6,0,B|219:191|219:191|203:247|203:247|229:341,1,204.000003890991,4|0,0:0|0:0,0:0:0:0:
283,265,197235,6,0,P|221:239|195:395,1,240,4|0,0:0|0:0,0:0:0:0:
283,265,197727,6,0,L|291:194,2,71.9999978027344,4|8|8,2:1|3:0|3:0,0:0:0:0:
385,65,198710,6,0,L|395:162,1,95.9999970703126,4|0,0:0|0:0,0:0:0:0:
462,201,199079,2,0,L|452:298,1,95.9999970703126,2|0,0:0|0:0,0:0:0:0:
394,349,199448,2,0,P|346:361|298:342,1,95.9999970703126,2|8,0:0|0:0,0:0:0:0:
198,257,199940,1,0,0:0:0:0:
38,367,200186,2,0,L|135:370,1,95.9999970703126
293,259,200678,6,0,L|197:256,1,95.9999970703126,2|2,0:0|0:3,0:0:0:0:
169,255,201046,1,0,0:0:0:0:
169,255,201169,1,0,0:0:0:0:
339,178,201415,2,0,P|377:219|382:279,1,95.9999970703126,2|8,0:0|0:0,0:0:0:0:
323,370,201907,1,0,3:0:0:0:
332,353,202030,1,0,3:0:0:0:
341,336,202153,2,0,L|437:339,1,95.9999970703126,2|0,3:2|0:0,0:0:0:0:
493,196,202645,5,2,0:0:0:0:
304,141,202891,1,2,0:0:0:0:
434,47,203137,1,2,0:3:0:0:
341,237,203383,1,2,3:2:0:0:
341,237,203505,1,0,3:0:0:0:
341,237,203628,2,0,P|282:245|245:224,1,95.9999970703126,8|0,3:2|0:0,0:0:0:0:
82,146,204120,2,0,P|141:138|178:159,1,95.9999970703126
294,344,204612,5,2,0:0:0:0:
92,253,204858,1,2,0:0:0:0:
319,368,205104,1,2,0:3:0:0:
271,123,205350,1,2,3:2:0:0:
271,123,205473,1,0,3:0:0:0:
271,123,205596,6,0,L|266:215,2,71.9999978027344,10|2|2,3:2|0:0|0:0,0:0:0:0:
471,0,206579,6,0,P|444:43|409:78,1,95.9999970703126,2|0,0:0|0:0,0:0:0:0:
400,225,206948,2,0,P|376:180|363:132,1,95.9999970703126,2|0,0:0|0:0,0:0:0:0:
240,51,207317,2,0,P|290:52|338:65,1,95.9999970703126,2|8,0:0|0:0,0:0:0:0:
165,116,207809,1,0,3:0:0:0:
165,116,207932,1,0,3:0:0:0:
165,116,208055,1,0,3:0:0:0:
81,26,208301,1,0,0:0:0:0:
1,199,208546,6,0,L|101:194,1,95.9999970703126,2|2,0:0|0:0,0:0:0:0:
181,259,209038,1,2,0:3:0:0:
12,336,209284,2,0,L|112:331,1,95.9999970703126,2|8,0:0|0:0,0:0:0:0:
251,330,209776,1,0,3:0:0:0:
251,330,209899,1,0,3:0:0:0:
251,330,210022,1,0,3:0:0:0:
271,170,210268,1,0,0:0:0:0:
486,342,210514,6,0,P|454:293|390:283,1,111.999996582031,2|0,0:0|0:0,0:0:0:0:
326,262,210883,2,0,P|358:213|422:203,1,111.999996582031,2|0,0:0|0:0,0:0:0:0:
486,182,211251,2,0,P|454:133|390:123,1,111.999996582031,2|8,0:0|0:0,0:0:0:0:
326,262,211743,1,0,3:0:0:0:
326,262,211866,1,0,3:0:0:0:
326,262,211989,1,0,3:0:0:0:
292,68,212235,1,0,0:0:0:0:
295,82,212358,1,0,0:0:0:0:
297,96,212481,6,0,P|343:73|390:83,1,95.9999970703126,2|2,0:0|0:0,0:0:0:0:
436,135,212850,2,0,L|426:237,1,95.9999970703126
371,283,213219,2,0,L|269:273,1,95.9999970703126,2|8,0:0|0:0,0:0:0:0:
105,357,213710,2,0,L|207:347,1,95.9999970703126
40,273,214202,1,0,0:0:0:0:
88,90,214448,6,0,P|102:137|88:193,1,95.9999970703126,2|2,0:0|0:0,0:0:0:0:
40,273,214940,1,2,0:3:0:0:
189,177,215186,2,0,L|79:183,1,95.9999970703126,2|8,0:0|0:0,0:0:0:0:
235,89,215678,2,0,L|330:83,1,95.9999970703126
429,115,216169,1,0,0:0:0:0:
358,272,216415,6,0,P|338:229|350:184,1,95.9999970703126,2|2,0:0|0:0,0:0:0:0:
440,225,216907,1,2,0:3:0:0:
417,345,217153,2,0,L|535:350,2,95.9999970703126,2|8|0,0:0|0:0|0:0,0:0:0:0:
440,225,217891,1,0,0:0:0:0:
268,188,218137,1,0,0:0:0:0:
406,68,218383,6,0,L|403:214,1,143.999995605469,2|0,0:0|0:0,0:0:0:0:
402,245,218874,1,2,0:3:0:0:
234,181,219120,1,2,0:0:0:0:
154,370,219366,2,0,P|200:328|285:334,2,143.999995605469,8|0|0,0:0|0:0|0:0,0:0:0:0:
76,295,220350,6,0,L|72:334,2,40,0|0|0,3:0|3:0|3:0,3:0:0:0:
12,189,220842,2,0,L|8:228,2,40,0|0|0,3:0|3:0|3:0,3:0:0:0:
101,138,221333,1,0,3:0:0:0:
20,44,221579,1,0,3:0:0:0:
20,44,221702,1,0,3:0:0:0:
20,44,221825,1,0,3:0:0:0:
73,131,222071,1,0,0:0:0:0:
196,53,222317,6,0,P|210:89|201:138,1,80,2|2,0:0|0:0,0:0:0:0:
160,214,222809,1,2,0:3:0:0:
292,288,223055,2,0,L|213:293,1,80,2|8,0:0|0:0,0:0:0:0:
301,197,223546,2,0,L|380:192,1,80
436,115,224038,1,0,0:0:0:0:
495,283,224284,6,0,P|505:239|494:201,1,80,2|2,0:0|0:0,0:0:0:0:
426,140,224776,1,2,0:3:0:0:
272,188,225022,2,0,L|352:201,2,80,2|8|0,0:0|0:0|0:0,0:0:0:0:
196,248,225760,1,0,0:0:0:0:
254,323,226005,1,0,0:0:0:0:
79,348,226251,6,0,P|137:345|180:384,2,120,2|2|2,0:0|0:0|0:0,0:0:0:0:
254,323,227235,2,0,L|422:356,1,160,8|0,0:0|0:0,0:0:0:0:
484,291,227973,1,2,0:0:0:0:
484,291,228096,1,2,0:0:0:0:
484,291,228219,6,0,P|496:245|474:197,2,96,2|0|0,0:0|0:0|0:0,0:0:0:0:
413,160,229448,2,0,L|335:164,2,64
451,92,230186,5,2,0:0:0:0:
188,27,231907,5,2,0:0:0:0:
188,27,232030,1,2,0:0:0:0:
188,27,232153,2,0,L|191:110,2,71.9999978027344,2|0|0,0:0|0:0|0:0,0:0:0:0:
55,181,234120,5,2,0:0:0:0:
144,253,235104,1,2,0:0:0:0:
33,298,236087,6,0,P|22:258|43:200,2,95.9999970703126,2|2|2,0:0|0:0|0:0,0:0:0:0:
80,358,237563,1,2,0:0:0:0:
138,307,238055,5,2,0:0:0:0:
267,328,239776,5,2,0:0:0:0:
267,328,239899,1,2,0:0:0:0:
267,328,240022,2,0,L|355:339,2,71.9999978027344,2|2|2,0:0|0:0|0:0,0:0:0:0:
176,219,241866,5,2,0:0:0:0:
256,192,243956,12,0,247891,0:0:0:0:
