osu file format v14

[General]
AudioFilename: audio.mp3
AudioLeadIn: 0
PreviewTime: 54867
Countdown: 0
SampleSet: Soft
StackLeniency: 0.6
Mode: 0
LetterboxInBreaks: 0
WidescreenStoryboard: 0

[Editor]
Bookmarks: 141669
DistanceSpacing: 1.5
BeatDivisor: 4
GridSize: 4
TimelineZoom: 1

[Metadata]
Title:First Love
TitleUnicode:First Love
Artist:Yuki Yumeno
ArtistUnicode:夢乃ゆき
Creator:timemon
Version:Hard
Source:ヒマワリと恋の記憶
Tags:ED visual novel eroge Himakoi More MME BEST 2013-2016
BeatmapID:1451923
BeatmapSetID:685946

[Difficulty]
HPDrainRate:5
CircleSize:3.6
OverallDifficulty:6
ApproachRate:7
SliderMultiplier:1.4
SliderTickRate:1

[Events]
//Background and Video events
0,0,"waifu2g.jpg",0,0
//Break Periods
2,86779,93548
2,190850,193876
//Storyboard Layer 0 (Background)
//Storyboard Layer 1 (Fail)
//Storyboard Layer 2 (Pass)
//Storyboard Layer 3 (Foreground)
//Storyboard Sound Samples

[TimingPoints]
5924,491.803278688525,4,2,1,40,1,0
7891,-125,4,2,1,40,0,0
39366,-111.111111111111,4,2,1,40,0,0
47235,-100,4,2,1,50,0,0
49202,-125,4,2,1,40,0,0
55104,-100,4,2,1,50,0,1
56333,-100,4,2,1,50,0,1
59038,-100,4,2,1,50,0,1
60268,-100,4,2,1,50,0,1
69858,-125,4,2,1,50,0,0
70842,-100,4,2,1,50,0,1
72071,-100,4,2,1,50,0,1
74776,-100,4,2,1,50,0,1
76005,-100,4,2,1,50,0,1
86579,-125,4,2,1,40,0,0
94448,-111.111111111111,4,2,1,40,0,0
101333,-111.111111111111,4,2,1,40,0,0
102317,-111.111111111111,4,2,1,40,0,0
125924,-100,4,2,1,50,0,0
133792,-100,4,2,1,50,0,0
135760,-100,4,2,1,50,0,0
141661,-90.9090909090909,4,2,1,60,0,1
142645,-90.9090909090909,4,2,1,60,0,1
145596,-90.9090909090909,4,2,1,60,0,1
146579,-90.9090909090909,4,2,1,60,0,1
156415,-125,4,2,1,60,0,0
157399,-90.9090909090909,4,2,1,60,0,1
158383,-90.9090909090909,4,2,1,60,0,1
161333,-90.9090909090909,4,2,1,60,0,1
162317,-90.9090909090909,4,2,1,60,0,1
173137,-100,4,2,1,50,0,0
189612,-125,4,2,1,40,0,0
196743,-100,4,2,1,60,0,0
197235,-83.3333333333333,4,2,1,70,0,0
197727,-125,4,2,1,80,0,0
198096,-125,4,2,1,60,0,0
198710,-90.9090909090909,4,2,1,60,0,1
205596,-125,4,2,1,60,0,0
206579,-90.9090909090909,4,2,1,60,0,1
220350,-100,4,2,1,40,0,0
228219,-125,4,2,1,30,0,0
230186,-166.666666666667,4,2,1,30,0,0
247891,-166.666666666667,4,2,1,5,0,0

[Colours]
Combo1 : 255,170,213
Combo2 : 254,200,150
Combo3 : 255,149,149
Combo4 : 192,192,192

[HitObjects]
111,264,7891,6,0,L|178:260,1,56,2|2,0:0|0:0,0:0:0:0:
231,314,8383,1,0,0:0:0:0:
231,314,8628,2,0,P|288:294|352:323,1,112,0|0,0:0|0:0,0:0:0:0:
403,359,9366,2,0,L|466:358,1,56,0|0,0:0|0:0,0:0:0:0:
499,284,9858,5,2,0:0:0:0:
499,284,10104,2,0,L|490:166,1,112,2|0,0:0|0:0,0:0:0:0:
346,85,11087,2,0,L|409:92,2,56,0|0|0,0:0|0:0|0:0,0:0:0:0:
288,23,11825,6,0,L|225:30,1,56,2|2,0:0|0:0,0:0:0:0:
164,79,12317,1,0,0:0:0:0:
164,79,12563,2,0,P|187:114|170:182,2,112,0|0|0,0:0|0:0|0:0,0:0:0:0:
87,44,13792,1,2,0:0:0:0:
87,44,14038,6,0,B|33:73|33:73|37:140,1,112,2|0,0:0|0:0,0:0:0:0:
86,191,14776,2,0,P|104:228|100:283,2,84,0|0|0,0:0|0:0|0:0,0:0:0:0:
157,117,15760,6,0,L|224:122,1,56,2|2,0:0|0:0,0:0:0:0:
268,58,16251,1,0,0:0:0:0:
268,58,16497,2,0,P|306:74|362:30,1,112,0|0,0:0|0:0,0:0:0:0:
430,78,17235,2,0,L|486:81,1,56
367,145,17727,5,2,0:0:0:0:
367,145,17973,2,0,L|377:270,1,112,2|0,0:0|0:0,0:0:0:0:
445,357,18956,2,0,L|510:353,2,56,0|0|0,0:0|0:0|0:0,0:0:0:0:
372,314,19694,6,0,P|332:290|271:323,1,112,2|0,0:0|0:0,0:0:0:0:
207,363,20432,2,0,L|76:357,2,112,0|0|0,0:0|0:0|0:0,0:0:0:0:
276,314,21661,5,2,0:0:0:0:
276,314,21907,2,0,L|273:257,1,56,0|0,0:0|0:0,0:0:0:0:
190,233,22399,1,0,0:0:0:0:
190,233,22645,2,0,L|192:288,1,56,0|0,0:0|0:0,0:0:0:0:
114,344,23137,2,0,L|111:288,1,56,2|0,0:0|0:0,0:0:0:0:
31,177,23628,6,0,P|61:167|91:169,1,56,2|2,0:0|0:0,0:0:0:0:
150,221,24120,1,0,0:0:0:0:
150,221,24366,2,0,L|268:212,1,112,0|0,0:0|0:0,0:0:0:0:
320,273,25104,2,0,P|329:304|326:340,1,56,0|0,0:0|0:0,0:0:0:0:
410,250,25596,5,2,0:0:0:0:
410,250,25842,2,0,L|412:129,1,112,2|0,0:0|0:0,0:0:0:0:
465,26,26825,2,0,L|523:38,2,56,0|0|0,0:0|0:0|0:0,0:0:0:0:
398,75,27563,5,2,0:0:0:0:
398,75,27809,2,0,P|356:90|296:40,1,112,2|0,0:0|0:0,0:0:0:0:
116,27,28792,2,0,L|237:25,1,112,0|0,0:0|0:0,0:0:0:0:
180,116,29530,5,2,0:0:0:0:
180,116,29776,2,0,L|68:117,2,112,2|0|0,0:0|0:0|0:0,0:0:0:0:
236,178,31005,1,0,0:0:0:0:
130,308,31497,6,0,L|132:248,1,56,2|2,0:0|0:0,0:0:0:0:
206,360,31989,1,0,0:0:0:0:
262,298,32235,2,0,P|293:291|325:291,1,56,0|0,0:0|0:0,0:0:0:0:
395,317,32727,2,0,P|365:293|371:210,1,112,0|0,0:0|0:0,0:0:0:0:
363,139,33464,5,2,0:0:0:0:
363,139,33710,2,0,P|415:161|480:159,2,112,2|0|0,0:0|0:0|0:0,0:0:0:0:
394,60,34940,1,0,0:0:0:0:
394,60,35186,1,0,0:0:0:0:
306,40,35432,6,0,P|257:29|207:73,1,112,2|0,0:0|0:0,0:0:0:0:
168,147,36169,2,0,L|181:270,2,112,0|0|0,0:0|0:0|0:0,0:0:0:0:
104,91,37399,6,0,L|32:94,1,56,2|2,0:0|0:0,0:0:0:0:
155,20,37891,2,0,L|210:17,1,56,0|0,0:0|0:0,0:0:0:0:
271,76,38383,2,0,B|286:108|286:108|279:179,2,84,0|0|0,0:0|0:0|0:0,0:0:0:0:
203,202,39366,6,0,L|207:274,1,62.9999980773926,0|2,0:0|0:0,0:0:0:0:
292,304,39858,2,0,L|288:376,1,62.9999980773926,0|0,0:0|0:0,0:0:0:0:
379,340,40350,1,8,0:0:0:0:
464,379,40596,2,0,P|470:318|412:251,1,125.999996154785,0|0,0:0|0:0,0:0:0:0:
358,211,41333,6,0,L|245:219,2,94.499997116089,2|0|0,0:0|0:0|0:0,0:0:0:0:
419,138,42317,1,0,0:0:0:0:
419,138,42563,1,0,0:0:0:0:
361,63,42809,1,0,0:0:0:0:
441,12,43055,1,2,0:0:0:0:
361,63,43301,6,0,P|323:52|285:51,2,62.9999980773926,2|2|0,0:0|0:0|0:0,0:0:0:0:
419,138,44038,2,0,L|411:268,1,125.999996154785,0|0,0:0|0:0,0:0:0:0:
411,263,45022,1,0,0:0:0:0:
322,343,45268,6,0,P|291:305|211:321,1,125.999996154785,2|0,0:0|0:0,0:0:0:0:
137,357,46005,2,0,P|103:364|34:310,1,125.999996154785
50,218,46743,1,4,0:0:0:0:
4,134,46989,1,0,0:0:0:0:
108,82,47235,6,0,P|142:116|136:207,1,140,4|0,0:0|0:0,0:0:0:0:
258,236,47973,2,0,P|211:248|135:197,1,140,4|0,0:0|0:0,0:0:0:0:
48,289,48710,2,0,P|60:242|142:202,1,140,4|2,0:0|0:0,0:0:0:0:
203,292,49448,6,0,L|127:293,2,56,0|0|2,0:0|0:0|0:0,0:0:0:0:
261,352,50186,1,8,0:0:0:0:
261,352,50678,1,0,0:0:0:0:
333,309,50924,1,0,0:0:0:0:
424,369,51169,6,0,L|506:364,2,56,2|0|0,0:0|0:0|0:0,0:0:0:0:
333,309,51907,2,0,P|308:265|229:259,1,112,2|2,0:0|0:0,0:0:0:0:
193,311,52645,1,8,0:0:0:0:
121,267,52891,1,0,0:0:0:0:
48,311,53137,6,0,P|36:254|56:209,2,84,2|2|8,0:0|0:0|0:0,0:0:0:0:
212,96,54858,5,0,0:0:0:0:
212,96,55104,2,0,P|245:83|287:91,1,70,4|0,0:0|0:0,0:0:0:0:
305,110,55473,2,0,L|303:186,1,70,2|0,0:0|0:0,0:0:0:0:
326,213,55842,2,0,P|384:191|458:229,1,140,2|0,0:0|0:0,0:0:0:0:
281,353,56825,1,2,0:0:0:0:
281,353,56948,1,2,0:0:0:0:
281,353,57071,6,0,L|211:349,1,70,2|2,0:0|0:0,0:0:0:0:
137,273,57563,1,2,0:3:0:0:
197,118,57809,2,0,P|205:152|198:187,1,70,2|8,0:0|0:0,0:0:0:0:
137,273,58301,2,0,L|55:268,1,70,0|0,0:0|0:0,0:0:0:0:
198,185,58792,1,0,0:0:0:0:
260,270,59038,6,0,L|258:348,1,70,2|0,0:0|0:0,0:0:0:0:
285,365,59407,2,0,P|328:343|372:352,1,70,2|0,0:0|0:0,0:0:0:0:
383,363,59776,2,0,P|418:328|397:240,1,140,2|0,0:0|0:0,0:0:0:0:
264,117,60760,1,0,0:0:0:0:
343,48,61005,6,0,L|457:59,2,105,2|0|2,0:0|0:0|0:0,0:0:0:0:
264,117,61989,2,0,L|121:103,1,140,0|0,0:0|0:0,0:0:0:0:
41,167,62727,1,0,0:0:0:0:
108,247,62973,6,0,P|119:285|109:331,1,70,2|2,0:0|0:0,0:0:0:0:
13,290,63464,1,2,0:3:0:0:
132,343,63710,2,0,L|205:333,2,70,2|8|0,0:0|0:0|0:0,0:0:0:0:
251,192,64448,2,0,L|261:265,1,70,2|0,0:0|0:0,0:0:0:0:
409,313,64940,6,0,P|375:321|341:316,2,70,2|2|0,0:0|0:3|0:0,0:0:0:0:
467,225,65678,2,0,B|475:170|475:170|463:81,1,140,2|0,0:0|0:0,0:0:0:0:
374,31,66415,2,0,L|295:35,1,70,0|0,0:0|0:0,0:0:0:0:
229,108,66907,6,0,P|209:76|202:38,2,70,2|2|2,0:0|0:0|0:3,0:0:0:0:
300,185,67645,1,2,0:2:0:0:
300,185,67891,2,0,L|290:333,1,140,8|0,0:0|0:0,0:0:0:0:
83,359,68874,6,0,P|103:327|110:289,2,70,2|2|2,0:0|0:0|0:3,0:0:0:0:
14,278,69612,1,2,0:0:0:0:
123,213,69858,6,0,L|215:223,2,84,10|2|2,0:0|0:0|0:0,0:0:0:0:
256,139,70842,6,0,L|172:129,1,70,4|0,0:0|0:0,0:0:0:0:
157,108,71210,2,0,P|152:72|167:28,1,70,2|0,0:0|0:0,0:0:0:0:
194,18,71579,2,0,P|241:42|331:11,1,140,2|0,0:0|0:0,0:0:0:0:
440,153,72563,1,0,0:0:0:0:
440,153,72809,6,0,L|436:237,1,70,2|2,0:0|0:0,0:0:0:0:
431,328,73301,1,2,0:3:0:0:
342,272,73546,2,0,P|306:262|260:273,1,70,2|8,0:0|0:0,0:0:0:0:
172,293,74038,2,0,P|167:258|177:225,1,70,0|0,0:0|0:0,0:0:0:0:
237,138,74530,1,0,0:0:0:0:
150,78,74776,6,0,P|107:68|71:81,1,70,2|0,0:0|0:0,0:0:0:0:
52,94,75145,2,0,L|57:173,1,70,2|0,0:0|0:0,0:0:0:0:
97,179,75514,2,0,L|87:325,1,140,2|0,0:0|0:0,0:0:0:0:
294,357,76497,1,0,0:0:0:0:
294,357,76620,1,0,0:0:0:0:
294,357,76743,6,0,P|320:323|388:318,2,105,2|0|2,0:0|0:0|0:0,0:0:0:0:
210,292,77727,2,0,L|210:217,1,70,8|0,0:0|0:0,0:0:0:0:
278,141,78219,1,0,0:0:0:0:
192,80,78464,1,0,0:0:0:0:
284,30,78710,6,0,L|365:44,1,70,2|2,0:0|0:0,0:0:0:0:
412,129,79202,1,2,0:3:0:0:
412,129,79448,2,0,P|437:194|409:264,1,140,2|0,0:0|0:0,0:0:0:0:
340,332,80186,1,0,0:0:0:0:
262,260,80432,1,0,0:0:0:0:
262,260,80678,6,0,P|205:238|142:297,1,140,2|2,0:0|0:3,0:0:0:0:
53,330,81415,2,0,P|100:291|80:207,1,140,2|0,0:0|0:0,0:0:0:0:
18,143,82153,1,0,0:0:0:0:
101,79,82399,1,0,0:0:0:0:
203,103,82645,6,0,L|192:234,2,105,2|0|2,0:0|0:0|0:0,0:0:0:0:
290,45,83628,1,8,0:0:0:0:
290,45,84120,1,0,0:0:0:0:
363,120,84366,1,0,0:0:0:0:
363,120,84489,1,0,0:0:0:0:
363,120,84612,6,0,P|392:85|450:90,2,105,0|0|0,0:0|0:0|0:0,0:0:0:0:
270,296,86210,2,0,L|226:291,2,35
297,328,86579,5,2,0:0:0:0:
207,40,94448,5,2,0:0:0:0:
231,65,94940,1,0,0:0:0:0:
315,13,95186,2,0,P|330:60|298:137,1,125.999996154785,2|0,0:0|0:0,0:0:0:0:
230,188,95924,1,0,0:0:0:0:
230,188,96169,1,0,0:0:0:0:
293,257,96415,6,0,L|428:246,1,125.999996154785,2|0,0:0|0:0,0:0:0:0:
491,307,97153,1,0,0:0:0:0:
491,307,97645,1,0,0:0:0:0:
419,369,97891,1,0,0:0:0:0:
333,329,98137,1,0,0:0:0:0:
248,370,98383,6,0,P|201:335|129:343,1,125.999996154785,2|0,0:0|0:0,0:0:0:0:
45,366,99120,2,0,P|27:323|64:241,2,125.999996154785,0|0|0,0:0|0:0|0:0,0:0:0:0:
125,315,100350,6,0,L|219:326,2,94.499997116089,2|2|2,0:0|0:0|0:0,0:0:0:0:
175,235,101333,2,0,L|81:224,2,94.499997116089
276,254,102317,5,2,0:0:0:0:
276,254,102809,1,2,0:0:0:0:
346,316,103055,2,0,B|407:294|407:294|469:306,1,125.999996154785,2|0,0:0|0:0,0:0:0:0:
504,218,103792,1,0,0:0:0:0:
444,144,104038,1,0,0:0:0:0:
366,198,104284,6,0,L|228:186,2,125.999996154785,2|0|0,0:0|0:0|0:0,0:0:0:0:
419,276,105514,1,0,0:0:0:0:
443,368,105760,1,0,0:0:0:0:
353,343,106005,1,0,0:0:0:0:
293,261,106251,6,0,L|433:277,1,125.999996154785,2|0,0:0|0:0,0:0:0:0:
475,199,106989,2,0,B|483:155|483:155|470:70,2,125.999996154785,0|0|0,0:0|0:0|0:0,0:0:0:0:
345,225,108219,6,0,P|390:237|418:275,2,94.499997116089,2|2|2,0:0|0:0|0:0,0:0:0:0:
342,307,109202,2,0,L|248:302,2,94.499997116089
199,230,110186,5,2,0:0:0:0:
199,230,110678,1,0,0:0:0:0:
130,294,110924,2,0,P|89:305|25:246,1,125.999996154785
68,171,111661,1,0,0:0:0:0:
2,103,111907,1,0,0:0:0:0:
69,37,112153,6,0,L|197:61,1,125.999996154785,2|0,0:0|0:0,0:0:0:0:
264,125,112891,2,0,L|392:101,1,125.999996154785,0|0,0:0|0:0,0:0:0:0:
477,72,113628,1,0,0:0:0:0:
457,164,113874,1,0,0:0:0:0:
461,258,114120,6,0,P|429:207|351:208,1,125.999996154785,2|0,0:0|0:0,0:0:0:0:
291,256,114858,2,0,B|281:322|281:322|297:382,2,125.999996154785
311,163,116087,6,0,B|321:97|321:97|305:37,1,125.999996154785,2|2,0:0|0:0,0:0:0:0:
214,12,116825,2,0,L|80:18,1,125.999996154785,2|0,0:0|0:0,0:0:0:0:
14,77,117563,1,2,0:0:0:0:
159,197,118055,5,2,0:0:0:0:
159,197,118546,2,0,L|157:267,1,62.9999980773926,0|0,0:0|0:0,0:0:0:0:
81,317,119038,1,0,0:0:0:0:
154,376,119284,2,0,P|185:348|273:354,1,125.999996154785,0|0,0:0|0:0,0:0:0:0:
320,264,120022,6,0,P|350:295|356:383,2,125.999996154785,2|0|0,0:0|0:0|0:0,0:0:0:0:
186,196,121497,1,0,0:0:0:0:
186,196,121743,1,0,0:0:0:0:
134,282,121989,6,0,L|5:276,1,125.999996154785,2|0,0:0|0:0,0:0:0:0:
60,190,122727,2,0,L|185:195,1,125.999996154785,0|0,0:0|0:0,0:0:0:0:
250,264,123464,1,0,0:0:0:0:
250,264,123710,1,0,0:0:0:0:
331,206,123956,6,0,L|332:129,2,62.9999980773926,2|0|0,0:0|0:0|0:0,0:0:0:0:
402,268,124694,1,0,0:0:0:0:
434,179,124940,2,0,P|458:150|521:150,2,94.499997116089,2|8|8,0:0|3:0|3:0,0:0:0:0:
396,290,125924,6,0,L|320:290,1,70,2|0,0:0|0:0,0:0:0:0:
234,341,126415,1,2,0:0:0:0:
234,341,126661,1,0,0:0:0:0:
154,272,126907,2,0,P|142:237|152:195,1,70,10|0,0:0|0:0,0:0:0:0:
237,150,127399,2,0,P|249:185|239:227,1,70,2|0,0:0|0:0,0:0:0:0:
148,104,127891,6,0,P|184:64|279:66,1,140,2|2,0:0|0:0,0:0:0:0:
345,127,128628,1,0,0:0:0:0:
345,127,128874,2,0,L|342:204,1,70,2|0,0:0|0:0,0:0:0:0:
241,286,129366,2,0,L|243:216,1,70,2|0,0:0|0:0,0:0:0:0:
317,352,129858,5,2,0:0:0:0:
389,275,130104,1,0,0:0:0:0:
481,324,130350,1,2,0:0:0:0:
500,220,130596,2,0,P|505:182|491:139,1,70,0|10,0:0|0:0,0:0:0:0:
398,117,131087,2,0,P|393:79|407:36,1,70,0|2,0:0|0:0,0:0:0:0:
305,2,131579,1,0,0:0:0:0:
305,2,131825,6,0,L|161:7,1,140,2|2,0:0|0:0,0:0:0:0:
40,90,132563,2,0,L|184:95,1,140,0|0,0:0|0:0,0:0:0:0:
262,181,133301,1,6,0:0:0:0:
325,97,133546,1,0,0:0:0:0:
375,204,133792,6,0,B|396:284|396:284|384:354,1,140,4|2,0:0|0:0,0:0:0:0:
250,278,134530,2,0,L|110:273,1,140,4|2,0:0|0:0,0:0:0:0:
177,141,135268,1,4,0:0:0:0:
177,141,136251,6,0,L|258:142,1,70,2|0,0:0|0:0,0:0:0:0:
352,142,136743,2,0,P|358:107|352:73,1,70,2|0,0:0|0:0,0:0:0:0:
246,141,137235,2,0,P|240:178|253:223,1,70,2|0,0:0|0:0,0:0:0:0:
320,304,137727,6,0,L|398:298,2,70,2|0|2,3:2|3:0|3:2,0:0:0:0:
225,358,138464,2,0,P|213:311|113:288,1,140,0|0,3:3|3:3,0:0:0:0:
36,319,139202,1,2,3:2:0:0:
62,217,139448,1,0,3:0:0:0:
148,357,139694,5,0,3:0:0:0:
256,192,139817,12,0,141169,0:0:0:0:
324,137,141661,6,0,L|319:231,1,77.0000023498536,4|0,0:0|0:0,0:0:0:0:
295,247,142030,2,0,P|260:227|220:228,1,77.0000023498536,2|0,0:0|0:0,0:0:0:0:
201,259,142399,2,0,P|166:279|126:278,1,77.0000023498536,2|8,0:0|0:0,0:0:0:0:
36,211,142891,2,0,L|32:161,2,38.5000011749268,0|0|0,3:0|3:0|3:0,0:0:0:0:
35,361,143383,1,2,0:0:0:0:
35,361,143505,1,2,0:0:0:0:
35,361,143628,6,0,L|124:355,1,77.0000023498536,2|2,0:0|0:0,0:0:0:0:
190,270,144120,1,2,0:3:0:0:
280,381,144366,2,0,P|288:341|279:303,1,77.0000023498536,2|8,0:0|0:0,0:0:0:0:
113,264,144858,2,0,L|202:270,1,77.0000023498536,0|0,0:0|0:0,0:0:0:0:
265,181,145350,1,0,0:0:0:0:
181,100,145596,6,0,P|170:60|189:14,1,77.0000023498536,2|0,0:0|0:0,0:0:0:0:
217,12,145964,2,0,L|297:20,1,77.0000023498536,2|0,0:0|0:0,0:0:0:0:
320,50,146333,2,0,L|396:42,1,77.0000023498536,2|8,0:0|0:0,0:0:0:0:
474,93,146825,2,0,L|512:96,2,38.5000011749268,0|0|0,3:0|3:0|3:0,0:0:0:0:
393,142,147317,1,0,0:0:0:0:
393,142,147440,1,0,0:0:0:0:
393,142,147563,6,0,P|368:185|387:255,2,115.50000352478,2|2|2,0:0|0:0|0:0,0:0:0:0:
308,63,148546,2,0,L|223:65,2,77.0000023498536,8|0|0,0:0|3:0|3:0,0:0:0:0:
393,142,149284,1,0,0:0:0:0:
297,258,149530,6,0,P|288:221|303:172,1,77.0000023498536,2|2,0:0|0:0,0:0:0:0:
393,142,150022,1,2,0:3:0:0:
373,254,150268,2,0,L|288:258,1,77.0000023498536,2|8,0:0|0:0,0:0:0:0:
197,318,150760,1,0,0:0:0:0:
300,346,151005,2,0,L|223:342,1,77.0000023498536,2|0,0:0|0:0,0:0:0:0:
158,179,151497,6,0,P|145:215|156:257,2,77.0000023498536,2|2|0,0:0|0:3|0:0,0:0:0:0:
259,122,152235,2,0,P|272:86|261:44,2,77.0000023498536,2|8|0,0:0|0:0|3:0,0:0:0:0:
186,17,152973,2,0,L|101:19,1,77.0000023498536,0|0,3:0|0:0,0:0:0:0:
24,97,153464,5,2,0:0:0:0:
94,188,153710,1,2,0:0:0:0:
34,287,153956,1,2,0:3:0:0:
126,356,154202,1,2,3:2:0:0:
126,356,154448,2,0,L|234:352,1,77.0000023498536,8|0,3:2|0:0,0:0:0:0:
342,265,154940,2,0,L|265:267,1,77.0000023498536,0|0,0:0|3:2,0:0:0:0:
264,151,155432,5,2,3:2:0:0:
158,197,155678,1,2,0:0:0:0:
112,91,155924,1,2,0:3:0:0:
218,45,156169,1,2,0:0:0:0:
264,151,156415,6,0,L|255:251,2,84,10|2|2,0:0|3:2|3:2,0:0:0:0:
319,93,157276,1,0,0:0:0:0:
319,93,157399,6,0,P|357:86|406:102,1,77.0000023498536,4|0,0:0|0:0,0:0:0:0:
424,126,157768,2,0,L|430:209,1,77.0000023498536,2|0,0:0|0:0,0:0:0:0:
412,233,158137,2,0,L|406:309,1,77.0000023498536,2|8,0:0|0:0,0:0:0:0:
482,368,158628,1,0,3:0:0:0:
482,368,158751,1,0,3:0:0:0:
482,368,158874,1,0,3:0:0:0:
388,300,159120,1,0,0:0:0:0:
483,234,159366,6,0,P|496:191|484:147,1,77.0000023498536,2|2,0:0|0:0,0:0:0:0:
391,100,159858,1,2,0:3:0:0:
512,20,160104,2,0,L|427:20,1,77.0000023498536,2|8,0:0|0:0,0:0:0:0:
314,100,160596,2,0,L|391:100,1,77.0000023498536,0|0,0:0|0:0,0:0:0:0:
268,187,161087,1,2,0:0:0:0:
268,187,161210,1,2,0:0:0:0:
268,187,161333,6,0,P|237:159|190:150,1,77.0000023498536,2|0,0:0|0:0,0:0:0:0:
170,167,161702,2,0,L|165:248,1,77.0000023498536,2|0,0:0|0:0,0:0:0:0:
163,277,162071,2,0,B|124:292|124:292|89:280,1,77.0000023498536,2|8,0:0|0:0,0:0:0:0:
228,345,162563,2,0,L|286:343,2,38.5000011749268,0|0|0,3:0|3:0|3:0,0:0:0:0:
327,265,163055,1,0,0:0:0:0:
327,265,163178,1,0,0:0:0:0:
327,265,163301,6,0,P|378:283|439:247,2,115.50000352478,2|0|0,0:0|0:0|0:0,0:0:0:0:
238,190,164284,1,8,0:0:0:0:
326,115,164530,2,0,L|382:118,2,38.5000011749268,0|0|0,3:0|3:0|3:0,0:0:0:0:
237,40,165022,1,0,0:0:0:0:
150,151,165268,6,0,P|139:187|153:235,1,77.0000023498536,2|2,0:0|0:0,0:0:0:0:
216,317,165760,1,2,3:3:0:0:
112,367,166005,2,0,L|27:366,1,77.0000023498536,2|8,0:0|0:0,0:0:0:0:
216,317,166497,2,0,L|292:317,1,77.0000023498536,0|0,0:0|0:0,0:0:0:0:
391,378,166989,1,0,0:0:0:0:
437,272,167235,6,0,P|443:228|433:195,1,77.0000023498536,2|2,0:0|0:0,0:0:0:0:
355,112,167727,1,2,0:3:0:0:
486,36,167973,2,0,L|387:39,2,77.0000023498536,2|8|0,0:0|0:0|0:0,0:0:0:0:
442,142,168710,1,0,0:0:0:0:
488,247,168956,1,0,0:0:0:0:
395,316,169202,6,0,L|271:308,2,115.50000352478,2|0|2,0:0|0:0|3:2,0:0:0:0:
471,383,170186,2,0,P|497:324|465:243,1,154.000004699707,8|0,3:2|0:0,0:0:0:0:
269,123,171169,6,0,L|177:128,2,77.0000023498536,0|0|0,3:0|3:2|3:0,0:0:0:0:
373,154,171907,2,0,P|380:110|369:64,1,77.0000023498536,0|0,3:0|3:0,0:0:0:0:
286,2,172399,1,0,3:0:0:0:
269,123,172645,1,0,3:0:0:0:
175,55,172891,1,0,0:0:0:0:
175,55,173014,1,0,0:0:0:0:
175,55,173137,6,0,L|93:61,1,70,4|0,0:0|0:0,0:0:0:0:
33,137,173628,1,8,0:0:0:0:
112,205,173874,1,0,0:0:0:0:
112,205,173997,1,0,0:0:0:0:
112,205,174120,2,0,P|125:246|117:289,1,70,2|0,0:0|3:0,0:0:0:0:
83,370,174612,1,8,3:2:0:0:
186,349,174858,1,0,0:0:0:0:
186,349,174981,1,0,0:0:0:0:
186,349,175104,6,0,P|230:340|261:346,1,70,2|0,0:0|0:0,0:0:0:0:
284,366,175473,2,0,P|318:369|352:360,1,70,0|0,0:0|0:0,0:0:0:0:
388,345,175842,1,0,0:0:0:0:
441,255,176087,2,0,B|431:174|431:174|460:183,2,105,2|0|0,0:0|0:0|0:0,0:0:0:0:
331,161,177071,6,0,L|339:240,1,70,2|0,0:0|0:0,0:0:0:0:
318,263,177440,1,0,0:0:0:0:
318,263,177563,2,0,P|268:247|236:254,1,70,8|0,0:0|0:0,0:0:0:0:
138,329,178055,2,0,P|188:313|220:320,2,70,2|0|8,0:0|3:0|3:2,0:0:0:0:
64,375,178792,1,0,0:0:0:0:
15,253,179038,6,0,L|22:159,1,70,2|0,0:0|0:0,0:0:0:0:
102,116,179530,1,8,0:0:0:0:
31,37,179776,1,0,0:0:0:0:
144,3,180022,2,0,P|182:38|248:26,1,105,2|0,0:0|0:0,0:0:0:0:
265,22,180514,1,8,0:0:0:0:
255,126,180760,1,8,0:0:0:0:
350,84,181005,6,0,L|429:80,1,70,2|0,0:0|0:0,0:0:0:0:
448,104,181374,1,0,0:0:0:0:
448,104,181497,2,0,P|469:141|464:182,2,70,8|0|2,0:0|0:0|0:0,0:0:0:0:
350,84,182235,2,0,L|280:87,2,70,0|8|0,0:0|0:0|0:0,0:0:0:0:
213,146,182973,6,0,B|205:191|205:191|217:256,2,105,2|0|0,0:0|3:0|3:0,0:0:0:0:
277,63,183956,2,0,P|311:47|354:51,1,70,2|0,0:0|3:0,0:0:0:0:
423,124,184448,2,0,P|389:140|346:136,1,70,8|0,3:2|0:0,0:0:0:0:
272,201,184940,6,0,L|278:279,1,70,2|0,0:0|0:0,0:0:0:0:
324,283,185309,2,0,L|318:361,1,70,0|0,0:0|0:0,0:0:0:0:
282,376,185678,2,0,P|245:337|158:352,1,140,0|0,0:0|0:0,0:0:0:0:
61,324,186415,1,8,0:0:0:0:
113,233,186661,1,0,0:0:0:0:
34,163,186907,6,0,L|28:88,1,70,2|0,0:0|0:0,0:0:0:0:
103,18,187399,2,0,L|152:27,3,35,8|0|0|0,0:0|0:0|0:0|0:0,0:0:0:0:
137,103,187891,2,0,L|174:135,3,35,2|0|0|0,0:0|0:0|0:0|0:0,0:0:0:0:
123,193,188383,2,0,L|139:239,3,35,8|0|0|0,0:0|0:0|0:0|0:0,0:0:0:0:
107,298,188874,6,0,P|153:267|217:275,2,105,2|2|2,0:0|0:0|0:0,0:0:0:0:
298,122,194776,5,2,0:0:0:0:
294,137,195268,1,2,0:0:0:0:
290,152,195760,1,2,0:0:0:0:
286,167,196251,1,2,0:0:0:0:
205,114,196497,1,2,0:0:0:0:
205,114,196620,1,2,0:0:0:0:
205,114,196743,6,0,L|90:124,1,105,4|0,0:0|0:0,0:0:0:0:
31,85,197235,6,0,P|71:126|52:216,1,125.999996154785,4|0,0:0|0:0,0:0:0:0:
21,253,197727,6,0,L|27:344,2,84,4|8|8,2:1|3:0|3:0,0:0:0:0:
112,363,198710,6,0,P|149:344|191:342,1,77.0000023498536,4|0,0:0|0:0,0:0:0:0:
214,362,199079,2,0,L|308:358,1,77.0000023498536,2|0,0:0|0:0,0:0:0:0:
322,345,199448,2,0,B|344:313|344:313|342:268,1,77.0000023498536,2|8,0:0|0:0,0:0:0:0:
343,158,199940,1,0,0:0:0:0:
434,228,200186,2,0,P|470:242|514:228,1,77.0000023498536,0|0,0:0|0:0,0:0:0:0:
343,158,200678,6,0,L|259:162,2,77.0000023498536,2|2|0,0:0|0:3|0:0,0:0:0:0:
413,66,201415,2,0,P|416:26|392:-12,2,77.0000023498536,2|8|0,0:0|0:0|3:0,0:0:0:0:
343,158,202153,2,0,L|259:162,1,77.0000023498536,2|0,3:2|0:0,0:0:0:0:
175,89,202645,5,2,0:0:0:0:
97,174,202891,1,2,0:0:0:0:
169,264,203137,1,2,0:3:0:0:
96,353,203383,1,2,3:2:0:0:
96,353,203628,2,0,L|16:340,1,77.0000023498536,8|0,3:2|0:0,0:0:0:0:
169,264,204120,2,0,L|249:251,1,77.0000023498536,0|0,0:0|0:0,0:0:0:0:
279,362,204612,5,2,0:0:0:0:
360,279,204858,1,2,0:0:0:0:
466,322,205104,1,2,0:3:0:0:
505,213,205350,1,2,3:2:0:0:
505,213,205473,1,0,3:0:0:0:
505,213,205596,6,0,L|496:121,2,84,10|2|2,3:2|0:0|0:0,0:0:0:0:
360,279,206579,6,0,P|321:255|276:259,1,77.0000023498536,2|0,0:0|0:0,0:0:0:0:
262,276,206948,2,0,P|224:273|192:251,1,77.0000023498536,2|0,0:0|0:0,0:0:0:0:
168,223,207317,2,0,L|170:144,1,77.0000023498536,2|8,0:0|0:0,0:0:0:0:
175,30,207809,1,0,3:0:0:0:
175,30,207932,1,0,3:0:0:0:
175,30,208055,1,0,3:0:0:0:
73,86,208301,1,0,0:0:0:0:
175,30,208546,6,0,P|214:40|264:23,1,77.0000023498536,2|2,0:0|0:0,0:0:0:0:
339,104,209038,1,2,0:3:0:0:
255,183,209284,2,0,L|164:176,1,77.0000023498536,2|8,0:0|0:0,0:0:0:0:
38,254,209776,2,0,P|77:240|129:247,1,77.0000023498536,0|0,3:0|3:0,0:0:0:0:
176,346,210268,1,0,0:0:0:0:
264,271,210514,6,0,L|256:182,1,77.0000023498536,2|0,0:0|0:0,0:0:0:0:
271,162,210883,2,0,L|277:85,1,77.0000023498536,2|0,0:0|0:0,0:0:0:0:
269,47,211251,2,0,P|225:63|180:42,1,77.0000023498536,2|8,0:0|0:0,0:0:0:0:
85,23,211743,2,0,L|37:29,2,38.5000011749268,0|0|0,3:0|3:0|3:0,0:0:0:0:
128,130,212235,1,0,0:0:0:0:
128,130,212358,1,0,0:0:0:0:
128,130,212481,6,0,B|151:185|151:185|144:253,2,115.50000352478,2|0|2,0:0|0:0|0:0,0:0:0:0:
264,61,213464,2,0,L|188:55,2,77.0000023498536,8|0|0,0:0|0:0|0:0,0:0:0:0:
332,155,214202,1,0,0:0:0:0:
412,83,214448,6,0,P|433:122|433:173,1,77.0000023498536,2|2,0:0|0:0,0:0:0:0:
386,250,214940,1,2,0:3:0:0:
255,144,215186,2,0,L|349:157,1,77.0000023498536,2|8,0:0|0:0,0:0:0:0:
462,260,215678,2,0,L|385:249,1,77.0000023498536,0|0,0:0|0:0,0:0:0:0:
429,356,216169,1,0,0:0:0:0:
312,328,216415,6,0,P|279:292|233:287,1,77.0000023498536,2|2,0:0|0:0,0:0:0:0:
145,298,216907,1,2,0:3:0:0:
141,190,217153,2,0,L|143:266,2,77.0000023498536,2|8|0,0:0|0:0|0:0,0:0:0:0:
195,96,217891,1,0,0:0:0:0:
107,32,218137,1,0,0:0:0:0:
221,114,218383,6,0,P|258:134|335:97,2,115.50000352478,2|0|2,0:0|0:0|0:0,0:0:0:0:
125,49,219366,2,0,L|-1:60,2,115.50000352478,8|0|0,0:0|0:0|0:0,0:0:0:0:
193,149,220350,6,0,L|192:107,2,35,0|0|0,3:0|3:0|3:0,0:0:0:0:
105,207,220842,2,0,L|104:165,2,35,0|0|0,3:0|3:0|3:0,0:0:0:0:
194,261,221333,1,0,3:0:0:0:
123,339,221579,1,0,3:0:0:0:
123,339,221702,1,0,3:0:0:0:
123,339,221825,1,0,3:0:0:0:
93,238,222071,1,0,3:0:0:0:
194,261,222317,6,0,P|218:288|227:324,1,70,2|2,0:0|0:0,0:0:0:0:
317,373,222809,1,2,0:3:0:0:
369,282,223055,2,0,L|443:299,2,70,2|8|0,0:0|0:0|0:0,0:0:0:0:
308,196,223792,1,0,0:0:0:0:
358,103,224038,1,0,0:0:0:0:
272,41,224284,6,0,P|226:53|185:43,1,70,2|2,0:0|0:0,0:0:0:0:
101,25,224776,1,2,0:3:0:0:
44,113,225022,2,0,L|51:197,2,70,2|8|0,0:0|0:0|0:0,0:0:0:0:
101,25,225760,1,0,0:0:0:0:
168,103,226005,1,0,0:0:0:0:
250,37,226251,6,0,B|292:20|292:20|365:41,2,105,2|2|2,0:0|0:0|0:0,0:0:0:0:
168,103,227235,2,0,L|179:245,1,140,8|0,0:0|0:0,0:0:0:0:
255,315,227973,1,2,0:0:0:0:
255,315,228096,1,2,0:0:0:0:
255,315,228219,1,2,0:0:0:0:
306,249,230186,5,2,0:0:0:0:
217,226,231907,5,2,0:0:0:0:
217,226,232030,1,2,0:0:0:0:
217,226,232153,2,0,P|174:209|146:213,2,62.9999980773926,2|0|0,0:0|0:0|0:0,0:0:0:0:
128,288,234120,5,2,0:0:0:0:
80,198,235104,1,2,0:0:0:0:
143,107,236087,6,0,L|235:133,2,83.9999974365235,2|2|2,0:0|0:0|0:0,0:0:0:0:
83,46,237563,1,2,0:0:0:0:
35,115,238055,5,2,0:0:0:0:
128,194,239776,5,2,0:0:0:0:
128,194,239899,1,2,0:0:0:0:
128,194,240022,2,0,L|199:192,2,62.9999980773926,2|2|2,0:0|0:0|0:0,0:0:0:0:
227,122,241866,5,2,0:0:0:0:
256,192,243956,12,0,247891,0:0:0:0:
