osu file format v14

[General]
AudioFilename: audio.mp3
AudioLeadIn: 0
PreviewTime: -1
Countdown: 0
SampleSet: Soft
StackLeniency: 0.4
Mode: 0
LetterboxInBreaks: 0
WidescreenStoryboard: 1

[Editor]
DistanceSpacing: 0.3
BeatDivisor: 4
GridSize: 32
TimelineZoom: 1.6

[Metadata]
Title:Mousou 4tune
TitleUnicode:猛争4ちゅーん
Artist:Yuki Shinichi
ArtistUnicode:Yuki Shinichi
Creator:SilenceKakashi
Version:Extra
Source:新次元ゲイム ネプテューヌVII
Tags:Choujigen Game Neptune Hyperdimension Neptunia G OP opening Megadimension Neptunia VII Shinjigen Game Neptune Victory II V2 Victory 2
BeatmapID:1553042
BeatmapSetID:735794

[Difficulty]
HPDrainRate:6.1
CircleSize:4
OverallDifficulty:7.2
ApproachRate:9
SliderMultiplier:1.4
SliderTickRate:1

[Events]
//Background and Video events
Video,0,"Hyper Dimension Neptunia G Opening.mp4"
0,0,"EHHMMMMMM.png",0,0
//Break Periods
//Storyboard Layer 0 (Background)
//Storyboard Layer 1 (Fail)
//Storyboard Layer 2 (Pass)
//Storyboard Layer 3 (Foreground)
//Storyboard Sound Samples

[TimingPoints]
576,333.333333333333,4,2,1,40,1,0
2242,-95.2380952380952,4,2,1,40,0,0
3242,-111.111111111111,4,2,1,40,0,0
3575,-100,4,2,1,40,0,0
4242,-95.2380952380952,4,2,1,40,0,0
5575,-90.9090909090909,4,2,1,40,0,0
6575,-100,4,2,1,40,0,0
6909,-86.9565217391304,4,2,1,40,0,0
7242,-90.9090909090909,4,2,1,40,0,0
8575,-76.9230769230769,4,2,2,60,0,1
9075,-68.9655172413793,4,2,2,60,0,1
9909,-83.3333333333333,4,2,2,60,0,1
11742,-83.3333333333333,4,2,2,20,0,1
11909,-100,4,2,2,60,0,1
12409,-66.6666666666667,4,2,2,60,0,1
12909,-100,4,2,2,60,0,1
13409,-86.9565217391304,4,2,2,60,0,1
13575,-76.9230769230769,4,2,2,60,0,1
13909,-133.333333333333,4,2,3,35,0,0
18575,-100,4,2,3,35,0,0
19575,-90.9090909090909,4,2,3,35,0,0
19909,-83.3333333333333,4,2,3,35,0,0
20242,-76.9230769230769,4,2,3,35,0,0
22242,-55.5555555555556,4,2,3,35,0,0
23075,-125,4,2,3,35,0,0
23909,-100,4,2,3,35,0,0
24242,-83.3333333333333,4,2,3,35,0,0
24659,-83.3333333333333,4,2,1,35,0,0
25742,-83.3333333333333,4,2,2,60,0,1
26242,-76.9230769230769,4,2,2,60,0,1
27075,-71.4285714285714,4,2,2,60,0,1
28409,-66.6666666666667,4,2,3,60,0,1
28909,-83.3333333333333,4,2,2,60,0,1
29242,-100,4,2,2,60,0,1
29742,-80,4,2,2,60,0,1
30909,-80,4,2,2,20,0,1
31242,-80,4,2,1,60,0,1
31909,-80,4,2,2,60,0,1
32409,-62.5,4,2,2,60,0,1
33075,-71.4285714285714,4,2,2,60,0,1
33409,-71.4285714285714,4,2,1,60,0,1
33742,-76.9230769230769,4,2,1,60,0,1
34075,-71.4285714285714,4,2,2,60,0,1
34575,-76.9230769230769,4,2,1,60,0,1
35075,-66.6666666666667,4,2,3,60,0,1
35742,-58.8235294117647,4,2,2,60,0,1
36409,-71.4285714285714,4,2,4,60,0,1
36742,-66.6666666666667,4,2,2,60,0,1
37742,-76.9230769230769,4,2,2,60,0,1
38409,-74.0740740740741,4,2,2,60,0,1
39075,-74.0740740740741,4,2,3,60,0,1
39575,-74.0740740740741,4,2,2,60,0,1
40409,-68.9655172413793,4,2,1,60,0,1
40742,-64.5161290322581,4,2,3,60,0,1
41075,-60.6060606060606,4,2,2,60,0,1
41409,-60.6060606060606,4,2,4,60,0,1
41575,-60.6060606060606,4,2,2,20,0,1
41909,-76.9230769230769,4,2,2,20,0,1
42242,-80,4,2,2,60,0,1
42742,-74.0740740740741,4,2,2,60,0,1
43075,-71.4285714285714,4,2,3,60,0,1
43575,-76.9230769230769,4,2,3,60,0,1
44575,-64.5161290322581,4,2,2,60,0,1
45075,-62.5,4,2,1,60,0,1
45242,-62.5,4,2,3,60,0,1
45742,-58.8235294117647,4,2,3,60,0,1
46409,-100,4,2,2,60,0,1
47242,-79.6460212232753,4,2,1,60,0,1
47909,-79.6460212232753,4,2,2,60,0,1
48075,-79.6460212232753,4,2,3,60,0,1
48409,-133.333333333333,4,2,1,40,0,0
55825,-133.333333333333,4,2,2,40,0,0

[Colours]
Combo1 : 255,192,0
Combo2 : 255,255,255
Combo3 : 18,124,255
Combo4 : 255,255,255

[HitObjects]
211,242,576,5,2,0:0:0:0:
253,169,742,2,0,L|228:79,1,70,0|8,0:0|0:0,0:0:0:0:
279,308,1075,5,0,0:0:0:0:
293,225,1241,2,0,L|238:148,1,70,2|0,0:0|0:0,0:0:0:0:
366,347,1575,5,8,0:0:0:0:
350,264,1741,2,0,L|271:210,1,70,2|0,0:0|0:0,0:0:0:0:
209,207,2075,1,0,0:0:0:0:
305,89,2242,2,0,P|356:67|399:65,1,73.4999977569581,10|0,0:0|0:0,0:0:0:0:
209,207,2575,2,0,P|233:157|265:128,1,73.4999977569581,2|0,0:0|0:0,0:0:0:0:
373,64,2909,5,10,0:0:0:0:
373,64,3242,2,2,L|384:174,1,94.499997116089,0|0,0:0|0:0,0:0:0:0:
379,185,3575,2,0,P|350:217|320:229,1,70,8|0,0:0|0:0,0:0:0:0:
248,247,3909,1,0,0:0:0:0:
298,117,4075,1,2,0:0:0:0:
163,225,4242,6,0,P|133:275|119:312,1,73.4999977569581,8|0,0:0|0:0,0:0:0:0:
107,375,4575,1,2,0:0:0:0:
266,267,4909,1,8,0:0:0:0:
289,182,5075,1,0,0:0:0:0:
200,308,5242,2,0,P|151:346|117:350,1,73.4999977569581,0|2,0:0|0:0,0:0:0:0:
163,225,5575,6,0,B|180:171|180:171|229:148|259:105,1,154.000004699707,10|0,0:0|3:2,0:0:0:0:
351,194,6242,1,8,0:0:0:0:
251,274,6409,1,0,0:0:0:0:
356,117,6575,2,0,P|357:72|310:22,1,105
290,42,6909,6,0,L|270:87,1,40.2500007677078,8|0,0:0|0:0,0:0:0:0:
207,231,7075,1,0,0:0:0:0:
308,290,7242,2,0,P|372:300|448:233,1,154.000004699707,2|8,0:0|0:0,0:0:0:0:
253,119,7742,2,0,P|323:145|354:214,1,154.000004699707,0|2,0:0|0:0,0:0:0:0:
259,215,8242,1,0,0:0:0:0:
396,90,8409,1,0,0:0:0:0:
353,213,8575,6,0,P|347:270|350:318,1,90.9999958343508,4|0,0:0|0:0,0:0:0:0:
364,377,8909,1,8,0:0:0:0:
259,215,9075,2,2,B|239:168|202:154|202:154|205:120|205:120|164:96|146:54,1,203.000006195069,0|2,0:0|0:0,0:1:0:0:
252,20,9575,1,8,0:0:0:0:
167,243,9742,1,0,0:0:0:0:
329,120,9909,6,0,P|380:92|420:77,1,83.9999974365235,2|0,0:0|0:0,0:0:0:0:
485,63,10242,1,8,0:0:0:0:
417,182,10409,1,0,0:0:0:0:
361,14,10575,1,2,0:0:0:0:
506,140,10742,1,0,0:0:0:0:
315,112,10909,6,0,B|269:133|224:120|224:120|180:144,1,125.999996154785,10|0,0:0|0:0,0:0:0:0:
186,145,11242,1,2,0:0:0:0:
234,304,11409,1,0,0:0:0:0:
245,212,11575,1,8,0:0:0:0:
131,351,11742,1,8,0:0:0:0:
131,351,11825,1,8,0:0:0:0:
131,351,11909,6,2,P|112:307|120:229,1,105,2|0,0:0|0:0,0:0:0:0:
140,173,12242,1,10,0:0:0:0:
347,216,12409,2,2,B|389:221|416:246|416:246|471:253|471:253|499:275|547:293,1,210.000008010865,2|2,0:0|0:0,0:1:0:0:
437,329,12909,1,8,0:0:0:0:
403,340,12992,1,0,0:0:0:0:
368,342,13075,1,2,0:1:0:0:
332,339,13159,1,0,0:0:0:0:
298,329,13242,6,0,L|284:291,1,35
238,152,13409,2,0,L|224:190,1,40.2500007677078
165,346,13575,2,0,L|149:301,1,45.4999979171754,8|0,0:0|0:0,0:0:0:0:
107,162,13742,1,0,0:0:0:0:
103,116,13825,1,0,0:0:0:0:
104,73,13909,6,0,B|137:57|173:66|173:66|184:56|184:56|221:68|271:49,1,157.500006008148,4|2,0:0|0:0,0:0:0:0:
326,0,14575,2,0,P|343:47|340:106,1,105.000004005432,2|8,0:1|0:3,0:0:0:0:
305,177,15075,1,2,0:1:0:0:
153,69,15242,2,0,P|200:52|259:55,1,105.000004005432,2|8,1:2|0:0,0:0:0:0:
251,239,15909,6,0,P|276:195|292:179,1,52.5000020027161,10|8,0:2|0:0,0:0:0:0:
347,139,16242,1,0,0:0:0:0:
317,281,16409,1,2,3:2:0:0:
297,329,16492,1,0,0:0:0:0:
260,366,16575,6,0,B|227:382|191:373|191:373|180:383|180:383|143:371|93:390,1,157.500006008148,2|2,0:2|0:0,0:0:0:0:
223,298,17242,2,0,P|270:281|329:284,1,105.000004005432,12|8,1:2|1:0,0:0:0:0:
393,322,17742,1,10,0:0:0:0:
365,228,17909,2,2,P|332:192|312:181,1,52.5000020027161,2|8,0:3|0:0,0:1:0:0:
232,182,18242,2,0,L|204:200,3,26.2500010013581,0|0|0|0,3:2|3:2|3:2|3:2,3:2:0:0:
133,283,18575,2,0,L|92:271,3,35,0|0|0|0,3:2|3:2|3:2|3:2,3:2:0:0:
59,199,18909,5,0,3:2:0:0:
56,181,18992,1,0,3:2:0:0:
56,163,19075,1,0,3:2:0:0:
59,145,19159,1,0,3:2:0:0:
65,128,19242,6,0,L|92:93,3,35,8|0|0|0,3:2|3:2|3:2|3:2,3:2:0:0:
143,184,19575,2,0,L|173:222,3,38.5000011749268,8|0|0|0,3:2|3:2|3:2|3:2,3:2:0:0:
223,138,19909,2,0,L|255:97,3,41.9999987182618,8|0|0|0,3:2|3:2|3:2|3:2,3:2:0:0:
300,194,20242,2,0,L|332:235,3,41.9999987182618,0|0|0|0,3:2|3:2|3:2|3:2,3:2:0:0:
293,328,20575,5,10,3:2:0:0:
278,345,20659,1,0,3:2:0:0:
257,355,20742,1,0,3:2:0:0:
234,358,20825,1,0,3:2:0:0:
211,353,20909,5,10,3:2:0:0:
222,323,20992,1,0,3:2:0:0:
223,291,21075,1,2,3:2:0:0:
215,259,21159,1,0,3:2:0:0:
198,231,21242,1,10,3:2:0:0:
180,204,21325,1,0,3:2:0:0:
167,174,21409,1,2,3:2:0:0:
161,142,21492,1,0,3:2:0:0:
161,110,21575,5,10,3:2:0:0:
169,106,21659,1,8,3:2:0:0:
177,103,21742,1,8,3:2:0:0:
185,100,21825,1,10,3:1:0:0:
193,97,21909,2,0,L|243:98,3,45.4999979171754,2|0|0|0,3:1|3:2|3:2|3:2,3:2:0:0:
303,162,22242,1,0,0:0:0:0:
316,171,22325,1,0,0:0:0:0:
329,180,22409,5,10,0:0:0:0:
341,297,22742,2,0,P|318:254|337:168,1,125.999996154785,10|0,0:0|0:1,0:0:0:0:
113,96,23075,2,2,L|63:207,1,112,12|0,0:0|0:1,0:1:0:0:
70,284,23575,2,0,L|90:317,3,28,0|0|0|0,3:2|3:2|3:2|3:2,3:2:0:0:
182,288,23909,2,0,L|222:293,3,35,0|0|0|0,3:2|3:2|3:2|3:2,3:2:0:0:
282,214,24242,2,0,L|324:193,3,41.9999987182618,0|0|0|0,3:2|3:2|3:2|3:2,3:2:0:0:
356,83,24575,5,12,0:0:0:0:
335,139,25242,6,0,L|346:195,1,41.9999987182618,8|8,0:0|0:0,0:0:0:0:
273,252,25409,1,0,0:0:0:0:
272,260,25492,1,10,0:0:0:0:
272,268,25575,1,2,0:0:0:0:
263,309,25659,1,2,0:0:0:0:
233,338,25742,6,0,P|186:296|164:244,1,83.9999974365235,6|0,0:0|0:0,0:0:0:0:
137,184,26075,1,2,0:0:0:0:
313,137,26242,2,0,P|380:135|467:148,1,136.499993751526,10|0,0:0|0:0,0:0:0:0:
486,153,26575,1,2,0:0:0:0:
393,286,26742,1,2,0:0:0:0:
364,49,26909,5,10,0:0:0:0:
259,200,27075,2,2,B|237:239|201:251|201:251|174:290|174:290|136:303|103:354,1,195.999994018555,4|2,0:0|0:0,0:0:0:0:
191,371,27575,1,10,0:0:0:0:
173,127,27742,1,2,0:1:0:0:
256,300,27909,5,2,0:0:0:0:
275,137,28076,1,2,0:0:0:0:
312,232,28242,1,8,0:0:0:0:
206,209,28409,6,0,B|118:201|118:201|91:215|91:215|-12:206,1,210.000008010865,6|0,0:0|0:0,0:0:0:0:
150,289,28909,2,0,P|210:313|287:310,1,125.999996154785,8|0,0:0|0:0,0:0:0:0:
340,288,29242,2,0,L|333:186,1,70,2|2,0:0|0:0,0:0:0:0:
327,73,29575,1,8,0:0:0:0:
213,211,29742,6,2,B|200:251|148:266|148:266|137:314|76:348,1,175
54,258,30242,1,0,0:0:0:0:
215,324,30409,2,2,B|256:332|295:295|295:295|342:309|402:273,1,175,6|2,0:0|0:0,0:0:0:0:
458,222,30909,1,10,0:0:0:0:
465,201,30992,1,10,0:0:0:0:
468,179,31075,1,10,0:0:0:0:
466,156,31159,1,10,0:0:0:0:
459,135,31242,5,2,0:1:0:0:
286,237,31409,1,0,0:0:0:0:
381,143,31575,5,8,0:0:0:0:
183,179,31742,2,0,P|116:194|64:218,1,87.5,2|2,0:0|0:0,0:0:0:0:
27,295,32075,1,2,0:0:0:0:
88,126,32242,1,10,0:0:0:0:
234,258,32409,6,2,B|262:282|308:291|308:291|344:325|344:325|381:325|432:360,1,224,4|2,0:0|0:0,0:1:0:0:
258,366,32909,1,10,0:0:0:0:
310,178,33075,2,0,P|313:128|297:79,1,97.9999970092774,0|2,0:0|0:0,0:0:0:0:
244,11,33409,1,2,0:1:0:0:
178,129,33575,1,8,0:0:0:0:
471,36,33742,6,2,B|449:55|401:59|401:59|379:67|379:67|340:61|298:82,1,181.999991668702,4|2,0:0|0:0,0:0:0:0:
178,129,34242,2,0,P|176:187|199:235,1,97.9999970092774,8|2,0:0|0:0,0:0:0:0:
266,286,34575,1,2,0:1:0:0:
298,81,34742,1,2,0:1:0:0:
329,202,34909,5,8,0:0:0:0:
243,14,35075,2,2,B|191:-11|104:4|104:4|112:56|67:109,1,210.000008010865,6|2,0:0|0:0,0:0:0:0:
38,172,35575,1,8,0:0:0:0:
211,138,35742,6,2,B|258:116|307:119|307:119|342:107|342:107|390:113|448:83,1,238.00000453949,4|2,0:0|0:0,0:1:0:0:
380,25,36242,1,0,3:2:0:0:
344,21,36325,1,0,3:2:0:0:
308,22,36409,6,2,B|256:35|224:24|224:24|180:36|180:36|145:22|104:34,1,195.999994018555,4|2,0:0|0:0,0:1:0:0:
26,89,36909,2,0,P|11:152|28:198,1,105.000004005432,8|0,0:0|0:0,0:0:0:0:
139,237,37242,1,2,0:0:0:0:
100,141,37409,1,2,0:0:0:0:
193,153,37575,1,2,0:0:0:0:
298,97,37742,6,2,B|335:72|376:73|376:73|394:62|394:62|439:64|476:40,1,181.999991668702,4|2,0:0|0:0,0:1:0:0:
427,144,38242,1,10,0:0:0:0:
319,258,38409,2,0,P|265:284|208:280,1,94.5000003604889,2|2,0:1|0:1,0:0:0:0:
139,237,38742,1,2,0:0:0:0:
253,196,38909,1,10,0:0:0:0:
183,114,39075,6,2,B|153:81|114:67|114:67|108:55|108:55|74:47|33:-6,1,189.000000720978,4|2,0:0|0:0,0:1:0:0:
62,175,39575,1,10,3:2:0:0:
74,200,39659,1,0,3:2:0:0:
94,219,39742,1,0,3:2:0:0:
118,232,39825,1,0,3:2:0:0:
145,240,39909,2,0,L|185:208,3,47.2500001802444,2|0|2|0,3:2|3:2|3:2|3:2,3:2:0:0:
290,182,40242,5,10,0:0:0:0:
170,57,40409,2,2,B|142:21|142:21|149:146,1,152.250004646301,4|0,0:0|0:0,0:1:0:0:
152,203,40742,6,2,B|149:248|169:279|169:279|170:294|170:294|189:322|182:380,1,162.750001241684,4|0,0:0|0:0,0:1:0:0:
104,365,41075,6,2,P|145:288|271:259,1,173.250001652241,4|0,0:0|0:0,0:1:0:0:
301,253,41409,6,0,P|343:256|400:244,1,57.7500005507469,4|0,0:0|0:0,0:0:0:0:
448,190,41575,1,10,0:0:0:0:
475,152,41659,1,10,0:0:0:0:
493,109,41742,1,10,0:0:0:0:
499,63,41825,1,10,0:0:0:0:
489,16,41909,2,0,P|437:14|366:78,1,136.499993751526,4|0,0:0|0:0,0:0:0:0:
343,140,42242,6,0,P|287:172|239:174,1,87.5,10|0,0:0|0:0,0:0:0:0:
179,174,42575,1,2,0:0:0:0:
374,215,42742,2,0,P|430:237|465:260,1,94.5000003604889,2|10,0:0|0:0,0:0:0:0:
311,294,43075,6,2,B|272:302|225:280|225:280|204:290|204:290|142:265|88:288,1,195.999994018555,4|2,0:0|0:0,0:1:0:0:
31,329,43575,2,0,P|31:258|64:195,1,136.499993751526,10|0,0:0|0:0,0:0:0:0:
128,160,43909,1,2,3:2:0:0:
160,144,43992,1,0,3:2:0:0:
190,123,44075,1,2,3:2:0:0:
217,98,44159,1,0,3:2:0:0:
238,69,44242,5,10,3:2:0:0:
214,275,44409,1,2,0:0:0:0:
288,108,44575,2,0,B|316:58|376:30|376:30|364:66|375:97,1,162.750001241684,4|0,0:0|0:0,0:1:0:0:
375,98,44909,5,10,0:0:0:0:
221,220,45075,2,2,P|149:243|101:243,1,112,4|8,0:0|0:0,0:1:0:0:
32,233,45409,1,2,0:0:0:0:
101,52,45575,1,10,0:0:0:0:
102,158,45742,6,2,B|109:210|137:264|137:264|135:279|135:279|157:308|163:385,1,238.00000453949,6|2,0:0|0:0,0:1:0:0:
71,368,46242,1,8,0:0:0:0:
268,225,46409,2,2,P|312:200|409:184,1,140,4|2,0:0|0:0,0:1:0:0:
354,294,46909,1,8,3:2:0:0:
324,312,46992,1,0,3:2:0:0:
291,325,47075,1,2,3:1:0:0:
257,333,47159,1,0,3:2:0:0:
222,335,47242,6,0,P|178:291|172:199,1,131.83333120996,6|0,0:0|0:0,0:0:0:0:
193,124,47575,5,0,0:0:0:0:
215,86,47658,1,0,0:0:0:0:
249,59,47741,1,0,0:0:0:0:
291,48,47825,1,0,0:0:0:0:
350,77,47909,5,12,0:0:0:0:
251,244,48075,1,12,0:0:0:0:
251,244,48409,2,2,L|251:178,1,52.5000020027161,4|0,0:0|0:0,0:1:0:0:
161,133,49409,5,8,0:1:0:0:
161,133,49492,1,8,0:1:0:0:
161,133,49575,2,2,P|205:110|250:113,1,78.7500030040742,8|0,0:1|0:0,0:0:0:0:
256,192,49909,12,2,55909,0:1:0:0:
