osu file format v14

[General]
AudioFilename: audio.mp3
AudioLeadIn: 0
PreviewTime: -1
Countdown: 0
SampleSet: Soft
StackLeniency: 0.4
Mode: 0
LetterboxInBreaks: 0
WidescreenStoryboard: 1

[Editor]
DistanceSpacing: 1
BeatDivisor: 4
GridSize: 32
TimelineZoom: 1.6

[Metadata]
Title:Mousou 4tune
TitleUnicode:猛争4ちゅーん
Artist:Yuki Shinichi
ArtistUnicode:Yuki Shinichi
Creator:SilenceKakashi
Version:Delusion
Source:新次元ゲイム ネプテューヌVII
Tags:Choujigen Game Neptune Hyperdimension Neptunia G OP opening Megadimension Neptunia VII Shinjigen Game Neptune Victory II V2 Victory 2
BeatmapID:1553039
BeatmapSetID:735794

[Difficulty]
HPDrainRate:6.1
CircleSize:4
OverallDifficulty:7.9
ApproachRate:9.3
SliderMultiplier:1.6
SliderTickRate:1

[Events]
//Background and Video events
Video,0,"Hyper Dimension Neptunia G Opening.mp4"
0,0,"prpl heart next form.png",0,0
//Break Periods
//Storyboard Layer 0 (Background)
//Storyboard Layer 1 (Fail)
//Storyboard Layer 2 (Pass)
//Storyboard Layer 3 (Foreground)
//Storyboard Sound Samples

[TimingPoints]
576,333.333333333333,4,2,1,40,1,0
2242,-95.2380952380952,4,2,1,40,0,0
2575,-86.9565217391304,4,2,1,40,0,0
2909,-100,4,2,1,40,0,0
3242,-90.9090909090908,4,2,1,40,0,0
3575,-100,4,2,1,40,0,0
4075,-76.9230769230769,4,2,2,40,0,0
4242,-95.2380952380952,4,2,1,40,0,0
5575,-90.9090909090909,4,2,1,40,0,0
6575,-100,4,2,1,40,0,0
6909,-86.9565217391304,4,2,1,40,0,0
7242,-90.9090909090909,4,2,1,40,0,0
8575,-76.9230769230769,4,2,2,60,0,1
9075,-68.9655172413793,4,2,2,60,0,1
9909,-83.3333333333333,4,2,2,60,0,1
11742,-83.3333333333333,4,2,2,20,0,1
11909,-100,4,2,2,60,0,1
12409,-66.6666666666667,4,2,2,60,0,1
12909,-100,4,2,2,60,0,1
13409,-86.9565217391304,4,2,2,60,0,1
13575,-76.9230769230769,4,2,2,60,0,1
13909,-133.333333333333,4,2,3,35,0,0
18575,-100,4,2,3,35,0,0
19575,-90.9090909090909,4,2,3,35,0,0
19909,-83.3333333333333,4,2,3,35,0,0
20242,-76.9230769230769,4,2,3,35,0,0
21325,-76.9230769230769,4,2,4,35,0,0
21409,-76.9230769230769,4,2,3,35,0,0
22242,-62.5,4,2,3,35,0,0
23075,-125,4,2,3,35,0,0
23909,-100,4,2,3,35,0,0
24242,-83.3333333333333,4,2,3,35,0,0
25242,-83.3333333333333,4,2,3,35,0,0
25742,-83.3333333333333,4,2,2,60,0,1
26242,-76.9230769230769,4,2,2,60,0,1
27075,-55.5555555555556,4,2,2,60,0,1
27575,-62.5,4,2,2,60,0,1
28409,-66.6666666666667,4,2,3,60,0,1
28909,-83.3333333333333,4,2,2,60,0,1
29242,-100,4,2,2,60,0,1
29742,-62.5,4,2,2,60,0,1
30409,-71.4285714285714,4,2,2,60,0,1
30909,-80,4,2,2,20,0,1
31242,-80,4,2,1,60,0,1
31909,-80,4,2,2,60,0,1
32409,-68.9655172413793,4,2,2,60,0,1
33075,-71.4285714285714,4,2,2,60,0,1
33409,-71.4285714285714,4,2,1,60,0,1
33742,-76.9230769230769,4,2,1,60,0,1
34075,-71.4285714285714,4,2,2,60,0,1
34575,-76.9230769230769,4,2,1,60,0,1
35075,-55.5555555555556,4,2,3,60,0,1
35742,-58.8235294117647,4,2,2,60,0,1
36409,-71.4285714285714,4,2,4,60,0,1
36742,-66.6666666666667,4,2,2,60,0,1
37742,-71.4285714285714,4,2,2,60,0,1
38409,-74.0740740740741,4,2,2,60,0,1
39075,-74.0740740740741,4,2,3,60,0,1
39575,-74.0740740740741,4,2,2,60,0,1
40409,-68.9655172413793,4,2,1,60,0,1
40742,-64.5161290322581,4,2,3,60,0,1
41075,-60.6060606060606,4,2,2,60,0,1
41409,-60.6060606060606,4,2,4,60,0,1
41575,-60.6060606060606,4,2,2,20,0,1
41909,-76.9230769230769,4,2,2,20,0,1
42242,-80,4,2,2,60,0,1
42742,-74.0740740740741,4,2,2,60,0,1
43075,-71.4285714285714,4,2,3,60,0,1
43575,-76.9230769230769,4,2,3,60,0,1
44575,-64.5161290322581,4,2,2,60,0,1
45075,-62.5,4,2,1,60,0,1
45242,-62.5,4,2,3,60,0,1
45742,-58.8235294117647,4,2,3,60,0,1
46409,-58.8235294117647,4,2,2,60,0,1
47242,-58.8235294117647,4,2,4,60,0,1
47409,-58.8235294117647,4,2,2,60,0,1
47909,-79.6460212232753,4,2,2,60,0,1
48075,-79.6460212232753,4,2,3,60,0,1
48409,-133.333333333333,4,2,1,40,0,0
55825,-133.333333333333,4,2,2,40,0,0

[Colours]
Combo1 : 255,192,0
Combo2 : 255,255,255
Combo3 : 255,102,255
Combo4 : 255,2,2

[HitObjects]
226,281,576,5,2,0:0:0:0:
233,201,742,2,0,P|218:157|189:114,1,80,0|8,0:0|0:0,0:0:0:0:
146,273,1075,5,2,0:0:0:0:
192,207,1242,2,0,P|201:161|197:109,1,80
81,227,1575,5,10,0:0:0:0:
153,192,1742,2,0,P|183:157|206:110,1,80
234,38,2075,1,0,0:0:0:0:
286,202,2242,2,0,B|316:251|355:290|355:290|374:243,1,125.999996154785,10|0,0:0|0:0,0:0:0:0:
373,255,2575,2,0,P|336:240|278:315,1,138.000002632141,2|0,0:0|0:0,0:0:0:0:
325,352,2909,2,0,P|290:287|233:238,1,120,10|0,0:0|0:0,0:0:0:0:
158,246,3242,6,2,B|110:244|87:215|87:215|58:210|58:210|25:180|-26:175,1,176.000005371094,0|8,0:0|0:0,0:1:0:0:
48,303,3742,1,0,0:0:0:0:
257,254,3909,2,0,P|303:219|329:185,1,80,0|2,0:0|0:0,0:0:0:0:
334,43,4242,5,10,0:0:0:0:
330,211,4409,2,0,P|352:261|381:292,1,83.9999974365235,2|2,0:0|0:0,0:0:0:0:
181,183,4742,1,0,0:0:0:0:
181,183,4825,1,0,0:0:0:0:
181,183,4909,1,8,0:0:0:0:
343,131,5075,1,0,0:0:0:0:
249,277,5242,2,0,P|201:297|122:279,1,125.999996154785
85,264,5575,5,10,0:0:0:0:
181,183,5742,1,2,0:0:0:0:
78,123,5909,2,0,P|37:148|90:146,1,132.00000402832,2|0,0:0|0:0,0:0:0:0:
108,122,6242,1,10,0:0:0:0:
130,283,6409,1,2,0:0:0:0:
227,53,6575,6,0,P|279:23|350:18,1,120,2|0,0:0|0:0,0:0:0:0:
370,23,6909,1,8,0:0:0:0:
348,216,7075,1,0,0:0:0:0:
190,145,7242,2,0,P|111:138|41:168,1,132.00000402832
34,179,7575,1,8,0:0:0:0:
185,281,7742,2,0,P|235:292|316:267,1,132.00000402832
348,216,8075,1,0,0:0:0:0:
419,38,8242,1,2,0:0:0:0:
274,103,8409,1,2,0:0:0:0:
313,373,8575,6,0,P|309:296|314:249,1,103.999995239258,4|0,0:0|0:0,0:0:0:0:
351,151,8909,1,8,0:0:0:0:
209,190,9075,2,2,B|157:203|118:245|118:245|100:245|100:245|62:276|-4:283,1,232.000007080078,0|2,0:0|0:0,0:1:0:0:
210,285,9575,1,8,0:0:0:0:
107,58,9742,1,0,0:0:0:0:
88,167,9909,1,0,0:0:0:0:
196,76,10075,5,2,0:0:0:0:
16,128,10242,1,8,0:0:0:0:
209,190,10409,2,0,L|285:193,1,47.9999985351563
356,192,10575,1,0,0:0:0:0:
280,51,10742,1,0,0:0:0:0:
123,208,10909,2,2,B|89:225|72:256|72:256|61:257|61:257|51:292|-8:328,1,143.999995605469,8|0,0:0|0:0,0:0:0:0:
9,321,11242,5,2,0:0:0:0:
218,336,11409,2,0,P|280:328|334:287,1,95.9999970703126,0|8,0:0|0:0,0:0:0:0:
406,204,11742,1,2,0:0:0:0:
421,158,11825,1,2,0:0:0:0:
420,117,11909,6,0,P|396:67|356:42,1,80,0|2,0:0|0:0,0:0:0:0:
173,33,12242,1,10,0:0:0:0:
243,196,12409,2,2,B|261:236|299:262|299:262|316:310|316:310|371:338|385:399,1,240.000009155274,4|2,0:0|0:0,0:1:0:0:
392,251,12909,1,8,0:0:0:0:
374,215,12992,1,0,0:0:0:0:
364,176,13075,5,2,0:0:0:0:
347,142,13159,5,2,0:0:0:0:
315,117,13242,5,2,0:0:0:0:
117,130,13409,6,0,L|126:194,1,46.0000008773804,2|0,0:0|0:0,0:0:0:0:
155,338,13575,2,0,L|164:277,1,51.999997619629,8|0,0:0|0:0,0:0:0:0:
216,199,13742,1,0,0:0:0:0:
220,94,13909,6,2,B|185:85|151:92|151:92|115:81|115:81|73:93|29:84,1,180.000006866455,4|2,0:0|0:0,0:0:0:0:
174,170,14575,2,0,P|236:177|276:159,1,90.0000034332277,8|0,0:0|0:0,0:0:0:0:
277,162,14909,1,8,0:0:0:0:
230,346,15075,1,8,0:1:0:0:
261,168,15242,6,2,B|270:133|293:107|293:107|302:70|302:70|333:40|347:-2,1,180.000006866455,8|2,0:1|0:0,0:0:0:0:
346,176,15909,1,8,0:1:0:0:
252,0,16075,2,0,P|224:-11|181:-8,1,60.0000022888184,2|0,0:0|0:0,0:0:0:0:
257,232,16409,5,2,0:0:0:0:
275,255,16492,1,0,0:0:0:0:
298,273,16575,2,0,P|353:291|421:255,1,120.000004577637,2|0,0:0|0:0,0:0:0:0:
351,205,17075,1,2,0:0:0:0:
244,317,17242,6,0,B|222:330|192:330|192:330|176:338|176:338|108:354,1,120.000004577637,4|2,0:0|0:0,0:0:0:0:
17,356,17742,1,8,0:1:0:0:
153,224,17909,1,0,0:0:0:0:
298,273,18075,1,8,0:1:0:0:
275,167,18242,1,0,0:0:0:0:
262,139,18325,1,0,0:0:0:0:
253,110,18409,1,0,0:0:0:0:
239,83,18492,1,0,0:0:0:0:
213,52,18575,5,2,3:2:0:0:
164,50,18659,1,0,3:2:0:0:
121,71,18742,1,2,3:2:0:0:
90,108,18825,1,0,3:2:0:0:
49,134,18909,5,2,3:2:0:0:
36,180,18992,1,0,3:2:0:0:
30,227,19075,1,0,3:2:0:0:
40,274,19159,1,0,3:2:0:0:
77,303,19242,6,0,L|120:314,3,40,10|0|0|0,3:1|3:2|3:2|3:2,3:2:0:0:
161,238,19575,2,0,L|213:219,3,44.0000013427735,10|0|0|0,3:2|3:2|3:2|3:2,3:2:0:0:
220,122,19909,2,0,L|262:87,3,47.9999985351563,10|0|0|0,3:2|3:2|3:2|3:2,3:2:0:0:
335,165,20242,2,0,L|394:167,3,51.999997619629,10|0|0|0,3:2|3:2|3:2|3:2,3:2:0:0:
358,262,20575,5,10,3:2:0:0:
318,296,20659,1,0,3:2:0:0:
272,320,20742,1,0,3:2:0:0:
221,330,20825,1,0,3:2:0:0:
168,325,20909,1,10,3:2:0:0:
118,308,20992,1,0,3:2:0:0:
75,277,21075,1,2,3:2:0:0:
48,231,21159,1,0,3:2:0:0:
39,179,21242,1,10,3:2:0:0:
51,128,21325,1,0,3:2:0:0:
75,81,21409,1,2,3:2:0:0:
117,51,21492,1,0,3:2:0:0:
149,10,21575,6,2,L|212:28,1,51.999997619629,2|0,3:2|3:2,3:2:0:0:
277,129,21742,2,2,L|331:140,1,51.999997619629,0|0,3:2|3:2,3:2:0:0:
436,249,21909,5,0,3:2:0:0:
436,264,21992,1,0,3:2:0:0:
436,279,22075,1,0,3:2:0:0:
436,294,22159,1,0,3:2:0:0:
436,313,22242,1,0,3:2:0:0:
200,162,22409,5,8,0:1:0:0:
436,313,22742,1,8,0:1:0:0:
225,229,23075,2,0,B|192:190|152:176|152:176|149:159|149:159|105:146|76:109,1,192,0|8,0:0|0:1,0:0:0:0:
33,37,23742,1,0,3:2:0:0:
181,75,23909,2,0,L|214:111,1,40,0|0,3:2|3:2,3:2:0:0:
322,109,24075,6,0,L|372:132,1,40,0|0,3:2|3:2,3:2:0:0:
338,233,24242,1,0,3:2:0:0:
335,266,24325,1,0,3:2:0:0:
325,298,24409,1,2,3:2:0:0:
303,324,24492,1,2,3:2:0:0:
270,332,24575,1,14,3:2:0:0:
193,102,25242,6,0,L|202:184,1,47.9999985351563,2|2,0:0|0:0,0:0:0:0:
319,282,25492,2,0,L|310:200,1,47.9999985351563,2|2,0:0|0:0,0:0:0:0:
184,112,25742,2,2,B|155:83|110:77|110:77|101:53|101:53|47:48|12:-1,1,191.999994140625,4|2,0:0|0:0,0:1:0:0:
59,219,26242,2,0,P|85:273|120:310,1,103.999995239258,8|0,0:0|0:0,0:0:0:0:
213,351,26575,1,2,0:0:0:0:
158,159,26742,1,2,0:0:0:0:
266,243,26909,1,8,0:0:0:0:
479,61,27075,6,2,B|446:107|378:132|378:132|361:171|361:171|301:199|264:244,1,287.999991210938,4|2,0:0|0:0,0:1:0:0:
209,345,27575,1,8,0:0:0:0:
368,266,27742,1,2,0:1:0:0:
212,63,27909,1,2,0:0:0:0:
408,111,28075,1,0,0:0:0:0:
214,148,28242,1,8,0:0:0:0:
364,328,28409,6,2,B|341:280|300:259|300:259|283:224|283:224|233:204|214:147,1,240.000009155274,4|2,0:0|0:0,0:0:0:0:
275,354,28909,1,8,0:0:0:0:
290,125,29075,1,2,0:1:0:0:
120,152,29242,1,2,0:0:0:0:
209,279,29409,1,2,0:0:0:0:
214,148,29575,1,10,0:0:0:0:
56,338,29742,6,2,B|75:285|124:261|124:261|141:226|141:226|206:203|219:129,1,256,4|2,0:0|0:0,0:1:0:0:
241,39,30242,1,8,0:0:0:0:
345,234,30409,2,2,P|366:301|363:359,1,111.999996582031,0|2,0:0|0:0,0:0:0:0:
250,308,30742,1,0,0:0:0:0:
394,173,30909,1,10,0:0:0:0:
418,148,30992,1,10,0:0:0:0:
433,116,31075,1,10,0:0:0:0:
442,82,31159,1,10,0:0:0:0:
445,47,31242,5,2,0:1:0:0:
141,145,31409,1,2,0:0:0:0:
310,147,31575,1,2,0:0:0:0:
102,209,31742,2,0,P|51:241|15:274,1,100,0|2,0:0|0:0,0:0:0:0:
204,175,32075,1,2,0:0:0:0:
130,316,32242,1,10,0:0:0:0:
354,13,32409,6,2,B|331:63|286:82|286:82|280:111|280:111|235:121|200:180,1,232.000007080078,4|0,0:0|0:0,0:1:0:0:
142,313,32909,1,10,0:0:0:0:
387,142,33075,2,0,P|440:89|469:10,1,111.999996582031,2|2,0:1|0:0,0:0:0:0:
284,1,33409,1,2,0:0:0:0:
170,201,33575,2,0,L|128:267,1,55.9999982910157,10|0,0:0|0:0,0:0:0:0:
126,6,33742,6,2,B|122:60|152:93|152:93|146:121|146:121|176:155|170:232,1,207.999990478516,4|2,0:0|0:0,0:0:0:0:
159,320,34242,1,8,0:0:0:0:
287,93,34409,1,2,0:0:0:0:
40,174,34575,1,8,0:0:0:0:
293,276,34742,1,2,0:0:0:0:
131,43,34909,1,10,0:0:0:0:
412,66,35075,6,2,B|344:35|283:52|283:52|251:42|251:42|178:64|95:30,1,287.999991210938,4|2,0:0|0:0,0:0:0:0:
23,5,35575,1,8,0:0:0:0:
235,284,35742,6,2,B|185:247|185:184|185:184|179:180|179:180|174:177|174:177|169:173|169:173|162:168|162:168|156:164|156:164|152:85|97:42,1,272.000005187988,4|0,0:0|3:2,0:1:0:0:
100,64,36159,1,0,3:2:0:0:
90,73,36242,1,0,3:2:0:0:
80,83,36325,1,0,3:2:0:0:
72,90,36409,6,2,B|50:149|62:180|62:180|49:204|49:204|75:265|39:346,1,223.999993164063,4|2,0:0|0:0,0:0:0:0:
150,312,36909,2,0,P|127:248|2:226,1,180.000006866455,8|0,0:0|0:0,0:0:0:0:
5,237,37242,1,2,0:0:0:0:
144,34,37409,1,2,0:0:0:0:
313,160,37575,1,10,0:0:0:0:
182,335,37742,6,2,B|203:284|239:260|239:260|245:243|245:243|302:214|325:126,1,223.999993164063,4|2,0:0|0:0,0:1:0:0:
333,62,38242,1,10,0:0:0:0:
112,368,38409,2,0,P|39:357|-19:321,1,108.000000411987,2|2,0:1|0:0,0:0:0:0:
0,167,38742,1,2,0:0:0:0:
176,315,38909,1,10,0:0:0:0:
296,143,39075,6,2,B|279:200|248:220|248:220|241:250|241:250|198:275|159:344,1,216.000000823975,4|2,0:0|0:0,0:0:0:0:
297,328,39575,1,8,3:2:0:0:
333,305,39659,1,0,3:2:0:0:
361,273,39742,1,0,3:2:0:0:
380,234,39825,1,0,3:2:0:0:
391,191,39909,5,2,3:2:0:0:
391,142,39992,1,0,3:2:0:0:
377,95,40075,1,0,3:2:0:0:
339,63,40159,1,0,3:2:0:0:
292,51,40242,1,8,3:2:0:0:
146,333,40409,6,2,B|170:293|165:256|165:256|171:240|171:240|160:197|181:148,1,174.000005310059,4|0,0:0|0:0,0:0:0:0:
192,149,40742,6,2,P|257:148|218:236,1,186.000001419067,4|0,0:0|0:0,0:0:0:0:
96,205,41075,6,2,B|146:190|188:196|188:196|206:194|206:194|246:208|335:189,1,198.000001888275,4|0,0:0|0:0,0:1:0:0:
371,164,41409,2,0,P|407:137|436:107,1,66.0000006294251,4|0,3:2|3:2,0:0:0:0:
241,52,41575,1,0,3:2:0:0:
188,46,41659,1,0,3:2:0:0:
137,59,41742,1,2,3:2:0:0:
97,93,41825,1,2,3:2:0:0:
78,130,41909,6,2,B|64:183|85:217|85:217|71:246|71:246|91:293|73:347,1,207.999990478516,4|8,0:0|0:0,0:1:0:0:
154,168,42409,1,2,0:0:0:0:
232,235,42575,1,2,0:1:0:0:
371,164,42742,1,2,0:0:0:0:
232,180,42909,1,10,0:0:0:0:
46,70,43075,6,2,B|96:89|126:120|126:120|148:117|148:117|188:168|262:192,1,223.999993164063,4|2,0:0|0:0,0:0:0:0:
389,224,43575,2,0,P|403:180|307:170,1,155.999992858887,8|0,0:0|0:0,0:0:0:0:
276,240,43909,1,2,3:2:0:0:
266,274,43992,1,0,3:2:0:0:
250,306,44075,1,2,3:2:0:0:
225,333,44159,1,8,3:2:0:0:
192,349,44242,5,8,0:0:0:0:
230,110,44409,1,8,0:1:0:0:
81,186,44575,6,2,P|119:131|238:113,1,186.000001419067,4|0,0:0|0:0,0:1:0:0:
271,225,44909,1,8,0:0:0:0:
150,368,45075,6,2,B|174:323|204:303|204:303|209:283|209:283|259:258|291:193,1,192,4|0,0:0|0:0,0:0:0:0:
294,180,45409,1,2,0:0:0:0:
445,36,45575,1,10,0:0:0:0:
178,53,45742,6,2,B|234:30|286:46|286:46|342:32|342:32|399:44|452:35,1,272.000005187988,4|0,0:0|0:0,0:1:0:0:
444,243,46242,1,0,0:0:0:0:
267,336,46409,6,2,B|305:303|342:294|342:294|371:271|371:271|415:274|476:217,1,204.000003890991,4|0,0:0|0:0,0:1:0:0:
474,209,46742,1,2,0:0:0:0:
96,122,46909,1,10,0:0:0:0:
303,80,47075,1,0,0:0:0:0:
370,69,47159,1,0,0:0:0:0:
436,57,47242,5,4,0:0:0:0:
261,318,47409,1,2,0:0:0:0:
202,35,47575,5,8,0:0:0:0:
242,253,47742,1,2,0:0:0:0:
322,14,47909,5,4,0:0:0:0:
149,335,48075,1,12,0:0:0:0:
256,192,48409,5,4,0:0:0:0:
198,126,49409,5,8,0:1:0:0:
198,126,49492,1,8,0:1:0:0:
198,126,49575,2,2,P|212:158|276:206,1,90.0000034332277,8|0,0:1|0:0,0:0:0:0:
256,192,49909,12,2,55909,0:1:0:0:
