osu file format v14

[General]
AudioFilename: audio.mp3
AudioLeadIn: 0
PreviewTime: 53541
Countdown: 0
SampleSet: Soft
StackLeniency: 0.5
Mode: 0
LetterboxInBreaks: 0
WidescreenStoryboard: 1

[Editor]
DistanceSpacing: 1.1
BeatDivisor: 6
GridSize: 4
TimelineZoom: 2.1

[Metadata]
Title:Yada!
TitleUnicode:ヤダ!
Artist:Yuki Setsuna (CV: Kusunoki Tomori)
ArtistUnicode:優木せつ菜 (CV: 楠木ともり)
Creator:Doormat
Version:Insane
Source:ラブライブ!虹ヶ咲学園スクールアイドル同好会
Tags:love live! nijigasaki high school idol club gakuen doukoukai doukou kai nijigaku ニジガク nakagawa nana 中川菜々 llas sifas スクスタ festival all stars スクールアイドルフェスティバル perfect dream project pdp L!L!L! L!L!L! love the life we live Akira Sunset Hiroto Kikuchi 菊池博人 anime video game japanese pop jpop j-pop
BeatmapID:3242773
BeatmapSetID:1578999

[Difficulty]
HPDrainRate:5.5
CircleSize:4
OverallDifficulty:7.5
ApproachRate:8.8
SliderMultiplier:1.6
SliderTickRate:1

[Events]
//Background and Video events
0,0,"setsu.jpg",0,0
//Break Periods
2,15585,17193
//Storyboard Layer 0 (Background)
//Storyboard Layer 1 (Fail)
//Storyboard Layer 2 (Pass)
//Storyboard Layer 3 (Foreground)
//Storyboard Layer 4 (Overlay)
//Storyboard Sound Samples

[TimingPoints]
385,375,4,2,1,60,1,0
1697,-125,4,2,1,80,0,0
3291,-125,4,2,1,5,0,0
3385,-100,4,2,1,80,0,0
15385,-100,4,2,1,60,0,0
18385,-111.111111111111,4,2,15,70,0,0
18760,-111.111111111111,4,2,11,70,0,0
19135,-111.111111111111,4,2,12,70,0,0
19510,-111.111111111111,4,2,11,70,0,0
19885,-111.111111111111,4,2,15,70,0,0
20260,-111.111111111111,4,2,11,70,0,0
20635,-111.111111111111,4,2,12,70,0,0
21010,-111.111111111111,4,2,11,70,0,0
21385,-111.111111111111,4,2,15,70,0,0
21760,-111.111111111111,4,2,11,70,0,0
22135,-111.111111111111,4,2,12,70,0,0
22510,-111.111111111111,4,2,11,70,0,0
22885,-111.111111111111,4,2,15,70,0,0
23260,-111.111111111111,4,2,11,70,0,0
23635,-111.111111111111,4,2,12,70,0,0
24010,-111.111111111111,4,2,11,70,0,0
24385,-111.111111111111,4,2,14,70,0,0
24947,-111.111111111111,4,2,23,70,0,0
25135,-111.111111111111,4,2,1,70,0,0
25510,-111.111111111111,4,2,12,70,0,0
25885,-111.111111111111,4,2,1,70,0,0
26072,-111.111111111111,4,2,11,70,0,0
26260,-111.111111111111,4,2,1,70,0,0
26635,-111.111111111111,4,2,10,70,0,0
27010,-111.111111111111,4,2,1,70,0,0
27385,-111.111111111111,4,2,15,70,0,0
27760,-111.111111111111,4,2,11,70,0,0
28135,-111.111111111111,4,2,12,70,0,0
28510,-111.111111111111,4,2,11,70,0,0
28885,-111.111111111111,4,2,15,70,0,0
29260,-111.111111111111,4,2,11,70,0,0
29635,-111.111111111111,4,2,12,70,0,0
30010,-111.111111111111,4,2,11,70,0,0
30385,-111.111111111111,4,2,15,70,0,0
30760,-111.111111111111,4,2,11,70,0,0
31135,-111.111111111111,4,2,12,70,0,0
31510,-111.111111111111,4,2,11,70,0,0
31885,-111.111111111111,4,2,20,70,0,0
32260,-111.111111111111,4,2,12,70,0,0
32635,-111.111111111111,4,2,14,70,0,0
33010,-111.111111111111,4,2,13,70,0,0
33385,-111.111111111111,4,2,15,70,0,0
33760,-111.111111111111,4,2,11,70,0,0
34135,-111.111111111111,4,2,12,70,0,0
34510,-111.111111111111,4,2,11,70,0,0
34885,-111.111111111111,4,2,15,70,0,0
35260,-111.111111111111,4,2,11,70,0,0
35635,-111.111111111111,4,2,12,70,0,0
36010,-111.111111111111,4,2,11,70,0,0
36385,-111.111111111111,4,2,11,70,0,0
36760,-111.111111111111,4,2,1,70,0,0
36947,-111.111111111111,4,2,25,70,0,0
37135,-111.111111111111,4,2,1,70,0,0
37510,-111.111111111111,4,2,9,70,0,0
37885,-111.111111111111,4,2,1,70,0,0
38072,-111.111111111111,4,2,25,70,0,0
38260,-111.111111111111,4,2,9,70,0,0
38635,-111.111111111111,4,2,8,70,0,0
38916,-111.111111111111,4,2,1,70,0,0
39385,-111.111111111111,4,2,15,70,0,0
39760,-111.111111111111,4,2,11,70,0,0
40135,-111.111111111111,4,2,12,70,0,0
40510,-66.6666666666667,4,2,11,70,0,0
40885,-111.111111111111,4,2,15,70,0,0
41260,-111.111111111111,4,2,11,70,0,0
41635,-111.111111111111,4,2,12,70,0,0
42010,-66.6666666666667,4,2,11,70,0,0
42385,-111.111111111111,4,2,15,70,0,0
42760,-111.111111111111,4,2,11,70,0,0
43135,-111.111111111111,4,2,12,70,0,0
43510,-66.6666666666667,4,2,11,70,0,0
43885,-111.111111111111,4,2,15,70,0,0
44260,-111.111111111111,4,2,11,70,0,0
44635,-111.111111111111,4,2,12,70,0,0
45010,-66.6666666666667,4,2,11,70,0,0
45385,-111.111111111111,4,2,14,70,0,0
45760,-111.111111111111,4,2,5,70,0,0
46135,-111.111111111111,4,2,11,70,0,0
46510,-111.111111111111,4,2,5,70,0,0
46885,-111.111111111111,4,2,14,70,0,0
47260,-111.111111111111,4,2,5,70,0,0
47635,-111.111111111111,4,2,11,70,0,0
48010,-111.111111111111,4,2,5,70,0,0
48385,-66.6666666666667,4,2,1,70,0,0
48760,-66.6666666666667,4,2,11,70,0,0
49135,-66.6666666666667,4,2,12,73,0,0
49510,-66.6666666666667,4,2,13,76,0,0
49885,-40,4,2,14,80,0,0
50260,-40,4,2,19,83,0,0
50635,-40,4,2,15,86,0,0
51010,-40,4,2,20,90,0,0
51385,-66.6666666666667,4,2,1,100,0,0
53072,-100,4,2,1,70,0,0
53635,-100,4,2,1,80,0,0
54385,-90.9090909090909,4,2,1,90,0,1
66291,-90.9090909090909,4,2,1,90,0,0
66385,-90.9090909090909,4,2,1,90,0,1
78385,-100,4,2,1,70,0,0
81010,-66.6666666666667,4,2,1,70,0,0
81385,-100,4,2,1,80,0,0
93385,-100,4,2,1,80,0,0
99010,-100,4,2,1,10,0,0

[Colours]
Combo1 : 250,200,10
Combo2 : 225,35,65
Combo3 : 70,110,240
Combo4 : 230,80,65
Combo5 : 130,165,255
Combo6 : 255,255,15

[HitObjects]
16,244,385,6,0,P|93:227|156:276,1,160,8|0,1:2|1:0,0:0:0:0:
71,325,947,1,8,1:2:0:0:
107,135,1322,54,0,L|101:108,5,26.6666666666667,0|0|0|0|0|0,3:0|3:0|3:0|3:0|3:0|3:0,0:0:0:0:
131,158,1697,38,0,P|196:146|255:130,1,128,4|0,1:2|1:2,0:0:0:0:
297,13,2260,1,4,1:2:0:0:
413,192,2447,1,0,1:2:0:0:
441,45,2635,1,4,1:2:0:0:
218,162,2822,53,0,1:0:0:0:
209,156,2884,1,0,1:0:0:0:
200,151,2947,1,0,1:0:0:0:
191,146,3010,2,0,L|81:167,1,96,12|0,1:2|0:0,0:0:0:0:
88,180,3385,37,6,1:2:0:0:
102,318,3572,1,2,0:2:0:0:
216,241,3760,2,0,L|300:248,1,80,10|2,1:2|0:2,0:0:0:0:
395,52,4135,5,2,1:2:0:0:
282,124,4322,1,2,0:2:0:0:
400,185,4510,1,10,1:2:0:0:
224,205,4697,38,0,P|175:146|197:73,1,160,2|2,0:2|0:2,0:0:0:0:
282,124,5260,1,10,1:2:0:0:
282,124,5447,1,2,0:2:0:0:
126,10,5635,6,0,P|88:19|48:25,1,80,2|0,1:2|0:0,0:0:0:0:
77,175,6010,2,0,P|115:165|155:159,1,80,8|0,1:2|0:0,0:0:0:0:
395,207,6385,5,2,1:2:0:0:
308,114,6572,1,2,0:2:0:0:
270,235,6760,2,0,L|291:318,1,80,10|0,1:2|0:0,0:0:0:0:
183,142,7135,5,2,1:2:0:0:
96,235,7322,1,2,0:2:0:0:
58,114,7510,2,0,L|79:31,1,80,10|0,1:2|0:0,0:0:0:0:
280,8,7885,38,0,P|253:85|308:140,1,160,2|10,1:2|1:2,0:0:0:0:
424,96,8447,1,2,0:0:0:0:
332,264,8635,1,2,1:2:0:0:
484,216,8822,1,2,0:0:0:0:
484,216,8916,1,0,1:2:0:0:
484,216,9010,2,0,L|504:308,1,80,8|0,1:2|1:2,0:0:0:0:
383,133,9385,5,6,1:2:0:0:
332,264,9572,1,2,0:2:0:0:
236,162,9760,2,0,L|151:178,1,80,10|2,1:2|0:2,0:0:0:0:
47,306,10135,5,2,1:2:0:0:
7,178,10322,1,2,0:2:0:0:
137,207,10510,1,10,1:2:0:0:
137,207,10697,1,2,0:2:0:0:
97,78,10885,6,0,P|136:75|175:66,1,80,4|2,1:2|0:2,0:0:0:0:
344,156,11260,2,0,P|304:147|265:143,1,80,10|2,1:2|0:2,0:0:0:0:
296,252,11635,1,2,1:2:0:0:
320,52,11822,37,0,0:0:0:0:
448,176,12010,2,0,L|532:164,1,80,8|0,1:2|0:0,0:0:0:0:
384,344,12385,5,6,1:2:0:0:
296,252,12572,1,2,0:2:0:0:
260,374,12760,2,0,L|176:362,1,80,10|0,1:2|0:0,0:0:0:0:
172,222,13135,5,2,1:2:0:0:
260,130,13322,1,2,0:2:0:0:
296,252,13510,2,0,L|380:240,1,80,10|0,1:2|0:0,0:0:0:0:
384,100,13885,5,6,1:2:0:0:
296,8,14072,1,2,0:2:0:0:
260,130,14260,1,10,1:2:0:0:
172,38,14447,1,2,0:2:0:0:
136,160,14635,38,0,P|148:216|156:260,1,80,0|0,1:2|0:0,0:0:0:0:
152,238,14916,1,0,1:2:0:0:
152,238,15010,1,8,1:2:0:0:
340,172,15197,5,2,1:2:0:0:
340,172,15291,1,2,0:2:0:0:
340,172,15385,1,6,1:2:0:0:
140,156,17822,6,0,L|136:192,4,20,0|0|0|0|8,1:0|1:0|1:0|1:0|1:2,0:0:0:0:
372,156,18385,6,0,L|384:226,1,71.9999978027344,4|0,1:2|0:0,0:0:0:0:
488,208,18760,2,0,L|474:137,1,71.9999978027344,10|0,1:2|0:0,0:0:0:0:
456,36,19135,2,0,P|388:18|331:58,1,143.999995605469,2|8,1:2|1:2,0:0:0:0:
200,100,19697,38,0,P|185:67|180:31,1,71.9999978027344,2|0,0:0|1:2,0:0:0:0:
72,64,20072,2,0,P|86:96|91:132,1,71.9999978027344,2|8,0:0|1:2,0:0:0:0:
0,180,20447,1,2,0:0:0:0:
144,224,20635,2,0,L|232:200,1,71.9999978027344,2|0,1:2|0:0,0:0:0:0:
72,320,21010,2,0,L|-16:296,1,71.9999978027344,10|0,1:2|0:0,0:0:0:0:
188,339,21385,6,0,P|215:317|250:310,1,71.9999978027344,0|0,1:2|0:0,0:0:0:0:
280,209,21760,2,0,P|307:231|342:238,1,71.9999978027344,10|0,1:2|0:0,0:0:0:0:
446,241,22135,2,0,L|426:383,1,143.999995605469,2|8,1:2|1:2,0:0:0:0:
267,344,22697,6,0,P|239:323|205:313,1,71.9999978027344,2|0,0:0|1:2,0:0:0:0:
248,209,23072,2,0,P|276:230|310:240,1,71.9999978027344,2|8,0:0|1:2,0:0:0:0:
380,161,23447,1,2,0:0:0:0:
390,308,23635,2,0,L|380:389,1,71.9999978027344,2|0,1:2|0:0,0:0:0:0:
488,329,24010,1,10,1:2:0:0:
320,237,24197,1,2,0:0:0:0:
504,193,24385,6,0,P|435:204|380:161,1,143.999995605469,2|8,1:2|1:2,0:0:0:0:
268,237,24947,2,0,P|280:270|288:305,1,71.9999978027344,2|0,0:2|1:2,0:0:0:0:
176,301,25322,1,0,0:0:0:0:
224,137,25510,2,0,P|293:126|348:169,1,143.999995605469,10|0,1:2|1:2,0:0:0:0:
320,17,26072,37,10,1:2:0:0:
268,237,26260,1,8,1:2:0:0:
268,237,26447,1,0,1:2:0:0:
483,172,26635,6,0,P|472:137|465:102,1,71.9999978027344,10|0,1:2|0:0,0:0:0:0:
404,309,27010,2,0,P|415:343|422:378,1,71.9999978027344,10|0,1:2|0:0,0:0:0:0:
268,237,27385,1,6,1:2:0:0:
268,237,27760,6,0,L|180:257,1,71.9999978027344,10|0,1:2|0:0,0:0:0:0:
140,157,28135,2,0,L|280:126,1,143.999995605469,2|8,1:2|1:2,0:0:0:0:
384,241,28697,6,0,P|377:276|375:312,1,71.9999978027344,2|0,0:0|1:2,0:0:0:0:
272,197,29072,2,0,P|278:161|280:125,1,71.9999978027344,2|8,0:0|1:2,0:0:0:0:
228,25,29447,1,2,0:0:0:0:
384,93,29635,2,0,L|454:78,1,71.9999978027344,2|0,1:2|0:0,0:0:0:0:
484,189,30010,2,0,L|413:203,1,71.9999978027344,10|0,1:2|0:0,0:0:0:0:
229,253,30385,38,0,L|299:267,1,71.9999978027344,0|0,1:2|0:0,0:0:0:0:
321,157,30760,2,0,L|250:142,1,71.9999978027344,10|0,1:2|0:0,0:0:0:0:
142,169,31135,2,0,P|93:120|105:52,1,143.999995605469,2|8,1:2|1:2,0:0:0:0:
248,12,31697,6,0,P|255:47|258:82,1,71.9999978027344,2|0,0:0|1:2,0:0:0:0:
376,136,32072,2,0,P|368:171|365:206,1,71.9999978027344,2|8,0:0|1:2,0:0:0:0:
475,313,32447,1,2,0:0:0:0:
480,196,32635,1,2,1:2:0:0:
480,196,32822,1,0,0:0:0:0:
337,283,33010,1,10,1:2:0:0:
337,283,33197,1,0,0:0:0:0:
342,166,33385,6,0,P|344:131|345:95,1,71.9999978027344,0|0,1:2|0:0,0:0:0:0:
235,88,33760,2,0,P|232:123|231:160,1,71.9999978027344,10|0,1:2|0:0,0:0:0:0:
223,271,34135,2,0,P|157:294|97:257,1,143.999995605469,2|8,1:2|1:2,0:0:0:0:
32,116,34697,6,0,P|43:82|50:47,1,71.9999978027344,2|0,0:0|1:2,0:0:0:0:
183,133,35072,2,0,P|170:166|164:202,1,71.9999978027344,2|8,0:0|1:2,0:0:0:0:
290,102,35447,1,2,0:0:0:0:
138,37,35635,2,0,L|67:50,1,71.9999978027344,2|0,1:2|0:0,0:0:0:0:
66,186,36010,2,0,L|136:199,1,71.9999978027344,10|0,1:2|0:0,0:0:0:0:
248,308,36385,38,0,P|297:259|284:191,1,143.999995605469,2|8,1:2|1:2,0:0:0:0:
376,104,36947,2,0,P|420:120|464:128,1,71.9999978027344,2|0,0:2|1:2,0:0:0:0:
400,0,37322,1,0,0:0:0:0:
260,120,37510,6,0,P|191:132|143:83,1,143.999995605469,10|0,1:2|1:0,0:0:0:0:
40,144,38072,1,2,0:2:0:0:
54,214,38260,2,0,L|40:144,1,71.9999978027344,10|0,1:2|0:0,0:0:0:0:
204,236,38635,2,0,L|189:306,1,71.9999978027344,2|0,1:2|0:0,0:0:0:0:
189,306,38916,1,0,1:0:0:0:
189,306,39010,1,8,1:2:0:0:
312,240,39197,1,0,1:0:0:0:
120,164,39385,5,4,1:2:0:0:
242,97,39572,1,8,0:0:0:0:
242,97,39666,1,8,0:0:0:0:
242,97,39760,2,0,L|328:116,1,71.9999978027344,8|8,1:2|0:0,0:0:0:0:
312,240,40135,2,0,L|226:259,1,71.9999978027344,8|0,1:2|0:0,0:0:0:0:
112,216,40510,21,2,3:0:0:0:
103,220,40572,1,0,3:0:0:0:
94,224,40635,1,0,3:0:0:0:
85,228,40697,2,0,P|79:260|83:282,3,40.000001525879,0|0|0|0,3:0|3:0|3:0|1:0,0:0:0:0:
207,131,41072,69,8,0:0:0:0:
226,111,41165,1,8,0:0:0:0:
237,87,41259,1,8,1:2:0:0:
236,60,41353,1,8,0:0:0:0:
226,35,41447,1,8,0:0:0:0:
128,68,41635,37,8,1:2:0:0:
128,68,41728,1,8,0:0:0:0:
328,104,42010,69,2,3:0:0:0:
337,109,42072,1,0,3:0:0:0:
346,114,42135,1,0,3:0:0:0:
355,119,42197,2,0,L|402:110,3,40.000001525879,0|0|0|0,3:0|3:0|3:0|1:2,0:0:0:0:
248,216,42572,21,8,0:0:0:0:
248,216,42665,1,8,0:0:0:0:
248,216,42760,2,0,L|176:205,1,71.9999978027344,8|8,1:2|0:0,0:0:0:0:
180,64,43135,2,0,L|255:53,1,71.9999978027344,8|0,1:2|0:0,0:0:0:0:
384,88,43510,37,2,3:0:0:0:
393,92,43572,1,0,3:0:0:0:
402,96,43635,1,0,3:0:0:0:
411,100,43697,2,0,P|428:68|429:54,3,40.000001525879,0|0|0|0,3:0|3:0|3:0|1:0,0:0:0:0:
288,168,44072,53,8,0:0:0:0:
275,191,44165,1,8,0:0:0:0:
272,218,44259,1,8,1:2:0:0:
278,244,44353,1,8,0:0:0:0:
294,266,44447,1,8,0:0:0:0:
384,212,44635,5,8,1:2:0:0:
384,212,44728,1,8,0:2:0:0:
384,212,44822,1,8,0:2:0:0:
300,44,45010,22,0,L|340:36,5,40.000001525879,2|0|0|0|0|0,3:0|3:0|3:0|3:0|3:0|3:0,0:0:0:0:
348,12,45385,6,0,P|379:30|413:39,1,71.9999978027344,4|0,1:2|0:0,0:0:0:0:
272,132,45760,1,10,1:2:0:0:
228,4,45947,1,2,0:0:0:0:
108,64,46135,1,2,1:2:0:0:
108,64,46322,2,0,L|128:148,1,71.9999978027344,2|8,0:0|1:2,0:0:0:0:
272,131,46697,6,0,P|304:117|339:107,1,71.9999978027344,2|0,0:0|1:2,0:0:0:0:
500,196,47072,2,0,P|467:181|432:171,1,71.9999978027344,2|8,0:0|1:2,0:0:0:0:
272,260,47447,2,0,P|304:245|339:235,1,71.9999978027344,2|0,0:0|1:2,0:0:0:0:
499,324,47822,2,0,P|466:309|431:299,1,71.9999978027344,2|8,0:0|1:2,0:0:0:0:
500,196,48197,1,2,0:0:0:0:
364,148,48385,6,0,L|367:118,4,30.0000011444092,4|0|0|0|0,1:2|0:0|0:0|0:0|0:0,0:0:0:0:
284,280,48760,2,0,L|287:309,4,30.0000011444092,8|0|0|0|0,1:2|0:0|0:0|0:0|0:0,0:0:0:0:
204,148,49135,2,0,L|207:118,4,30.0000011444092,0|0|0|0|0,1:2|0:0|0:0|0:0|0:0,0:0:0:0:
124,280,49510,2,0,L|127:309,4,30.0000011444092,8|0|0|0|0,1:2|0:0|0:0|0:0|0:0,0:0:0:0:
43,148,49885,6,0,L|49:89,4,50,0|0|0|0|0,1:2|0:0|0:0|0:0|0:0,0:0:0:0:
124,280,50260,2,0,L|129:338,4,50,8|0|0|0|0,1:2|0:0|0:0|0:0|0:0,0:0:0:0:
204,148,50635,2,0,L|209:89,4,50,0|0|0|0|0,1:2|0:0|0:0|0:0|0:0,0:0:0:0:
284,280,51010,2,0,L|289:338,4,50,8|0|0|0|0,1:2|0:0|0:0|0:0|0:0,0:0:0:0:
364,148,51385,37,14,1:2:0:0:
184,244,51666,1,2,1:2:0:0:
357,351,51947,1,2,1:2:0:0:
284,280,52135,5,14,1:2:0:0:
380,100,52416,1,2,1:2:0:0:
487,273,52697,1,2,1:2:0:0:
414,202,52885,5,14,1:2:0:0:
317,351,53072,21,0,1:0:0:0:
308,346,53135,1,0,1:0:0:0:
299,341,53197,1,0,1:0:0:0:
290,335,53260,2,0,P|252:345|211:350,1,80,8|0,1:2|1:0,0:0:0:0:
414,202,53635,69,2,1:2:0:0:
178,134,53822,1,2,0:2:0:0:
420,172,54010,1,14,1:2:0:0:
419,171,54385,38,0,P|335:176|293:249,1,176.000005371094,6|8,1:0|1:2,0:0:0:0:
178,134,54947,2,0,P|190:78|194:42,1,88.000002685547,2|0,0:0|1:2,0:0:0:0:
68,80,55322,1,0,0:0:0:0:
152,256,55510,38,0,P|236:251|278:178,1,176.000005371094,10|0,1:2|1:2,0:0:0:0:
392,296,56072,2,0,P|380:338|378:382,1,88.000002685547,2|8,0:0|1:2,0:0:0:0:
504,356,56447,1,0,0:0:0:0:
294,235,56635,37,2,1:2:0:0:
502,175,56822,1,2,0:0:0:0:
302,263,57010,2,0,L|214:251,1,88.000002685547,10|0,1:2|0:0,0:0:0:0:
55,110,57385,6,0,P|138:96|172:19,1,176.000005371094,2|8,1:2|1:2,0:0:0:0:
304,118,57947,2,0,P|288:178|284:226,1,88.000002685547,2|0,0:0|1:2,0:0:0:0:
176,114,58322,1,0,0:0:0:0:
352,6,58510,6,0,P|435:19|469:96,1,176.000005371094,10|0,1:2|1:2,0:0:0:0:
352,214,59072,2,0,P|292:194|260:190,1,88.000002685547,2|8,0:0|1:2,0:0:0:0:
372,94,59447,1,0,0:0:0:0:
480,246,59635,6,0,L|472:333,1,88.000002685547,2|0,1:2|0:0,0:0:0:0:
260,278,60010,2,0,L|267:190,1,88.000002685547,10|0,1:2|0:0,0:0:0:0:
120,230,60385,1,4,1:2:0:0:
20,64,60572,38,0,P|63:55|105:42,1,88.000002685547,2|8,0:0|1:2,0:0:0:0:
232,4,60947,1,2,0:0:0:0:
136,172,61135,1,2,1:2:0:0:
105,42,61322,1,2,0:0:0:0:
268,128,61510,2,0,L|260:228,1,88.000002685547,10|2,1:2|0:0,0:0:0:0:
392,128,61885,5,6,1:2:0:0:
288,8,62072,2,0,L|192:28,1,88.000002685547,2|8,0:0|1:2,0:0:0:0:
260,215,62447,2,0,L|440:232,1,176.000005371094,2|0,0:0|0:0,0:0:0:0:
392,128,63010,1,10,1:2:0:0:
308,316,63197,1,2,0:0:0:0:
212,116,63385,6,0,P|164:140|160:256,1,176.000005371094,6|10,1:2|1:2,0:0:0:0:
71,375,63947,2,0,P|29:364|-14:359,1,88.000002685547,2|0,0:0|1:2,0:0:0:0:
156,251,64322,2,0,P|198:262|242:267,1,88.000002685547,2|8,0:0|1:2,0:0:0:0:
216,124,64697,1,2,0:0:0:0:
18,214,64885,6,0,P|-17:139|29:69,1,176.000005371094,6|8,1:2|1:2,0:0:0:0:
128,164,65447,1,2,0:0:0:0:
192,8,65635,1,2,1:2:0:0:
268,104,65822,1,0,0:0:0:0:
268,104,65916,1,0,1:0:0:0:
268,104,66010,2,0,L|252:206,1,88.000002685547,8|0,1:2|1:0,0:0:0:0:
380,364,66385,38,0,P|425:293|509:295,1,176.000005371094,6|8,1:0|0:2,0:0:0:0:
432,152,66947,2,0,P|384:164|336:168,1,88.000002685547,2|0,0:0|1:2,0:0:0:0:
376,40,67322,1,0,0:0:0:0:
203,144,67510,6,0,P|179:224|236:286,1,176.000005371094,10|0,1:2|1:2,0:0:0:0:
93,367,68072,2,0,P|53:349|12:335,1,88.000002685547,2|8,0:0|1:2,0:0:0:0:
84,216,68447,1,0,0:0:0:0:
244,268,68635,5,2,1:2:0:0:
172,64,68822,1,2,0:0:0:0:
272,256,69010,2,0,L|268:360,1,88.000002685547,10|0,1:2|0:0,0:0:0:0:
443,192,69385,6,0,P|360:186|322:110,1,176.000005371094,6|8,1:2|1:2,0:0:0:0:
184,192,69947,2,0,P|180:244|168:300,1,88.000002685547,2|0,0:0|1:2,0:0:0:0:
60,216,70322,1,0,0:0:0:0:
168,48,70510,38,0,P|251:53|289:129,1,176.000005371094,10|0,1:2|1:2,0:0:0:0:
388,256,71072,2,0,P|394:212|406:170,1,88.000002685547,2|8,0:0|1:2,0:0:0:0:
512,244,71447,1,2,0:0:0:0:
416,384,71635,6,0,L|300:364,1,88.000002685547,0|0,1:2|0:0,0:0:0:0:
329,369,71916,1,0,1:0:0:0:
329,369,72010,1,8,1:2:0:0:
388,256,72197,1,0,1:0:0:0:
216,310,72385,5,2,1:2:0:0:
275,197,72572,1,2,1:2:0:0:
329,369,72760,1,14,1:2:0:0:
329,369,72947,1,2,0:0:0:0:
189,224,73135,5,2,1:2:0:0:
302,283,73322,1,2,1:2:0:0:
130,337,73510,2,0,L|32:320,1,88.000002685547,14|0,1:2|0:0,0:0:0:0:
72,132,73885,37,2,1:2:0:0:
108,248,74072,1,2,1:2:0:0:
188,96,74260,1,14,1:2:0:0:
224,212,74447,1,2,0:2:0:0:
32,208,74635,5,2,1:2:0:0:
148,172,74822,1,0,1:2:0:0:
31,330,75010,1,12,1:2:0:0:
147,370,75197,1,2,1:2:0:0:
76,128,75385,6,0,P|151:120|259:112,1,176.000005371094,6|10,1:2|1:2,0:0:0:0:
384,193,75947,2,0,P|369:234|360:277,1,88.000002685547,2|0,0:0|1:2,0:0:0:0:
252,113,76322,2,0,P|266:71|275:29,1,88.000002685547,2|8,0:0|1:2,0:0:0:0:
140,85,76697,1,2,0:0:0:0:
252,237,76885,5,10,1:2:0:0:
96,205,77072,1,8,1:2:0:0:
252,113,77260,1,8,1:2:0:0:
156,345,77447,1,10,1:2:0:0:
344,257,77635,1,10,1:2:0:0:
101,174,77822,21,0,1:0:0:0:
98,184,77885,1,0,1:0:0:0:
98,194,77947,1,0,1:0:0:0:
96,205,78010,1,10,1:2:0:0:
336,228,78385,6,0,B|289:212|258:193|226:152|261:94|305:84|336:94|358:109|358:109|371:84|412:60|454:66|514:116|506:202|431:195|408:224|399:277,1,560,6|0,1:2|0:0,0:0:0:0:
483,345,79885,5,12,1:2:0:0:
483,345,80260,5,12,1:2:0:0:
359,281,80447,1,0,1:2:0:0:
475,205,80635,5,4,1:2:0:0:
492,177,80728,1,0,1:2:0:0:
494,146,80822,1,0,1:2:0:0:
481,117,80916,1,0,1:2:0:0:
457,97,81010,6,0,P|475:87|492:77,5,40.000001525879,4|0|0|0|0|0,1:2|1:2|1:2|1:2|1:2|1:2,0:0:0:0:
429,105,81385,22,0,P|390:102|351:93,1,80,6|2,1:2|0:2,0:0:0:0:
336,216,81760,2,0,P|375:219|414:228,1,80,10|2,1:2|0:2,0:0:0:0:
292,360,82135,5,2,1:2:0:0:
236,240,82322,1,2,0:2:0:0:
160,348,82510,1,10,1:2:0:0:
164,164,82697,6,0,P|200:136|308:168,1,160,2|2,0:2|0:2,0:0:0:0:
236,240,83260,1,10,1:2:0:0:
236,240,83447,1,2,0:2:0:0:
408,156,83635,6,0,P|395:117|389:78,1,80,2|0,1:2|0:0,0:0:0:0:
332,284,84010,2,0,P|344:322|350:361,1,80,8|0,1:2|0:0,0:0:0:0:
236,170,84385,37,2,1:2:0:0:
184,286,84572,1,2,0:2:0:0:
109,182,84760,2,0,L|118:97,1,80,10|0,1:2|0:0,0:0:0:0:
363,182,85135,5,2,1:2:0:0:
311,66,85322,1,2,0:2:0:0:
236,170,85510,2,0,L|245:255,1,80,10|0,1:2|0:0,0:0:0:0:
432,364,85885,6,0,P|478:302|453:230,1,160,2|10,1:2|1:2,0:0:0:0:
316,188,86447,1,2,0:2:0:0:
500,96,86635,1,2,1:2:0:0:
364,40,86822,1,2,0:2:0:0:
364,40,86916,1,0,1:2:0:0:
364,40,87010,2,0,L|276:56,1,80,8|0,1:2|1:2,0:0:0:0:
100,148,87385,5,6,1:2:0:0:
180,40,87572,1,2,0:2:0:0:
272,140,87760,2,0,L|268:240,1,80,10|2,1:2|0:2,0:0:0:0:
444,312,88135,37,2,1:2:0:0:
364,204,88322,1,2,0:2:0:0:
310,327,88510,1,10,1:2:0:0:
310,327,88697,1,2,0:2:0:0:
229,219,88885,6,0,P|190:224|152:235,1,80,4|2,1:2|0:2,0:0:0:0:
32,104,89260,2,0,P|70:115|109:120,1,80,10|2,1:2|0:2,0:0:0:0:
92,4,89635,1,2,1:2:0:0:
128,232,89822,5,0,0:0:0:0:
224,84,90010,2,0,L|312:100,1,80,8|0,1:2|0:0,0:0:0:0:
496,200,90385,5,6,1:2:0:0:
396,280,90572,1,2,0:2:0:0:
376,154,90760,2,0,L|392:68,1,80,10|0,1:2|0:0,0:0:0:0:
276,234,91135,37,2,1:2:0:0:
176,154,91322,1,2,0:2:0:0:
156,280,91510,2,0,L|172:366,1,80,10|0,1:2|0:0,0:0:0:0:
297,108,91885,5,6,1:2:0:0:
276,234,92072,1,2,0:2:0:0:
396,188,92260,1,10,1:2:0:0:
376,315,92447,1,2,0:2:0:0:
495,268,92635,6,0,P|499:228|507:189,1,80,0|0,1:2|0:0,0:0:0:0:
507,189,92916,1,0,1:2:0:0:
507,189,93010,1,8,1:2:0:0:
376,315,93197,1,0,1:2:0:0:
312,144,93385,5,6,1:2:0:0:
245,254,93572,1,0,1:0:0:0:
422,211,93760,1,8,1:2:0:0:
179,138,93947,37,2,1:2:0:0:
178,137,94041,1,8,1:2:0:0:
178,137,94135,1,8,1:2:0:0:
355,310,94322,1,0,1:0:0:0:
339,134,94510,1,2,1:2:0:0:
175,306,94697,1,14,1:2:0:0:
256,192,94791,12,0,99010,0:0:0:0:
