osu file format v14

[General]
AudioFilename: audio.mp3
AudioLeadIn: 0
PreviewTime: 53541
Countdown: 0
SampleSet: Soft
StackLeniency: 0.7
Mode: 0
LetterboxInBreaks: 0
WidescreenStoryboard: 1

[Editor]
DistanceSpacing: 1.1
BeatDivisor: 4
GridSize: 4
TimelineZoom: 1.4

[Metadata]
Title:Yada!
TitleUnicode:ヤダ!
Artist:Yuki Setsuna (CV: Kusunoki Tomori)
ArtistUnicode:優木せつ菜 (CV: 楠木ともり)
Creator:Doormat
Version:Hard
Source:ラブライブ!虹ヶ咲学園スクールアイドル同好会
Tags:love live! nijigasaki high school idol club gakuen doukoukai doukou kai nijigaku ニジガク nakagawa nana 中川菜々 llas sifas スクスタ festival all stars スクールアイドルフェスティバル perfect dream project pdp L!L!L! L!L!L! love the life we live Akira Sunset Hiroto Kikuchi 菊池博人 anime video game japanese pop jpop j-pop
BeatmapID:3232267
BeatmapSetID:1578999

[Difficulty]
HPDrainRate:5
CircleSize:4
OverallDifficulty:6.5
ApproachRate:7.5
SliderMultiplier:1.4
SliderTickRate:1

[Events]
//Background and Video events
0,0,"setsu.jpg",0,0
//Break Periods
2,15584,17185
//Storyboard Layer 0 (Background)
//Storyboard Layer 1 (Fail)
//Storyboard Layer 2 (Pass)
//Storyboard Layer 3 (Foreground)
//Storyboard Layer 4 (Overlay)
//Storyboard Sound Samples

[TimingPoints]
385,375,4,2,1,60,1,0
1697,-100,4,2,1,80,0,0
3291,-100,4,2,1,5,0,0
3385,-100,4,2,1,80,0,0
15385,-100,4,2,1,60,0,0
17822,-66.6666666666667,4,2,1,60,0,0
18385,-111.111111111111,4,2,15,70,0,0
18760,-111.111111111111,4,2,11,70,0,0
19135,-111.111111111111,4,2,12,70,0,0
19510,-111.111111111111,4,2,11,70,0,0
19885,-111.111111111111,4,2,15,70,0,0
20260,-111.111111111111,4,2,11,70,0,0
20635,-111.111111111111,4,2,12,70,0,0
21010,-111.111111111111,4,2,11,70,0,0
21385,-111.111111111111,4,2,15,70,0,0
21760,-111.111111111111,4,2,11,70,0,0
22135,-111.111111111111,4,2,12,70,0,0
22510,-111.111111111111,4,2,11,70,0,0
22885,-111.111111111111,4,2,15,70,0,0
23260,-111.111111111111,4,2,11,70,0,0
23635,-111.111111111111,4,2,12,70,0,0
24010,-111.111111111111,4,2,11,70,0,0
24385,-111.111111111111,4,2,14,70,0,0
24947,-111.111111111111,4,2,23,70,0,0
25510,-111.111111111111,4,2,12,70,0,0
25885,-111.111111111111,4,2,1,70,0,0
26072,-111.111111111111,4,2,11,70,0,0
26260,-111.111111111111,4,2,1,70,0,0
26635,-111.111111111111,4,2,10,70,0,0
26916,-111.111111111111,4,2,10,5,0,0
27010,-111.111111111111,4,2,1,70,0,0
27291,-111.111111111111,4,2,10,5,0,0
27385,-111.111111111111,4,2,15,70,0,0
27760,-111.111111111111,4,2,11,70,0,0
28135,-111.111111111111,4,2,12,70,0,0
28510,-111.111111111111,4,2,11,70,0,0
28885,-111.111111111111,4,2,15,70,0,0
29260,-111.111111111111,4,2,11,70,0,0
29635,-111.111111111111,4,2,12,70,0,0
30010,-111.111111111111,4,2,11,70,0,0
30385,-111.111111111111,4,2,15,70,0,0
30760,-111.111111111111,4,2,11,70,0,0
31135,-111.111111111111,4,2,12,70,0,0
31510,-111.111111111111,4,2,11,70,0,0
31885,-111.111111111111,4,2,20,70,0,0
32260,-111.111111111111,4,2,12,70,0,0
32635,-111.111111111111,4,2,14,70,0,0
33010,-111.111111111111,4,2,13,70,0,0
33385,-111.111111111111,4,2,15,70,0,0
33760,-111.111111111111,4,2,11,70,0,0
34135,-111.111111111111,4,2,12,70,0,0
34510,-111.111111111111,4,2,11,70,0,0
34885,-111.111111111111,4,2,15,70,0,0
35260,-111.111111111111,4,2,11,70,0,0
35635,-111.111111111111,4,2,12,70,0,0
36010,-111.111111111111,4,2,11,70,0,0
36385,-111.111111111111,4,2,11,70,0,0
36760,-111.111111111111,4,2,1,70,0,0
36947,-111.111111111111,4,2,25,70,0,0
37510,-111.111111111111,4,2,9,70,0,0
37885,-111.111111111111,4,2,1,70,0,0
38072,-111.111111111111,4,2,25,70,0,0
38260,-111.111111111111,4,2,9,70,0,0
38635,-111.111111111111,4,2,8,70,0,0
38916,-111.111111111111,4,2,1,70,0,0
39385,-100,4,2,15,70,0,0
39760,-100,4,2,11,70,0,0
40135,-100,4,2,12,70,0,0
40510,-100,4,2,11,70,0,0
40885,-100,4,2,15,70,0,0
41260,-100,4,2,11,70,0,0
41635,-100,4,2,12,70,0,0
42010,-100,4,2,11,70,0,0
42385,-100,4,2,15,70,0,0
42760,-100,4,2,11,70,0,0
43135,-100,4,2,12,70,0,0
43510,-100,4,2,11,70,0,0
43885,-100,4,2,15,70,0,0
44260,-100,4,2,11,70,0,0
44635,-100,4,2,12,70,0,0
45010,-100,4,2,11,70,0,0
45385,-111.111111111111,4,2,14,70,0,0
45760,-111.111111111111,4,2,5,70,0,0
46135,-111.111111111111,4,2,11,70,0,0
46510,-111.111111111111,4,2,5,70,0,0
46885,-111.111111111111,4,2,14,70,0,0
47260,-111.111111111111,4,2,5,70,0,0
47635,-111.111111111111,4,2,11,70,0,0
48010,-111.111111111111,4,2,5,70,0,0
48385,-100,4,2,1,70,0,0
48760,-100,4,2,11,70,0,0
49135,-100,4,2,12,73,0,0
49510,-100,4,2,13,76,0,0
49885,-100,4,2,14,80,0,0
50260,-100,4,2,19,83,0,0
50635,-100,4,2,15,86,0,0
51010,-100,4,2,20,90,0,0
51385,-100,4,2,1,100,0,0
53072,-100,4,2,1,70,0,0
53635,-100,4,2,1,80,0,0
54385,-100,4,2,1,90,0,1
66291,-100,4,2,1,90,0,0
66385,-100,4,2,1,90,0,1
78385,-133.333333333333,4,2,1,70,0,0
79885,-100,4,2,1,70,0,0
81385,-100,4,2,1,80,0,0
93385,-100,4,2,1,80,0,0
99010,-100,4,2,1,10,0,0

[Colours]
Combo1 : 250,200,10
Combo2 : 225,35,65
Combo3 : 70,110,240
Combo4 : 230,80,65
Combo5 : 130,165,255
Combo6 : 255,255,15

[HitObjects]
104,156,385,6,0,P|170:151|204:209,1,140,8|0,1:2|1:0,0:0:0:0:
276,272,947,2,0,P|342:276|376:218,1,140,8|0,1:2|3:0,0:0:0:0:
376,218,1697,6,0,L|350:80,1,140,4|0,1:2|1:2,0:0:0:0:
284,8,2260,1,4,1:2:0:0:
284,8,2447,1,0,1:2:0:0:
248,100,2635,1,4,1:2:0:0:
248,100,2822,1,0,1:0:0:0:
172,36,3010,2,0,P|132:28|68:84,1,105,12|0,1:2|0:0,0:0:0:0:
64,56,3385,6,0,L|77:124,1,70,6|2,1:2|0:2,0:0:0:0:
172,152,3760,2,0,L|158:220,1,70,10|2,1:2|0:2,0:0:0:0:
64,248,4135,1,2,1:2:0:0:
64,248,4322,2,0,L|78:316,1,70,2|10,0:2|1:2,0:0:0:0:
192,364,4697,6,0,P|246:325|240:258,1,140,2|2,0:2|0:2,0:0:0:0:
232,160,5260,1,10,1:2:0:0:
232,160,5447,1,2,0:2:0:0:
322,201,5635,2,0,L|392:192,1,70,2|0,1:2|0:0,0:0:0:0:
408,288,6010,2,0,L|338:297,1,70,8|0,1:2|0:0,0:0:0:0:
232,236,6385,37,2,1:2:0:0:
232,236,6572,1,2,0:2:0:0:
164,308,6760,2,0,L|177:376,1,70,10|0,1:2|0:0,0:0:0:0:
300,308,7135,5,2,1:2:0:0:
300,308,7322,1,2,0:2:0:0:
232,236,7510,2,0,L|245:167,1,70,10|0,1:2|0:0,0:0:0:0:
296,56,7885,6,0,P|272:24|168:40,1,140,2|10,1:2|1:2,0:0:0:0:
104,88,8447,1,2,0:0:0:0:
172,160,8635,2,0,L|256:148,1,70,2|2,1:2|0:0,0:0:0:0:
252,160,8916,1,0,1:2:0:0:
262,169,9010,2,0,L|250:253,1,70,8|0,1:2|1:2,0:0:0:0:
352,308,9385,6,0,P|384:294|418:286,1,70,6|2,1:2|0:2,0:0:0:0:
456,196,9760,2,0,P|423:182|389:174,1,70,10|2,1:2|0:2,0:0:0:0:
352,84,10135,1,2,1:2:0:0:
352,84,10322,2,0,P|384:70|418:62,1,70,2|10,0:2|1:2,0:0:0:0:
512,96,10697,1,2,0:2:0:0:
456,196,10885,38,0,L|470:264,1,70,4|2,1:2|0:2,0:0:0:0:
388,320,11260,2,0,L|373:251,1,70,10|2,1:2|0:2,0:0:0:0:
336,160,11635,1,2,1:2:0:0:
284,280,11822,1,0,0:0:0:0:
284,280,12010,2,0,L|196:268,1,70,8|0,1:2|0:0,0:0:0:0:
120,192,12385,5,6,1:2:0:0:
120,192,12572,1,2,0:2:0:0:
192,124,12760,2,0,L|180:44,1,70,10|0,1:2|0:0,0:0:0:0:
48,124,13135,5,2,1:2:0:0:
48,124,13322,1,2,0:2:0:0:
120,192,13510,2,0,L|108:272,1,70,10|0,1:2|0:0,0:0:0:0:
208,336,13885,5,6,1:2:0:0:
208,336,14072,1,2,0:2:0:0:
280,268,14260,1,10,1:2:0:0:
280,268,14447,1,2,0:2:0:0:
212,196,14635,2,0,L|120:208,1,70,0|0,1:2|0:0,0:0:0:0:
138,209,14916,1,0,1:2:0:0:
135,214,15010,1,8,1:2:0:0:
168,84,15197,38,0,L|202:86,2,35,2|2|6,1:2|0:2|1:2,0:0:0:0:
200,120,18010,5,8,1:2:0:0:
312,264,18385,6,0,L|373:252,1,62.9999980773926,4|0,1:2|0:0,0:0:0:0:
356,168,18760,2,0,L|294:179,1,62.9999980773926,10|0,1:2|0:0,0:0:0:0:
212,204,19135,2,0,P|177:153|195:94,1,125.999996154785,2|8,1:2|1:2,0:0:0:0:
252,16,19697,6,0,P|282:22|314:26,1,62.9999980773926,2|0,0:0|1:2,0:0:0:0:
328,112,20072,2,0,P|358:105|390:101,1,62.9999980773926,2|8,0:0|1:2,0:0:0:0:
472,140,20447,1,2,0:0:0:0:
472,140,20635,2,0,L|464:202,1,62.9999980773926,2|0,1:2|0:0,0:0:0:0:
380,220,21010,2,0,L|387:282,1,62.9999980773926,10|0,1:2|0:0,0:0:0:0:
484,328,21385,37,0,1:2:0:0:
316,368,21760,2,0,L|240:352,1,62.9999980773926,10|0,1:2|0:0,0:0:0:0:
236,268,22135,2,0,L|359:294,1,125.999996154785,2|8,1:2|1:2,0:0:0:0:
444,248,22697,6,0,P|437:217|436:185,1,62.9999980773926,2|0,0:0|1:2,0:0:0:0:
352,164,23072,2,0,P|358:133|359:101,1,62.9999980773926,2|8,0:0|1:2,0:0:0:0:
312,36,23447,1,2,0:0:0:0:
312,36,23635,2,0,L|244:56,1,62.9999980773926,2|0,1:2|0:0,0:0:0:0:
176,96,24010,1,10,1:2:0:0:
136,20,24197,1,2,0:0:0:0:
96,131,24385,6,0,P|104:192|156:222,1,125.999996154785,2|8,1:2|1:2,0:0:0:0:
244,224,24947,2,0,P|274:171|334:163,1,125.999996154785,2|0,0:2|0:0,0:0:0:0:
348,68,25510,6,0,L|212:52,1,125.999996154785,10|0,1:2|1:2,0:0:0:0:
148,92,26072,1,10,1:2:0:0:
148,92,26260,2,0,L|168:168,1,62.9999980773926,8|0,1:2|1:2,0:0:0:0:
252,196,26635,37,10,1:2:0:0:
92,264,27010,1,10,1:2:0:0:
232,364,27385,6,0,L|293:350,1,62.9999980773926,6|0,1:2|0:0,0:0:0:0:
292,264,27760,2,0,L|230:250,1,62.9999980773926,10|0,1:2|0:0,0:0:0:0:
192,172,28135,2,0,P|224:136|308:140,1,125.999996154785,2|8,1:2|1:2,0:0:0:0:
388,100,28697,6,0,L|381:37,1,62.9999980773926,2|0,0:0|1:2,0:0:0:0:
300,120,29072,2,0,L|306:182,1,62.9999980773926,2|8,0:0|1:2,0:0:0:0:
368,252,29447,1,2,0:0:0:0:
368,252,29635,2,0,L|428:233,1,62.9999980773926,2|0,1:2|0:0,0:0:0:0:
460,312,30010,2,0,L|399:330,1,62.9999980773926,10|0,1:2|0:0,0:0:0:0:
296,356,30385,6,0,P|269:338|240:326,1,62.9999980773926,0|0,1:2|0:0,0:0:0:0:
204,248,30760,2,0,P|230:230|259:218,1,62.9999980773926,10|0,1:2|0:0,0:0:0:0:
316,152,31135,2,0,P|288:116|200:124,1,125.999996154785,2|8,1:2|1:2,0:0:0:0:
104,100,31697,38,0,L|113:37,1,62.9999980773926,2|0,0:0|1:2,0:0:0:0:
28,24,32072,2,0,L|18:86,1,62.9999980773926,2|8,0:0|1:2,0:0:0:0:
8,176,32447,1,2,0:0:0:0:
8,176,32635,2,0,L|70:186,1,62.9999980773926,2|0,1:2|0:0,0:0:0:0:
72,272,33010,2,0,L|9:282,1,62.9999980773926,10|0,1:2|0:0,0:0:0:0:
147,223,33385,6,0,P|169:247|196:261,1,62.9999980773926,0|0,1:2|0:0,0:0:0:0:
248,192,33760,2,0,P|226:168|199:154,1,62.9999980773926,10|0,1:2|0:0,0:0:0:0:
148,84,34135,2,0,P|172:52|260:56,1,125.999996154785,2|8,1:2|1:2,0:0:0:0:
348,100,34697,6,0,L|407:80,1,62.9999980773926,2|0,0:0|1:2,0:0:0:0:
440,160,35072,2,0,L|380:179,1,62.9999980773926,2|8,0:0|1:2,0:0:0:0:
316,236,35447,1,2,0:0:0:0:
316,236,35635,2,0,L|334:296,1,62.9999980773926,2|0,1:2|0:0,0:0:0:0:
252,324,36010,2,0,L|233:263,1,62.9999980773926,10|0,1:2|0:0,0:0:0:0:
176,171,36385,6,0,P|218:128|279:132,1,125.999996154785,2|8,1:2|1:2,0:0:0:0:
332,48,36947,2,0,P|374:91|435:87,1,125.999996154785,2|0,0:2|0:0,0:0:0:0:
480,180,37510,38,0,P|452:220|360:212,1,125.999996154785,10|0,1:2|1:0,0:0:0:0:
304,264,38072,1,2,0:2:0:0:
304,264,38260,2,0,L|314:326,1,62.9999980773926,10|0,1:2|0:0,0:0:0:0:
228,344,38635,2,0,L|217:281,1,62.9999980773926,2|0,1:2|0:0,0:0:0:0:
208,276,38916,1,0,1:0:0:0:
198,270,39010,2,0,L|130:290,1,62.9999980773926,8|0,1:2|1:0,0:0:0:0:
68,208,39385,1,4,1:2:0:0:
128,132,39572,5,8,0:0:0:0:
128,132,39666,1,8,0:0:0:0:
128,132,39760,2,0,L|197:141,1,70,8|8,1:2|0:0,0:0:0:0:
216,52,40135,2,0,L|285:61,1,70,8|0,1:2|0:0,0:0:0:0:
372,32,40510,38,0,L|376:9,6,23.3333333333333,2|0|0|0|0|0|0,3:0|3:0|3:0|3:0|3:0|3:0|1:2,0:0:0:0:
356,120,41072,53,8,0:0:0:0:
340,141,41166,1,8,0:0:0:0:
334,166,41260,1,8,1:2:0:0:
337,192,41354,1,8,0:0:0:0:
349,214,41447,1,8,0:0:0:0:
296,288,41635,2,0,L|224:272,1,70,8|0,1:2|0:0,0:0:0:0:
148,320,42010,38,0,L|152:342,6,23.3333333333333,2|0|0|0|0|0|0,3:0|3:2|3:2|3:2|3:2|3:2|1:2,0:0:0:0:
102,240,42572,53,8,0:0:0:0:
102,240,42665,1,8,0:0:0:0:
102,240,42760,2,0,L|110:156,1,70,8|8,1:2|0:0,0:0:0:0:
188,123,43135,2,0,L|220:195,1,70,8|0,1:2|0:0,0:0:0:0:
304,160,43510,6,0,L|308:137,6,23.3333333333333,2|0|0|0|0|0|0,3:0|3:0|3:0|3:0|3:0|3:0|1:2,0:0:0:0:
312,252,44072,21,8,0:0:0:0:
332,268,44165,1,8,0:0:0:0:
357,275,44259,1,8,1:2:0:0:
383,272,44353,1,8,0:0:0:0:
405,259,44447,1,8,0:2:0:0:
468,192,44635,2,0,L|448:108,1,70,8|8,1:2|0:2,0:0:0:0:
404,48,45010,70,0,L|423:35,6,23.3333333333333,2|0|0|0|0|0|4,3:0|3:2|3:2|3:2|3:2|3:2|1:2,0:0:0:0:
264,164,45760,21,10,1:2:0:0:
264,164,45947,1,2,0:0:0:0:
242,82,46135,2,0,P|201:57|131:86,1,125.999996154785,2|8,1:2|1:2,0:0:0:0:
71,143,46697,6,0,P|87:171|97:201,1,62.9999980773926,2|0,0:0|1:2,0:0:0:0:
108,292,47072,2,0,P|138:286|170:285,1,62.9999980773926,2|8,0:0|1:2,0:0:0:0:
259,303,47447,2,0,P|262:271|272:241,1,62.9999980773926,2|0,0:0|1:2,0:0:0:0:
196,192,47822,2,0,P|205:162|209:130,1,62.9999980773926,2|8,0:0|1:2,0:0:0:0:
180,44,48197,1,2,0:0:0:0:
292,96,48385,6,0,L|359:76,1,70,4|0,1:2|0:0,0:0:0:0:
448,52,48760,2,0,L|467:119,1,70,8|0,1:2|0:0,0:0:0:0:
492,208,49135,2,0,L|424:227,1,70,0|0,1:2|0:0,0:0:0:0:
336,252,49510,2,0,L|316:184,1,70,8|0,1:2|0:0,0:0:0:0:
292,96,49885,38,0,L|224:115,1,70,0|0,1:2|0:0,0:0:0:0:
128,84,50260,2,0,L|125:153,1,70,8|0,1:2|0:0,0:0:0:0:
65,236,50635,2,0,L|130:260,1,70,0|0,1:2|0:0,0:0:0:0:
190,342,51010,2,0,L|233:286,1,70,8|0,1:2|0:0,0:0:0:0:
312,208,51385,6,0,P|355:235|369:284,2,105,14|2|2,1:2|1:2|1:2,0:0:0:0:
241,135,52135,2,0,P|243:84|279:47,2,105,14|2|2,1:2|1:2|1:2,0:0:0:0:
214,232,52885,6,0,P|168:256|88:200,1,140,14|8,1:2|1:2,0:0:0:0:
164,160,53447,1,0,1:0:0:0:
105,91,53635,5,2,1:2:0:0:
105,91,53822,1,2,0:2:0:0:
95,218,54010,1,14,1:2:0:0:
238,87,54385,38,0,P|292:44|358:59,1,140,6|8,1:0|1:2,0:0:0:0:
434,128,54947,2,0,P|443:195|398:245,1,140,2|0,0:0|0:0,0:0:0:0:
296,223,55510,6,0,L|312:362,1,140,10|0,1:2|1:2,0:0:0:0:
210,372,56072,2,0,L|193:232,1,140,2|0,0:0|0:0,0:0:0:0:
213,137,56635,1,2,1:2:0:0:
213,137,56822,1,2,0:0:0:0:
118,173,57010,2,0,L|39:155,1,70,10|0,1:2|0:0,0:0:0:0:
118,58,57385,6,0,P|186:56|220:0,1,140,2|8,1:2|1:2,0:0:0:0:
324,10,57947,2,0,P|381:44|383:111,1,140,2|0,0:0|0:0,0:0:0:0:
384,216,58510,6,0,L|246:191,1,140,10|0,1:2|1:2,0:0:0:0:
232,294,59072,2,0,L|369:318,1,140,2|0,0:0|0:0,0:0:0:0:
474,315,59635,2,0,P|472:349|474:384,1,70,2|0,1:2|0:0,0:0:0:0:
369,318,60010,2,0,P|370:283|368:248,1,70,10|0,1:2|0:0,0:0:0:0:
329,152,60385,1,4,1:2:0:0:
262,230,60572,38,0,L|185:213,1,70,2|8,0:0|1:2,0:0:0:0:
113,151,60947,1,2,0:0:0:0:
112,151,61135,2,0,P|127:119|133:85,1,70,2|2,1:2|0:0,0:0:0:0:
230,46,61510,2,0,P|244:77|250:111,1,70,10|2,1:2|0:0,0:0:0:0:
353,137,61885,5,6,1:2:0:0:
353,137,62072,2,0,L|357:55,1,70,2|8,0:0|1:2,0:0:0:0:
250,111,62447,2,0,L|239:260,1,140,2|0,0:0|0:0,0:0:0:0:
147,291,63010,1,10,1:2:0:0:
147,291,63197,1,2,0:0:0:0:
273,344,63385,6,0,P|334:347|375:282,1,140,6|10,1:2|1:2,0:0:0:0:
331,195,63947,2,0,L|261:205,1,70,2|0,0:0|1:2,0:0:0:0:
245,105,64322,2,0,L|314:94,1,70,2|8,0:0|1:2,0:0:0:0:
366,6,64697,1,2,0:0:0:0:
419,126,64885,6,0,P|410:192|402:297,1,140,6|8,1:2|1:2,0:0:0:0:
475,338,65447,1,2,0:0:0:0:
377,367,65635,2,0,L|275:350,1,70,2|0,1:2|0:0,0:0:0:0:
302,367,65916,1,0,1:0:0:0:
296,378,66010,2,0,L|194:361,1,70,8|0,1:2|1:0,0:0:0:0:
114,285,66385,38,0,P|144:224|210:216,1,140,6|8,1:0|0:2,0:0:0:0:
280,140,66947,2,0,P|310:200|376:208,1,140,2|0,0:0|0:0,0:0:0:0:
454,138,67510,6,0,L|431:-7,1,140,10|0,1:2|1:2,0:0:0:0:
329,0,68072,2,0,L|307:138,1,140,2|0,0:0|0:0,0:0:0:0:
226,201,68635,1,2,1:2:0:0:
226,201,68822,1,2,0:0:0:0:
188,104,69010,2,0,L|112:115,1,70,10|0,1:2|0:0,0:0:0:0:
141,231,69385,6,0,P|183:286|250:290,1,140,6|8,1:2|1:2,0:0:0:0:
341,343,69947,2,0,P|382:288|449:284,1,140,2|0,0:0|0:0,0:0:0:0:
446,180,70510,6,0,L|288:149,1,140,10|0,1:2|1:2,0:0:0:0:
238,227,71072,2,0,P|247:261|253:296,1,70,2|8,0:0|1:2,0:0:0:0:
152,282,71447,1,2,0:0:0:0:
132,183,71635,2,0,P|140:149|146:114,1,70,0|0,1:2|0:0,0:0:0:0:
139,103,71916,1,0,1:0:0:0:
131,91,72010,2,0,L|42:105,1,70,8|0,1:2|1:0,0:0:0:0:
190,5,72385,37,2,1:2:0:0:
235,108,72572,1,2,1:2:0:0:
301,17,72760,2,0,L|370:6,1,70,14|2,1:2|0:0,0:0:0:0:
469,59,73135,5,2,1:2:0:0:
366,104,73322,1,2,1:2:0:0:
457,170,73510,2,0,L|468:239,1,70,14|0,1:2|0:0,0:0:0:0:
358,264,73885,5,2,1:2:0:0:
434,346,74072,1,2,1:2:0:0:
324,370,74260,2,0,L|235:351,1,70,14|2,1:2|0:2,0:0:0:0:
184,270,74635,5,0,1:2:0:0:
293,250,74822,1,0,1:2:0:0:
221,164,75010,1,12,1:2:0:0:
221,164,75197,1,2,1:2:0:0:
111,183,75385,38,0,P|86:151|126:57,1,140,6|10,1:2|1:2,0:0:0:0:
198,6,75947,2,0,P|230:19|263:29,1,70,2|0,0:0|1:2,0:0:0:0:
279,130,76322,2,0,P|245:140|213:153,1,70,2|8,0:0|1:2,0:0:0:0:
286,228,76697,1,2,0:0:0:0:
372,112,76885,6,0,L|450:131,1,70,10|8,1:2|1:2,0:0:0:0:
503,221,77260,1,8,1:2:0:0:
434,309,77447,1,10,1:2:0:0:
371,216,77635,1,10,1:2:0:0:
302,304,77822,38,0,L|309:340,3,23.3333333333333,0|0|0|10,1:0|1:0|1:0|0:2,0:0:0:0:
372,112,78385,54,0,B|419:57|386:3|386:3|328:0|309:45|309:45|268:12|225:25|225:25|231:59|216:95,1,367.500014019013,6|0,1:2|0:0,0:0:0:0:
121,43,79885,5,12,1:2:0:0:
272,196,80260,2,0,L|263:266,1,70,12|0,1:2|1:2,0:0:0:0:
344,331,80635,1,4,1:2:0:0:
378,336,80728,1,0,1:2:0:0:
410,324,80822,1,0,1:2:0:0:
431,297,80916,1,0,1:2:0:0:
435,263,81010,2,0,L|426:193,1,70,4|0,1:2|1:2,0:0:0:0:
405,75,81385,38,0,P|376:95|343:107,1,70,6|2,1:2|0:2,0:0:0:0:
249,128,81760,2,0,P|220:107|187:95,1,70,10|2,1:2|0:2,0:0:0:0:
103,143,82135,1,2,1:2:0:0:
103,143,82322,2,0,L|125:231,1,70,2|10,0:2|1:2,0:0:0:0:
197,272,82697,6,0,P|184:318|89:337,1,140,2|2,0:2|0:2,0:0:0:0:
32,276,83260,1,10,1:2:0:0:
32,276,83447,1,2,0:2:0:0:
16,180,83635,2,0,L|32:111,1,70,2|0,1:2|0:0,0:0:0:0:
131,110,84010,2,0,L|146:178,1,70,8|0,1:2|0:0,0:0:0:0:
266,131,84385,5,2,1:2:0:0:
266,131,84572,1,2,0:2:0:0:
317,217,84760,2,0,L|392:203,1,70,10|0,1:2|0:0,0:0:0:0:
317,45,85135,5,2,1:2:0:0:
317,45,85322,1,2,0:2:0:0:
266,131,85510,2,0,L|191:117,1,70,10|0,1:2|0:0,0:0:0:0:
89,61,85885,38,0,P|40:104|56:181,1,140,2|10,1:2|1:2,0:0:0:0:
108,252,86447,1,2,0:2:0:0:
178,181,86635,2,0,L|253:195,1,70,2|2,1:2|0:2,0:0:0:0:
252,206,86916,1,0,1:2:0:0:
257,218,87010,2,0,L|244:286,1,70,8|0,1:2|1:2,0:0:0:0:
384,283,87385,6,0,L|371:214,1,70,6|2,1:2|0:2,0:0:0:0:
468,196,87760,2,0,L|480:127,1,70,10|2,1:2|0:2,0:0:0:0:
384,109,88135,1,2,1:2:0:0:
384,109,88322,2,0,L|371:40,1,70,2|10,0:2|1:2,0:0:0:0:
275,13,88697,1,2,0:2:0:0:
241,132,88885,6,0,L|171:121,1,70,4|2,1:2|0:2,0:0:0:0:
156,220,89260,2,0,L|225:230,1,70,10|2,1:2|0:2,0:0:0:0:
277,314,89635,1,2,1:2:0:0:
317,187,89822,1,0,0:0:0:0:
317,187,90010,2,0,L|386:176,1,70,8|0,1:2|0:0,0:0:0:0:
486,246,90385,5,6,1:2:0:0:
486,246,90572,1,2,0:2:0:0:
402,297,90760,2,0,L|423:369,1,70,10|0,1:2|0:0,0:0:0:0:
281,351,91135,37,2,1:2:0:0:
281,351,91322,1,2,0:2:0:0:
197,300,91510,2,0,L|218:228,1,70,10|0,1:2|0:0,0:0:0:0:
262,127,91885,6,0,P|225:111|184:106,1,70,6|2,1:2|0:2,0:0:0:0:
112,155,92260,1,10,1:2:0:0:
112,155,92447,1,2,0:2:0:0:
37,91,92635,2,0,P|48:48|54:12,1,70,0|0,1:2|0:0,0:0:0:0:
66,24,92916,1,0,1:2:0:0:
79,25,93010,2,0,L|160:6,1,70,8|0,1:2|1:2,0:0:0:0:
222,95,93385,6,0,L|209:197,1,70,6|0,1:2|1:0,0:0:0:0:
300,226,93760,1,8,1:2:0:0:
211,278,93947,1,2,1:2:0:0:
211,278,94041,1,8,1:2:0:0:
211,278,94135,2,0,L|110:264,1,70,8|0,1:2|1:0,0:0:0:0:
70,191,94510,1,2,1:2:0:0:
172,161,94697,1,14,1:2:0:0:
256,192,94791,12,0,99010,0:0:0:0:
