osu file format v14

[General]
AudioFilename: audio.mp3
AudioLeadIn: 0
PreviewTime: 52668
Countdown: 0
SampleSet: Soft
StackLeniency: 0.4
Mode: 0
LetterboxInBreaks: 0
WidescreenStoryboard: 1

[Editor]
DistanceSpacing: 1
BeatDivisor: 4
GridSize: 4
TimelineZoom: 2.1

[Metadata]
Title:MELODY
TitleUnicode:MELODY
Artist:Yuki Setsuna (CV: Kusunoki Tomori)
ArtistUnicode:優木せつ菜 (CV: 楠木ともり)
Creator:Doormat
Version:Scarlet
Source:ラブライブ!虹ヶ咲学園スクールアイドル同好会
Tags:love live! nijigasaki high school idol club gakuen doukoukai doukou kai nijigaku ニジガク nakagawa nana 中川菜々 llas sifas スクスタ festival all stars スクールアイドルフェスティバル perfect dream project pdp love u my friends Suzuki Ereka 鈴木エレカ Suzuki Manaka 鈴木まなか Hiroki Sagawa Saito Ryosuke サイトウ リョースケ anime video game japanese pop
BeatmapID:2736778
BeatmapSetID:1321136

[Difficulty]
HPDrainRate:6
CircleSize:4
OverallDifficulty:9
ApproachRate:9.5
SliderMultiplier:3.4
SliderTickRate:1

[Events]
//Background and Video events
0,0,"setsuna.jpg",0,0
//Break Periods
//Storyboard Layer 0 (Background)
//Storyboard Layer 1 (Fail)
//Storyboard Layer 2 (Pass)
//Storyboard Layer 3 (Foreground)
//Storyboard Layer 4 (Overlay)
//Storyboard Sound Samples

[TimingPoints]
1157,521.739130434783,4,2,1,40,1,0
1157,-133.333333333333,4,2,1,40,0,0
5330,-100,4,2,1,50,0,0
6374,-100,4,2,1,60,0,0
7417,-83.3333333333333,4,2,1,70,0,0
8461,-100,4,2,1,80,0,0
8983,-100,4,2,1,80,0,0
9504,-100,4,2,14,80,0,0
9570,-100,4,2,1,80,0,0
9765,-100,4,2,14,80,0,0
9961,-100,4,2,1,80,0,0
10157,-100,4,2,14,80,0,0
10352,-100,4,2,1,80,0,0
10548,-100,4,2,14,80,0,0
10613,-100,4,2,1,80,0,0
10809,-100,4,2,12,80,0,0
10874,-100,4,2,1,80,0,0
11070,-100,4,2,11,80,0,0
11135,-100,4,2,1,80,0,0
11330,-100,4,2,10,80,0,0
11396,-100,4,2,1,80,0,0
11591,-100,4,2,11,80,0,0
11657,-100,4,2,1,80,0,0
11983,-100,4,2,12,80,0,0
12048,-100,4,2,1,80,0,0
12374,-100,4,2,13,80,0,0
12439,-100,4,2,1,80,0,0
12635,-100,4,2,12,80,0,0
12700,-100,4,2,1,80,0,0
13157,-100,4,2,11,80,0,0
13222,-100,4,2,1,80,0,0
13678,-100,4,2,10,80,0,0
13743,-100,4,2,1,80,0,0
15243,-100,4,2,12,80,0,0
15309,-100,4,2,1,80,0,0
15765,-100,4,2,11,80,0,0
15830,-100,4,2,1,80,0,0
17852,-200,4,2,1,50,0,0
25157,-133.333333333333,4,2,1,70,0,0
26200,-100,4,2,1,60,0,0
34548,-166.666666666667,4,2,1,50,0,0
42113,-100,4,2,1,70,0,0
42374,-100,4,2,1,80,0,0
42896,-100,4,2,1,70,0,0
46548,-100,4,2,1,80,0,0
46939,-100,4,2,1,70,0,0
49157,-100,4,2,14,70,0,0
49222,-100,4,2,1,70,0,0
50200,-100,4,2,14,70,0,0
50265,-100,4,2,1,70,0,0
50722,-100,4,2,15,70,0,0
50787,-100,4,2,1,70,0,0
51243,-100,4,2,16,70,0,0
52287,-100,4,2,1,40,0,0
52809,-100,4,2,1,60,0,0
53330,-90.9090909090909,4,2,1,80,0,1
59852,-66.6666666666667,4,2,1,90,0,1
60113,-90.9090909090909,4,2,17,80,0,1
60178,-90.9090909090909,4,2,1,80,0,1
60374,-66.6666666666667,4,2,1,90,0,1
60635,-90.9090909090909,4,2,16,80,0,1
60700,-90.9090909090909,4,2,1,80,0,1
60896,-90.9090909090909,4,2,1,90,0,1
61157,-90.9090909090909,4,2,14,80,0,1
61222,-90.9090909090909,4,2,1,80,0,1
61678,-90.9090909090909,4,2,15,80,0,1
61743,-90.9090909090909,4,2,1,80,0,1
69896,-90.9090909090909,4,2,1,80,0,0
70026,-90.9090909090909,4,2,1,80,0,1
76548,-66.6666666666667,4,2,1,90,0,1
76809,-90.9090909090909,4,2,17,80,0,1
76874,-90.9090909090909,4,2,1,80,0,1
77070,-66.6666666666667,4,2,1,90,0,1
77330,-90.9090909090909,4,2,16,80,0,1
77396,-90.9090909090909,4,2,1,80,0,1
77591,-90.9090909090909,4,2,1,90,0,1
77852,-90.9090909090909,4,2,14,80,0,1
77917,-90.9090909090909,4,2,1,80,0,1
78374,-90.9090909090909,4,2,15,80,0,1
78439,-90.9090909090909,4,2,1,80,0,1
81504,-125,4,2,1,80,0,1
82026,-90.9090909090909,4,2,1,80,0,1
83591,-100,4,2,1,60,0,0
84113,-100,4,2,1,40,0,0
84200,-100,4,2,1,45,0,0
84287,-100,4,2,1,50,0,0
84374,-100,4,2,1,55,0,0
84461,-100,4,2,1,60,0,0
84548,-100,4,2,1,65,0,0
84635,-100,4,2,1,70,0,0
84896,-66.6666666666667,4,2,1,90,0,0
84961,-100,4,2,1,80,0,0
85417,-66.6666666666667,4,2,1,90,0,0
85483,-100,4,2,1,80,0,0
85939,-100,4,2,12,80,0,0
86004,-100,4,2,1,80,0,0
86200,-100,4,2,11,80,0,0
86265,-100,4,2,1,80,0,0
86461,-100,4,2,10,80,0,0
86526,-100,4,2,1,80,0,0
86722,-100,4,2,11,80,0,0
86787,-100,4,2,1,80,0,0
87113,-100,4,2,12,80,0,0
87178,-100,4,2,1,80,0,0
87504,-100,4,2,13,80,0,0
87570,-100,4,2,1,80,0,0
87765,-100,4,2,12,80,0,0
87830,-100,4,2,1,80,0,0
88287,-100,4,2,10,80,0,0
88352,-100,4,2,1,80,0,0
88809,-100,4,2,14,80,0,0
88874,-100,4,2,1,80,0,0
89070,-100,4,2,14,80,0,0
89265,-100,4,2,1,80,0,0
89461,-100,4,2,14,80,0,0
89917,-100,4,2,1,80,0,0
90113,-100,4,2,13,80,0,0
90178,-100,4,2,1,80,0,0
90374,-100,4,2,12,80,0,0
90439,-100,4,2,1,80,0,0
90635,-100,4,2,15,80,0,0
90700,-100,4,2,1,80,0,0
90896,-100,4,2,14,80,0,0
90961,-100,4,2,1,80,0,0
91678,-100,4,2,12,80,0,0
91743,-100,4,2,1,80,0,0
91939,-100,4,2,11,80,0,0
92004,-100,4,2,1,80,0,0
92461,-100,4,2,10,80,0,0
92526,-100,4,2,1,80,0,0
92983,-100,4,2,14,80,0,0
93048,-100,4,2,1,80,0,0
93243,-100,4,2,14,80,0,0
93439,-100,4,2,1,80,0,0
93635,-100,4,2,14,80,0,0
93830,-100,4,2,1,80,0,0
94026,-100,4,2,14,80,0,0
94091,-100,4,2,1,80,0,0
94287,-100,4,2,12,80,0,0
94352,-100,4,2,1,80,0,0
94548,-100,4,2,11,80,0,0
94613,-100,4,2,1,80,0,0
94809,-100,4,2,10,80,0,0
94874,-100,4,2,1,80,0,0
95070,-100,4,2,11,80,0,0
95135,-100,4,2,1,80,0,0
95461,-100,4,2,12,80,0,0
95526,-100,4,2,1,80,0,0
95852,-100,4,2,13,80,0,0
95917,-100,4,2,1,80,0,0
96113,-100,4,2,12,80,0,0
96178,-100,4,2,1,80,0,0
96635,-100,4,2,11,80,0,0
96700,-100,4,2,1,80,0,0
97157,-100,4,2,10,80,0,0
97222,-100,4,2,1,80,0,0
98722,-100,4,2,12,80,0,0
98787,-100,4,2,1,80,0,0
99243,-100,4,2,11,80,0,0
99309,-100,4,2,1,80,0,0
100287,-100,4,2,14,80,0,0
100352,-100,4,2,1,80,0,0
100417,-100,4,2,1,60,0,0
101330,-100,4,2,10,80,0,0
102504,-100,4,2,1,60,0,0
103417,-100,4,2,10,80,0,0
107591,-100,4,2,1,10,0,0

[Colours]
Combo1 : 130,165,255
Combo2 : 225,35,65
Combo3 : 70,110,240
Combo4 : 230,80,65

[HitObjects]
136,132,1157,5,4,1:2:0:0:
275,197,1417,2,0,L|257:323,1,127.500004863739,8|0,1:2|1:0,0:0:0:0:
339,381,1809,2,0,L|356:254,1,127.500004863739,8|0,1:2|1:0,0:0:0:0:
415,165,2200,5,8,1:2:0:0:
275,197,2330,2,0,L|135:165,1,127.500004863739,8|0,1:3|0:0,0:0:0:0:
53,103,2722,5,8,1:2:0:0:
61,199,2852,1,8,1:3:0:0:
141,143,2983,2,0,L|160:65,1,63.7500024318696,4|0,1:3|0:0,0:0:0:0:
152,232,3243,5,4,1:2:0:0:
284,148,3504,2,0,L|416:168,1,127.500004863739,8|0,1:2|1:0,0:0:0:0:
436,68,3896,2,0,L|304:48,1,127.500004863739,8|0,1:2|1:0,0:0:0:0:
220,0,4287,5,8,1:2:0:0:
284,148,4417,2,0,L|260:304,1,127.500004863739,8|0,1:3|0:0,0:0:0:0:
180,344,4809,5,8,1:2:0:0:
176,248,4939,1,8,1:3:0:0:
94,299,5070,2,0,L|100:380,1,63.7500024318696,4|0,1:3|0:0,0:0:0:0:
24,244,5330,5,4,1:2:0:0:
260,296,5591,1,0,1:0:0:0:
312,60,5852,1,0,1:0:0:0:
76,8,6113,1,0,1:0:0:0:
24,243,6374,6,0,L|32:332,1,85,4|0,1:2|0:0,0:0:0:0:
136,256,6635,2,0,L|144:345,1,85,0|0,1:0|0:0,0:0:0:0:
240,220,6896,2,0,L|248:309,1,85,0|0,1:0|0:0,0:0:0:0:
352,233,7157,2,0,L|360:322,1,85,0|0,1:0|0:0,0:0:0:0:
456,208,7417,6,0,P|480:160|512:118,1,101.999996887207,0|0,1:0|0:0,0:0:0:0:
356,96,7678,2,0,P|327:51|307:2,1,101.999996887207,0|0,1:0|0:0,0:0:0:0:
209,126,7939,2,0,P|155:128|103:121,1,101.999996887207,0|0,1:0|0:0,0:0:0:0:
161,268,8200,2,0,P|136:315|104:357,1,101.999996887207,0|0,1:0|0:0,0:0:0:0:
312,232,8461,5,8,1:2:0:0:
52,168,8591,1,0,1:2:0:0:
52,168,8983,5,0,3:0:0:0:
91,182,9069,1,0,3:0:0:0:
132,174,9156,1,0,3:0:0:0:
164,146,9243,1,0,3:0:0:0:
203,131,9329,1,0,3:0:0:0:
244,139,9416,1,0,3:0:0:0:
276,167,9504,6,0,P|267:229|261:281,1,85,6|0,1:2|0:0,0:0:0:0:
428,112,9765,1,10,0:0:0:0:
352,8,9896,2,0,P|301:18|251:23,1,85,2|0,0:0|0:0,0:0:0:0:
352,216,10157,1,2,1:2:0:0:
428,112,10288,2,0,P|479:122|529:127,1,85,10|0,0:0|0:0,0:0:0:0:
340,312,10548,2,0,P|297:317|256:325,1,85,2|0,1:2|0:0,0:0:0:0:
32,136,10809,6,0,L|17:219,1,85,10|0,0:0|1:0,0:0:0:0:
188,200,11070,2,0,L|202:283,1,85,2|0,0:0|1:0,0:0:0:0:
17,220,11330,2,0,L|2:303,1,85,10|0,0:0|0:0,0:0:0:0:
202,283,11591,6,0,P|274:244|346:283,1,170,2|8,1:2|0:0,0:0:0:0:
408,104,11983,2,0,L|392:8,1,85,2|0,0:0|0:0,0:0:0:0:
280,116,12243,1,0,1:0:0:0:
428,220,12374,2,0,L|511:201,1,85,10|0,0:0|0:0,0:0:0:0:
306,319,12635,6,0,P|263:275|202:283,1,127.5,2|0,1:2|0:0,0:0:0:0:
202,283,12896,2,0,L|217:172,1,85,8|0,0:0|1:2,0:0:0:0:
416,112,13157,1,2,0:0:0:0:
272,64,13287,1,0,1:0:0:0:
357,246,13417,2,0,L|373:346,1,85,8|0,0:0|0:0,0:0:0:0:
150,139,13678,6,0,P|231:134|271:63,1,170,6|8,1:2|0:0,0:0:0:0:
448,128,14070,2,0,L|436:236,1,85
300,96,14330,1,0,1:0:0:0:
512,36,14461,1,8,0:0:0:0:
512,36,14591,1,0,0:0:0:0:
256,28,14722,6,0,P|301:95|382:91,1,170,0|8,1:0|0:0,0:0:0:0:
343,3,15113,1,0,1:0:0:0:
205,174,15243,6,0,P|143:227|66:202,1,170,2|8,0:0|0:0,0:0:0:0:
126,128,15634,1,0,0:0:0:0:
267,298,15765,6,0,L|258:384,1,85,2|0,1:2|0:0,0:0:0:0:
415,222,16026,1,0,3:0:0:0:
221,149,16157,1,0,3:0:0:0:
415,82,16287,1,0,3:0:0:0:
243,266,16417,1,8,1:3:0:0:
451,210,16548,1,4,3:0:0:0:
265,383,16678,1,4,3:0:0:0:
487,338,16809,1,4,1:2:0:0:
276,36,17852,6,0,P|223:99|143:87,1,170,6|0,1:2|1:2,0:0:0:0:
64,12,18635,1,2,0:2:0:0:
24,112,18896,2,0,P|42:195|55:278,1,170,2|0,1:2|1:2,0:0:0:0:
36,384,19678,1,2,0:2:0:0:
140,352,19939,6,0,L|228:368,1,85,2|2,1:2|0:2,0:0:0:0:
180,208,20461,2,0,L|54:230,1,127.5,2|2,1:2|0:2,0:0:0:0:
54,230,20983,2,0,P|64:192|72:136,1,85,0|0,1:2|0:2,0:0:0:0:
40,44,21504,1,2,1:2:0:0:
40,44,21765,1,2,0:2:0:0:
164,112,22026,6,0,B|224:92|224:92|256:120|256:120|324:100,1,170,2|0,1:2|1:2,0:0:0:0:
420,136,22809,1,2,0:2:0:0:
352,220,23070,2,0,L|372:316,1,85,2|2,1:2|0:2,0:0:0:0:
216,276,23591,2,0,L|228:144,1,127.5,2|2,1:2|0:2,0:0:0:0:
227,149,24113,6,0,P|189:130|148:137,1,85,0|0,1:2|0:2,0:0:0:0:
168,8,24635,2,0,P|205:26|246:19,1,85,0|0,1:2|0:2,0:0:0:0:
376,8,25157,5,0,1:2:0:0:
165,184,25417,2,0,B|191:234|160:280|160:280|138:320|162:367,1,191.250007295609,4|4,1:2|1:3,0:0:0:0:
170,369,25939,1,4,1:3:0:0:
408,188,26200,6,0,L|423:-3,1,170,6|8,1:2|0:2,0:0:0:0:
312,64,26591,1,0,0:2:0:0:
512,176,26722,1,0,0:2:0:0:
512,176,26852,1,0,1:2:0:0:
368,264,26983,2,0,L|284:246,1,85,10|0,0:2|0:2,0:0:0:0:
147,108,27243,6,0,L|323:60,1,170,2|8,1:2|0:2,0:0:0:0:
267,192,27635,1,0,1:2:0:0:
143,4,27765,1,0,0:2:0:0:
143,4,27896,1,0,1:2:0:0:
51,124,28026,2,0,L|71:212,1,85,10|0,0:2|0:2,0:0:0:0:
352,168,28287,6,0,P|300:105|220:117,1,170,2|10,1:2|0:0,0:0:0:0:
368,4,28678,1,0,0:0:0:0:
444,136,28809,2,0,L|536:116,1,85,2|0,0:0|1:0,0:0:0:0:
416,272,29070,1,10,0:0:0:0:
416,272,29200,1,2,0:2:0:0:
256,160,29330,6,0,P|175:149|124:212,1,170,0|8,1:2|0:2,0:0:0:0:
215,259,29722,1,0,1:2:0:0:
344,104,29852,6,0,P|425:93|476:156,1,170,2|8,0:2|0:2,0:0:0:0:
385,203,30244,1,0,0:0:0:0:
372,372,30374,6,0,P|424:360|544:340,1,170,2|10,1:2|0:2,0:0:0:0:
464,144,30765,1,0,0:0:0:0:
384,244,30896,2,0,P|342:234|300:229,1,85,2|0,0:2|1:0,0:0:0:0:
300,84,31157,2,0,P|342:78|383:69,1,85,10|0,0:2|0:2,0:0:0:0:
184,12,31417,6,0,P|152:86|72:104,1,170,2|8,1:2|0:2,0:0:0:0:
224,156,31809,1,0,1:2:0:0:
84,8,31939,1,2,0:2:0:0:
84,8,32070,1,0,1:2:0:0:
0,124,32200,2,0,L|11:208,1,85,10|0,0:2|0:2,0:0:0:0:
228,212,32461,6,0,L|239:127,1,85,2|0,1:2|0:2,0:0:0:0:
358,184,32722,1,8,0:2:0:0:
146,276,32852,1,0,0:2:0:0:
278,348,32983,2,0,P|326:332|382:324,1,85,0|0,0:2|1:2,0:0:0:0:
239,127,33243,6,0,P|154:125|70:112,1,170,4|0,0:0|3:0,0:0:0:0:
248,16,33635,1,0,3:0:0:0:
272,240,33765,1,0,3:0:0:0:
380,20,33896,1,0,3:0:0:0:
196,172,34026,1,8,3:0:0:0:
424,120,34157,1,8,3:0:0:0:
208,304,34287,1,4,3:0:0:0:
444,244,34417,1,4,3:0:0:0:
196,172,34548,6,0,P|132:205|141:276,1,152.999995330811,6|0,1:2|1:0,0:0:0:0:
141,275,35070,2,0,L|40:262,1,101.999996887207,2|0,0:0|0:0,0:0:0:0:
6,141,35591,1,2,1:2:0:0:
111,72,35852,1,2,1:2:0:0:
208,150,36113,1,10,0:0:0:0:
208,150,36243,2,0,P|246:153|302:109,1,101.999996887207,2|0,1:2|0:0,0:0:0:0:
296,118,36635,6,0,L|318:289,1,152.999995330811,2|0,1:2|1:0,0:0:0:0:
315,270,37157,2,0,L|413:242,1,101.999996887207,2|0,0:0|0:0,0:0:0:0:
462,125,37678,1,2,1:2:0:0:
365,42,37939,1,2,1:2:0:0:
257,108,38200,5,8,3:0:0:0:
259,133,38330,1,8,3:0:0:0:
198,178,38461,5,4,3:0:0:0:
201,203,38591,1,4,3:0:0:0:
262,249,38722,5,2,1:2:0:0:
362,157,39113,2,0,L|486:177,1,101.999996887207,0|0,1:0|0:0,0:0:0:0:
470,165,39504,1,2,0:0:0:0:
502,300,39765,2,0,P|458:326|408:323,1,101.999996887207,2|0,1:2|1:0,0:0:0:0:
280,376,40287,1,10,0:0:0:0:
280,376,40417,2,0,P|236:350|186:353,1,101.999996887207,2|0,1:2|0:0,0:0:0:0:
186,353,40809,6,0,P|215:285|178:221,1,152.999995330811,2|0,1:2|1:0,0:0:0:0:
178,221,41330,2,0,L|68:252,1,101.999996887207,2|0,0:0|0:0,0:0:0:0:
112,108,41852,1,2,1:2:0:0:
328,156,42113,6,0,L|476:116,1,127.5,6|0,1:2|0:0,0:0:0:0:
460,136,42374,5,8,0:2:0:0:
384,24,42504,1,8,0:2:0:0:
360,260,42635,1,8,0:2:0:0:
284,148,42765,1,8,0:2:0:0:
259,384,42896,6,0,P|206:374|153:367,1,85,6|0,1:2|0:0,0:0:0:0:
360,260,43157,2,0,P|416:256|528:236,1,170,8|0,0:0|0:0,0:0:0:0:
368,376,43548,1,0,1:0:0:0:
244,276,43678,2,0,L|252:191,1,85,10|0,0:0|0:0,0:0:0:0:
423,22,43939,6,0,P|465:42|510:55,1,85,2|0,1:2|0:0,0:0:0:0:
276,88,44200,2,0,P|234:105|191:118,1,85,8|0,0:0|1:0,0:0:0:0:
423,152,44461,2,0,P|467:171|515:185,1,85,2|0,0:0|1:0,0:0:0:0:
275,216,44722,2,0,P|233:234|188:247,1,85,10|0,0:0|0:0,0:0:0:0:
76,176,44983,5,2,1:2:0:0:
184,338,45113,1,2,0:2:0:0:
0,271,45243,1,10,0:2:0:0:
192,208,45374,1,2,0:2:0:0:
67,372,45504,1,2,0:2:0:0:
208,216,45635,2,0,L|199:128,1,85,2|8,1:2|0:0,0:0:0:0:
0,271,45896,5,2,0:0:0:0:
67,372,46026,2,0,P|109:357|152:351,1,85,0|0,1:0|0:0,0:0:0:0:
348,176,46287,2,0,P|300:168|254:153,1,85,12|0,0:0|1:0,0:0:0:0:
472,76,46548,5,10,1:2:0:0:
420,320,46678,1,2,1:2:0:0:
472,76,46939,6,0,P|388:99|322:42,1,170,6|0,1:2|1:2,0:0:0:0:
276,296,47330,2,0,P|354:271|420:320,1,170,8|0,0:0|0:0,0:0:0:0:
208,144,47722,1,0,1:0:0:0:
120,260,47852,2,0,L|136:356,1,85,8|0,0:0|0:0,0:0:0:0:
432,360,48113,6,0,P|439:318|451:277,1,85,0|0,1:0|0:0,0:0:0:0:
308,160,48374,2,0,P|299:202|287:243,1,85,10|0,0:0|1:0,0:0:0:0:
452,52,48635,1,2,0:0:0:0:
312,4,48765,2,0,L|208:20,1,85,2|8,1:2|0:0,0:0:0:0:
172,208,49026,5,2,0:0:0:0:
309,161,49157,2,0,L|513:192,1,170,2|8,1:2|0:0,0:0:0:0:
344,312,49548,2,0,P|302:319|261:332,1,85,0|0,0:0|0:0,0:0:0:0:
420,144,49809,1,0,1:0:0:0:
504,284,49939,2,0,P|492:324|485:366,1,85,8|0,0:0|0:0,0:0:0:0:
268,212,50200,6,0,P|260:166|247:122,1,85,2|0,1:2|3:0,0:0:0:0:
249,129,50396,1,0,3:0:0:0:
249,129,50461,1,0,3:0:0:0:
392,176,50591,1,0,3:0:0:0:
164,252,50722,1,2,3:2:0:0:
372,72,50852,1,0,3:0:0:0:
324,304,50983,1,0,3:0:0:0:
220,32,51113,1,0,3:0:0:0:
164,252,51243,1,2,3:2:0:0:
344,156,52287,6,0,L|351:205,10,28.3333333333333,0|0|0|0|0|0|0|0|0|0|0,0:0|0:0|0:0|0:0|0:0|0:0|0:0|0:0|0:0|0:0|0:0,0:0:0:0:
326,136,52809,6,0,P|272:196|191:187,1,170,2|2,0:2|0:2,0:0:0:0:
256,64,53200,1,2,0:2:0:0:
432,168,53330,6,0,P|485:160|536:148,1,93.5000028533936,6|0,1:2|0:2,0:0:0:0:
336,320,53591,2,0,P|244:303|151:293,1,187.000005706787,10|2,0:2|0:2,0:0:0:0:
360,144,53983,1,0,1:2:0:0:
416,360,54113,1,8,0:2:0:0:
492,232,54243,1,2,0:2:0:0:
284,272,54374,6,0,P|276:328|272:372,1,93.5000028533936,2|0,1:2|0:2,0:0:0:0:
144,252,54635,1,10,0:2:0:0:
360,144,54765,1,0,1:2:0:0:
208,72,54896,2,0,P|160:88|112:96,1,93.5000028533936,2|0,0:2|1:2,0:0:0:0:
360,144,55157,2,0,P|408:160|456:168,1,93.5000028533936,8|0,0:2|0:2,0:0:0:0:
244,384,55417,6,0,L|151:370,1,93.5000028533936,2|0,1:2|0:2,0:0:0:0:
264,148,55678,1,10,0:2:0:0:
372,268,55809,2,0,L|484:252,1,93.5000028533936,2|0,0:2|0:2,0:0:0:0:
408,80,56070,1,2,1:2:0:0:
284,316,56200,1,10,0:2:0:0:
228,142,56330,1,2,0:2:0:0:
463,253,56461,6,0,L|455:347,1,93.5000028533936,2|0,1:2|0:2,0:0:0:0:
228,142,56722,2,0,L|219:235,1,93.5000028533936,10|0,1:2|1:2,0:0:0:0:
463,30,56983,2,0,L|455:123,1,93.5000028533936,2|0,0:2|1:2,0:0:0:0:
463,131,57243,2,0,L|471:37,1,93.5000028533936,8|0,1:2|0:2,0:0:0:0:
227,142,57504,6,0,P|181:137|136:125,1,93.5000028533936,2|0,1:2|0:2,0:0:0:0:
104,296,57765,2,0,P|150:300|195:312,1,93.5000028533936,10|0,0:2|0:2,0:0:0:0:
356,384,58026,2,0,P|422:324|404:236,1,187.000005706787,2|8,0:2|0:2,0:0:0:0:
272,220,58417,1,0,0:2:0:0:
416,104,58548,6,0,L|516:120,1,93.5000028533936,2|0,1:2|0:2,0:0:0:0:
392,276,58809,1,10,0:2:0:0:
276,96,58939,2,0,P|296:32|304:-8,1,93.5000028533936,2|0,1:2|0:2,0:0:0:0:
108,96,59200,2,0,P|113:142|127:186,1,93.5000028533936,2|8,1:2|0:2,0:0:0:0:
272,220,59461,1,2,0:2:0:0:
119,335,59591,6,0,P|53:350|1:307,1,140.25000428009,0|0,1:2|0:2,0:0:0:0:
0,307,59852,2,0,P|24:247|26:184,1,127.500004863739,12|0,0:0|0:0,0:0:0:0:
279,247,60113,6,0,P|345:262|398:219,1,140.25000428009,2|0,1:2|0:2,0:0:0:0:
397,219,60374,2,0,P|373:159|371:96,1,127.500004863739,12|0,0:0|0:0,0:0:0:0:
119,157,60635,6,0,P|76:174|31:164,1,93.5000028533936,2|0,1:2|0:2,0:0:0:0:
288,360,60896,2,0,P|330:343|375:353,1,93.5000028533936,12|0,0:2|1:2,0:0:0:0:
276,120,61157,6,0,L|289:212,1,93.5000028533936,2|0,0:2|1:2,0:0:0:0:
460,112,61417,1,8,0:2:0:0:
140,32,61548,1,8,0:2:0:0:
96,236,61678,6,0,L|188:220,1,93.5000028533936,6|0,1:2|0:2,0:0:0:0:
308,384,61938,1,10,0:2:0:0:
216,368,62070,2,0,L|308:384,1,93.5000028533936,2|0,0:0|0:2,0:0:0:0:
411,206,62330,1,0,1:2:0:0:
319,223,62461,2,0,L|411:207,1,93.5000028533936,10|0,0:2|0:2,0:0:0:0:
96,236,62722,6,0,P|36:170|67:86,1,187.000005706787,2|8,1:2|0:2,0:0:0:0:
216,272,63113,1,0,1:2:0:0:
256,124,63243,2,0,L|368:136,1,93.5000028533936,2|0,0:2|1:2,0:0:0:0:
96,236,63504,2,0,L|-16:248,1,93.5000028533936,10|0,0:2|0:2,0:0:0:0:
204,0,63765,5,6,1:2:0:0:
248,160,63896,1,2,0:2:0:0:
80,100,64026,1,10,0:2:0:0:
124,260,64157,2,0,L|104:372,1,93.5000028533936,2|0,0:2|0:2,0:0:0:0:
248,160,64417,1,0,1:2:0:0:
80,100,64548,2,0,L|-12:116,1,93.5000028533936,10|0,0:2|0:2,0:0:0:0:
305,19,64809,6,0,P|233:72|248:160,1,187.000005706787,2|8,1:2|0:2,0:0:0:0:
320,352,65200,1,0,1:2:0:0:
344,104,65330,1,2,0:2:0:0:
152,240,65461,1,0,1:2:0:0:
400,240,65591,2,0,L|502:249,1,93.5000028533936,10|0,0:2|0:2,0:0:0:0:
168,104,65852,6,0,L|66:112,1,93.5000028533936,2|0,1:2|0:2,0:0:0:0:
296,0,66113,1,10,0:2:0:0:
396,116,66243,2,0,P|384:208|380:328,1,187.000005706787,2|0,0:2|1:2,0:0:0:0:
180,196,66635,2,0,P|175:149|167:103,1,93.5000028533936,10|0,0:2|0:2,0:0:0:0:
408,23,66896,6,0,P|400:69|395:115,1,93.5000028533936,2|0,1:2|0:2,0:0:0:0:
248,0,67157,1,10,0:2:0:0:
180,196,67287,2,0,P|140:224|32:160,1,187.000005706787,2|0,1:2|1:2,0:0:0:0:
187,349,67678,2,0,P|233:341|279:336,1,93.5000028533936,10|0,0:2|0:2,0:0:0:0:
344,180,67939,5,2,1:2:0:0:
156,92,68070,1,2,0:2:0:0:
280,336,68200,1,14,0:2:0:0:
92,248,68330,2,0,L|0:268,1,93.5000028533936,2|0,0:2|0:2,0:0:0:0:
72,104,68591,1,0,1:2:0:0:
160,356,68722,1,10,0:2:0:0:
216,156,68852,1,2,0:2:0:0:
0,267,68983,6,0,L|20:375,1,93.5000028533936,0|0,1:2|3:2,0:0:0:0:
17,358,69178,1,0,3:0:0:0:
17,358,69243,1,0,3:0:0:0:
104,120,69374,1,0,3:2:0:0:
248,312,69504,5,8,0:3:0:0:
12,235,69635,1,8,0:3:0:0:
236,344,69765,5,4,0:3:0:0:
0,267,69896,1,4,0:3:0:0:
220,40,70026,6,0,L|212:148,1,93.5000028533936,6|0,1:2|0:0,0:0:0:0:
392,268,70287,2,0,L|372:76,1,187.000005706787,10|2,0:0|0:0,0:0:0:0:
512,288,70678,1,0,1:0:0:0:
376,384,70809,2,0,L|264:368,1,93.5000028533936,8|0,0:0|0:0,0:0:0:0:
492,192,71070,6,0,P|468:140|344:140,1,187.000005706787,2|8,1:2|0:0,0:0:0:0:
304,260,71461,1,0,1:0:0:0:
224,95,71591,2,0,P|239:51|248:6,1,93.5000028533936,2|0,0:0|1:0,0:0:0:0:
64,164,71852,2,0,P|68:210|79:255,1,93.5000028533936,8|0,0:2|0:2,0:0:0:0:
304,260,72113,6,0,P|300:306|289:351,1,93.5000028533936,2|0,1:2|0:2,0:0:0:0:
436,184,72374,1,10,0:2:0:0:
304,104,72504,2,0,L|208:132,1,93.5000028533936,2|0,0:2|0:2,0:0:0:0:
36,228,72765,1,2,1:2:0:0:
60,68,72896,1,10,0:2:0:0:
200,264,73026,1,2,0:2:0:0:
224,104,73157,6,0,L|216:8,1,93.5000028533936,2|0,1:2|0:2,0:0:0:0:
412,100,73417,2,0,L|393:286,1,187.000005706787,10|2,0:0|0:0,0:0:0:0:
512,120,73809,1,0,1:0:0:0:
396,0,73939,2,0,P|350:11|304:16,1,93.5000028533936,8|0,0:0|0:0,0:0:0:0:
296,200,74200,6,0,P|342:204|387:216,1,93.5000028533936,2|0,1:2|0:0,0:0:0:0:
304,16,74461,2,0,P|258:27|212:32,1,93.5000028533936,10|0,0:2|0:2,0:0:0:0:
387,216,74722,2,0,P|392:127|473:89,1,187.000005706787,2|8,0:2|0:2,0:0:0:0:
264,168,75113,1,0,0:2:0:0:
328,312,75243,6,0,L|436:292,1,93.5000028533936,2|0,1:2|0:2,0:0:0:0:
336,36,75504,1,10,0:2:0:0:
264,168,75635,2,0,L|160:144,1,93.5000028533936,2|0,1:2|0:2,0:0:0:0:
420,295,75896,2,0,L|511:276,1,93.5000028533936,2|8,1:2|0:2,0:0:0:0:
292,384,76157,1,2,0:2:0:0:
219,251,76287,6,0,P|159:219|96:245,1,140.25000428009,0|0,1:2|0:2,0:0:0:0:
96,245,76548,2,0,P|120:176|116:104,1,127.500004863739,12|0,0:0|0:0,0:0:0:0:
351,143,76809,6,0,P|411:111|475:137,1,140.25000428009,2|0,1:2|0:2,0:0:0:0:
475,137,77070,2,0,P|451:68|455:-4,1,127.500004863739,12|0,0:0|0:0,0:0:0:0:
416,284,77330,6,0,P|462:288|503:310,1,93.5000028533936,2|0,1:2|0:0,0:0:0:0:
184,168,77591,2,0,P|142:189|96:193,1,93.5000028533936,12|0,0:0|1:2,0:0:0:0:
332,24,77852,6,0,L|344:116,1,93.5000028533936,2|0,0:2|1:2,0:0:0:0:
160,76,78113,1,8,0:2:0:0:
496,0,78243,1,8,0:2:0:0:
356,209,78374,6,0,L|343:116,1,93.5000028533936,6|0,1:2|0:2,0:0:0:0:
164,196,78635,2,0,L|148:396,1,187.000005706787,8|0,0:0|0:0,0:0:0:0:
24,204,79026,1,0,1:0:0:0:
92,68,79157,2,0,L|192:76,1,93.5000028533936,10|0,0:0|0:0,0:0:0:0:
112,304,79417,6,0,P|200:315|256:245,1,187.000005706787,2|8,1:2|0:0,0:0:0:0:
216,100,79809,1,0,1:0:0:0:
392,204,79939,2,0,L|380:308,1,93.5000028533936,2|0,0:0|1:0,0:0:0:0:
216,100,80200,2,0,L|226:7,1,93.5000028533936,8|0,0:0|0:0,0:0:0:0:
32,200,80461,6,0,P|96:232|92:344,1,187.000005706787,6|2,1:2|1:2,0:0:0:0:
8,296,80852,1,2,0:0:0:0:
312,108,80983,6,0,P|248:140|252:252,1,187.000005706787,4|2,1:2|1:2,0:0:0:0:
336,204,81374,1,2,0:0:0:0:
31,15,81504,6,0,P|70:103|0:169,1,204,4|0,1:2|1:0,0:0:0:0:
200,12,82026,6,0,L|324:36,1,93.5000028533936,2|0,0:0|1:0,0:0:0:0:
102,245,82287,1,10,0:0:0:0:
76,82,82417,1,8,0:0:0:0:
280,200,82548,6,0,L|270:293,1,93.5000028533936,6|0,1:2|0:0,0:0:0:0:
456,180,82809,2,0,L|446:86,1,93.5000028533936,8|0,0:0|3:0,0:0:0:0:
446,87,83004,1,0,3:0:0:0:
446,87,83070,1,4,3:0:0:0:
507,279,83200,1,8,3:0:0:0:
313,126,83330,1,0,3:0:0:0:
373,317,83460,1,8,3:0:0:0:
446,87,83591,1,4,1:3:0:0:
228,44,84113,6,0,L|220:92,10,28.3333333333333,0|0|0|0|0|0|0|0|0|0|0,3:0|0:0|3:0|0:0|3:0|0:0|3:0|0:0|3:0|0:0|3:0,0:0:0:0:
212,23,84635,6,0,P|249:42|292:41,1,85,8|0,1:3|0:0,0:0:0:0:
272,288,84896,2,0,P|214:261|152:271,1,127.500004863739,4|0,1:2|0:0,0:0:0:0:
291,41,85157,5,0,3:0:0:0:
323,49,85243,1,0,3:0:0:0:
356,57,85330,1,0,3:0:0:0:
389,66,85417,2,0,P|464:108|400:256,1,255.000009727478,4|0,1:2|1:2,0:0:0:0:
291,41,85809,1,0,1:0:0:0:
212,172,85939,6,0,L|200:280,1,85,10|0,0:0|1:0,0:0:0:0:
403,247,86200,2,0,L|413:332,1,85,2|0,0:0|1:0,0:0:0:0:
203,256,86461,2,0,L|191:364,1,85,10|0,0:0|0:0,0:0:0:0:
413,332,86722,6,0,P|468:360|540:284,1,170,6|8,1:2|0:0,0:0:0:0:
436,132,87113,2,0,L|332:156,1,85,2|0,1:2|0:0,0:0:0:0:
152,60,87374,1,0,1:0:0:0:
76,208,87504,2,0,L|180:232,1,85,10|0,0:0|0:0,0:0:0:0:
353,151,87765,6,0,P|405:179|381:291,1,170,2|8,1:2|0:0,0:0:0:0:
288,240,88157,1,0,1:0:0:0:
172,136,88287,6,0,P|153:57|217:8,1,170,2|8,0:0|0:0,0:0:0:0:
282,97,88679,1,0,0:0:0:0:
156,284,88809,6,0,L|44:272,1,85,6|0,1:2|0:0,0:0:0:0:
171,136,89070,1,10,0:0:0:0:
300,268,89200,2,0,L|288:368,1,85,2|0,0:0|0:0,0:0:0:0:
452,240,89461,1,2,1:2:0:0:
255,124,89591,2,0,L|171:136,1,85,10|0,0:2|0:0,0:0:0:0:
289,352,89852,2,0,L|373:364,1,85,2|0,1:2|0:0,0:0:0:0:
444,70,90113,6,0,P|453:111|475:148,1,85,10|0,0:0|1:0,0:0:0:0:
255,124,90374,2,0,P|286:95|307:58,1,85,2|0,0:0|1:0,0:0:0:0:
396,261,90635,2,0,P|355:248|313:248,1,85,10|0,0:0|0:0,0:0:0:0:
56,352,90896,6,0,L|224:324,1,170,2|8,1:2|0:0,0:0:0:0:
36,120,91287,1,0,0:0:0:0:
4,268,91417,1,0,0:0:0:0:
208,148,91548,1,0,1:0:0:0:
176,296,91678,2,0,L|188:384,1,85,10|0,0:0|0:0,0:0:0:0:
424,304,91939,6,0,P|476:276|472:160,1,170,2|8,1:2|0:0,0:0:0:0:
376,200,92330,1,0,1:0:0:0:
220,300,92461,6,0,P|168:272|172:156,1,170,2|8,0:0|0:0,0:0:0:0:
268,196,92852,1,0,0:0:0:0:
164,20,92983,6,0,L|68:36,1,85,6|0,1:2|0:0,0:0:0:0:
176,244,93243,1,10,0:2:0:0:
252,88,93374,2,0,L|348:104,1,85,2|0,0:2|0:0,0:0:0:0:
240,312,93634,1,2,1:2:0:0:
164,156,93765,2,0,L|68:172,1,85,10|0,0:2|0:0,0:0:0:0:
328,272,94026,2,0,L|424:256,1,85,2|0,1:2|0:0,0:0:0:0:
174,71,94287,6,0,P|171:113|163:155,1,85,10|0,0:0|1:0,0:0:0:0:
338,187,94548,2,0,P|329:228|327:271,1,85,2|0,0:0|1:0,0:0:0:0:
152,296,94809,2,0,P|148:338|139:379,1,85,10|0,0:0|0:0,0:0:0:0:
328,271,95070,6,0,P|388:212|471:232,1,170,2|8,1:2|0:0,0:0:0:0:
268,108,95461,2,0,L|172:128,1,85,2|0,0:0|0:0,0:0:0:0:
356,0,95722,1,0,1:0:0:0:
412,136,95852,2,0,L|388:256,1,85,10|0,0:0|0:0,0:0:0:0:
132,344,96113,6,0,L|112:176,1,170,2|8,1:2|0:0,0:0:0:0:
240,244,96504,1,0,1:2:0:0:
395,219,96635,6,0,L|415:51,1,170,2|8,0:0|0:0,0:0:0:0:
287,119,97026,1,0,0:0:0:0:
360,336,97157,6,0,P|424:312|536:284,1,170,6|8,1:2|0:0,0:0:0:0:
370,132,97548,2,0,P|328:127|287:119,1,85,0|0,0:0|0:0,0:0:0:0:
312,260,97809,1,0,1:0:0:0:
424,32,97939,1,8,0:0:0:0:
476,192,98070,1,0,0:0:0:0:
272,96,98200,6,0,L|288:-12,1,85,0|0,1:0|0:0,0:0:0:0:
148,124,98461,1,8,0:0:0:0:
372,172,98591,1,0,1:0:0:0:
235,284,98722,2,0,P|172:272|40:256,1,170,2|8,0:0|0:0,0:0:0:0:
260,128,99113,1,0,0:0:0:0:
392,204,99243,6,0,L|380:296,1,85,2|0,1:2|0:0,0:0:0:0:
156,192,99504,2,0,P|124:140|184:44,1,170,12|0,0:0|0:0,0:0:0:0:
8,224,99896,1,0,1:0:0:0:
248,300,100026,2,0,L|329:275,1,85,12|0,0:0|0:0,0:0:0:0:
168,50,100287,6,0,L|86:25,1,85,2|0,1:2|3:0,0:0:0:0:
86,25,100483,1,0,3:0:0:0:
86,25,100548,1,0,3:0:0:0:
168,196,100678,1,0,3:0:0:0:
280,8,100809,1,8,3:0:0:0:
64,136,100939,1,8,3:0:0:0:
348,164,101070,1,4,3:0:0:0:
132,292,101200,1,4,3:0:0:0:
280,8,101330,5,2,1:2:0:0:
284,20,101722,5,2,1:2:0:0:
288,32,102113,5,2,1:2:0:0:
292,44,102504,6,0,L|276:148,1,85,0|0,3:0|3:0,0:0:0:0:
301,123,102722,1,0,3:0:0:0:
323,118,102809,1,0,3:0:0:0:
345,114,102896,1,8,3:0:0:0:
102,271,103026,1,8,3:0:0:0:
146,59,103157,1,4,3:0:0:0:
304,337,103287,1,4,3:0:0:0:
345,114,103417,5,6,1:2:0:0:
256,192,103548,12,0,107591,0:0:0:0:
