osu file format v14

[General]
AudioFilename: audio.mp3
AudioLeadIn: 0
PreviewTime: 52668
Countdown: 0
SampleSet: Soft
StackLeniency: 0.4
Mode: 0
LetterboxInBreaks: 0
WidescreenStoryboard: 1

[Editor]
DistanceSpacing: 1
BeatDivisor: 4
GridSize: 4
TimelineZoom: 2.1

[Metadata]
Title:MELODY
TitleUnicode:MELODY
Artist:Yuki Setsuna (CV: Kusunoki Tomori)
ArtistUnicode:優木せつ菜 (CV: 楠木ともり)
Creator:Doormat
Version:Normal
Source:ラブライブ!虹ヶ咲学園スクールアイドル同好会
Tags:love live! nijigasaki high school idol club gakuen doukoukai doukou kai nijigaku ニジガク nakagawa nana 中川菜々 llas sifas スクスタ festival all stars スクールアイドルフェスティバル perfect dream project pdp love u my friends Suzuki Ereka 鈴木エレカ Suzuki Manaka 鈴木まなか Hiroki Sagawa Saito Ryosuke サイトウ リョースケ anime video game japanese pop
BeatmapID:2811137
BeatmapSetID:1321136

[Difficulty]
HPDrainRate:4
CircleSize:3.5
OverallDifficulty:5
ApproachRate:5
SliderMultiplier:1.6
SliderTickRate:1

[Events]
//Background and Video events
0,0,"setsuna.jpg",0,0
//Break Periods
//Storyboard Layer 0 (Background)
//Storyboard Layer 1 (Fail)
//Storyboard Layer 2 (Pass)
//Storyboard Layer 3 (Foreground)
//Storyboard Layer 4 (Overlay)
//Storyboard Sound Samples

[TimingPoints]
1157,521.739130434783,4,2,1,40,1,0
1157,-100,4,2,1,40,0,0
5330,-100,4,2,1,50,0,0
6374,-100,4,2,1,60,0,0
7417,-100,4,2,1,70,0,0
8461,-100,4,2,1,80,0,0
8983,-100,4,2,1,80,0,0
9504,-100,4,2,14,80,0,0
9570,-100,4,2,1,80,0,0
9765,-100,4,2,14,80,0,0
9961,-100,4,2,1,80,0,0
10157,-100,4,2,14,80,0,0
10352,-100,4,2,1,80,0,0
10548,-100,4,2,14,80,0,0
10613,-100,4,2,1,80,0,0
10809,-100,4,2,12,80,0,0
10874,-100,4,2,1,80,0,0
11070,-100,4,2,11,80,0,0
11135,-100,4,2,1,80,0,0
11330,-100,4,2,10,80,0,0
11396,-100,4,2,1,80,0,0
11591,-100,4,2,11,80,0,0
11657,-100,4,2,1,80,0,0
11983,-100,4,2,12,80,0,0
12048,-100,4,2,1,80,0,0
12374,-100,4,2,13,80,0,0
12439,-100,4,2,1,80,0,0
12635,-100,4,2,12,80,0,0
12700,-100,4,2,1,80,0,0
13157,-100,4,2,11,80,0,0
13222,-100,4,2,1,80,0,0
13678,-100,4,2,10,80,0,0
13743,-100,4,2,1,80,0,0
15243,-100,4,2,12,80,0,0
15309,-100,4,2,1,80,0,0
15765,-100,4,2,11,80,0,0
15830,-100,4,2,1,80,0,0
17852,-111.111111111111,4,2,1,50,0,0
25157,-111.111111111111,4,2,1,70,0,0
26200,-100,4,2,1,60,0,0
34548,-111.111111111111,4,2,1,50,0,0
42113,-100,4,2,1,70,0,0
42374,-100,4,2,1,80,0,0
42896,-100,4,2,1,70,0,0
46548,-100,4,2,1,80,0,0
46939,-100,4,2,1,70,0,0
49157,-100,4,2,14,70,0,0
49222,-100,4,2,1,70,0,0
50200,-100,4,2,14,70,0,0
50265,-100,4,2,1,70,0,0
50722,-100,4,2,15,70,0,0
50787,-100,4,2,1,70,0,0
51243,-100,4,2,16,70,0,0
52287,-100,4,2,1,40,0,0
52809,-100,4,2,1,60,0,0
53330,-100,4,2,1,80,0,1
59852,-100,4,2,1,90,0,1
60113,-100,4,2,17,80,0,1
60178,-100,4,2,1,80,0,1
60374,-100,4,2,1,90,0,1
60635,-100,4,2,16,80,0,1
60700,-100,4,2,1,80,0,1
60896,-100,4,2,1,90,0,1
61157,-100,4,2,14,80,0,1
61222,-100,4,2,1,80,0,1
61678,-100,4,2,15,80,0,1
61743,-100,4,2,1,80,0,1
69896,-100,4,2,1,80,0,0
70026,-100,4,2,1,80,0,1
76548,-100,4,2,1,90,0,1
76809,-100,4,2,17,80,0,1
76874,-100,4,2,1,80,0,1
77070,-100,4,2,1,90,0,1
77330,-100,4,2,16,80,0,1
77396,-100,4,2,1,80,0,1
77591,-100,4,2,1,90,0,1
77852,-100,4,2,14,80,0,1
77917,-100,4,2,1,80,0,1
78374,-100,4,2,15,80,0,1
78439,-100,4,2,1,80,0,1
81504,-100,4,2,1,80,0,1
82026,-100,4,2,1,80,0,1
83591,-100,4,2,1,60,0,0
84113,-100,4,2,1,40,0,0
84200,-100,4,2,1,45,0,0
84287,-100,4,2,1,50,0,0
84374,-100,4,2,1,55,0,0
84461,-100,4,2,1,60,0,0
84548,-100,4,2,1,65,0,0
84635,-100,4,2,1,70,0,0
84896,-100,4,2,1,90,0,0
84961,-100,4,2,1,80,0,0
85417,-100,4,2,1,90,0,0
85483,-100,4,2,1,80,0,0
85939,-100,4,2,12,80,0,0
86004,-100,4,2,1,80,0,0
86200,-100,4,2,11,80,0,0
86265,-100,4,2,1,80,0,0
86461,-100,4,2,10,80,0,0
86526,-100,4,2,1,80,0,0
86722,-100,4,2,11,80,0,0
86787,-100,4,2,1,80,0,0
87113,-100,4,2,12,80,0,0
87178,-100,4,2,1,80,0,0
87504,-100,4,2,13,80,0,0
87570,-100,4,2,1,80,0,0
87765,-100,4,2,12,80,0,0
87830,-100,4,2,1,80,0,0
88287,-100,4,2,10,80,0,0
88352,-100,4,2,1,80,0,0
88809,-100,4,2,14,80,0,0
88874,-100,4,2,1,80,0,0
89070,-100,4,2,14,80,0,0
89265,-100,4,2,1,80,0,0
89461,-100,4,2,14,80,0,0
89917,-100,4,2,1,80,0,0
90113,-100,4,2,13,80,0,0
90178,-100,4,2,1,80,0,0
90374,-100,4,2,12,80,0,0
90439,-100,4,2,1,80,0,0
90635,-100,4,2,15,80,0,0
90700,-100,4,2,1,80,0,0
90896,-100,4,2,14,80,0,0
90961,-100,4,2,1,80,0,0
91678,-100,4,2,12,80,0,0
91743,-100,4,2,1,80,0,0
91939,-100,4,2,11,80,0,0
92004,-100,4,2,1,80,0,0
92461,-100,4,2,10,80,0,0
92526,-100,4,2,1,80,0,0
92983,-100,4,2,14,80,0,0
93048,-100,4,2,1,80,0,0
93243,-100,4,2,14,80,0,0
93439,-100,4,2,1,80,0,0
93635,-100,4,2,14,80,0,0
93830,-100,4,2,1,80,0,0
94026,-100,4,2,14,80,0,0
94091,-100,4,2,1,80,0,0
94287,-100,4,2,12,80,0,0
94352,-100,4,2,1,80,0,0
94548,-100,4,2,11,80,0,0
94613,-100,4,2,1,80,0,0
94809,-100,4,2,10,80,0,0
94874,-100,4,2,1,80,0,0
95070,-100,4,2,11,80,0,0
95135,-100,4,2,1,80,0,0
95461,-100,4,2,12,80,0,0
95526,-100,4,2,1,80,0,0
95852,-100,4,2,13,80,0,0
95917,-100,4,2,1,80,0,0
96113,-100,4,2,12,80,0,0
96178,-100,4,2,1,80,0,0
96635,-100,4,2,11,80,0,0
96700,-100,4,2,1,80,0,0
97157,-100,4,2,10,80,0,0
97222,-100,4,2,1,80,0,0
98722,-100,4,2,12,80,0,0
98787,-100,4,2,1,80,0,0
99243,-100,4,2,11,80,0,0
99309,-100,4,2,1,80,0,0
100287,-100,4,2,14,80,0,0
100352,-100,4,2,1,80,0,0
100417,-100,4,2,1,60,0,0
101330,-100,4,2,10,80,0,0
102504,-100,4,2,1,60,0,0
103417,-100,4,2,10,80,0,0
107591,-100,4,2,1,10,0,0

[Colours]
Combo1 : 130,165,255
Combo2 : 225,35,65
Combo3 : 70,110,240
Combo4 : 230,80,65

[HitObjects]
400,332,1157,6,0,P|349:275|272:283,1,160,4|0,1:2|1:0,0:0:0:0:
209,345,1939,1,0,0:0:0:0:
141,289,2200,2,0,L|149:201,1,80,8|0,1:2|0:0,0:0:0:0:
157,121,2722,1,8,1:2:0:0:
305,217,3243,6,0,P|383:203|461:185,1,160,4|0,1:2|1:0,0:0:0:0:
512,112,4026,1,0,0:0:0:0:
440,60,4287,2,0,P|400:54|360:52,1,80,8|0,1:2|0:0,0:0:0:0:
272,64,4809,1,8,1:2:0:0:
396,188,5330,6,0,P|434:254|397:321,1,160,4|0,1:2|1:0,0:0:0:0:
316,356,6113,1,0,1:0:0:0:
244,304,6374,2,0,L|251:224,1,80,4|0,1:2|1:0,0:0:0:0:
168,196,6896,2,0,L|160:275,1,80,0|0,1:0|1:0,0:0:0:0:
92,332,7417,5,0,1:0:0:0:
96,336,7678,1,0,1:0:0:0:
100,340,7939,2,0,L|21:325,1,80,0|0,1:0|1:0,0:0:0:0:
0,240,8461,1,8,1:2:0:0:
176,216,8983,2,0,L|254:201,1,80,0|0,3:0|3:0,0:0:0:0:
340,184,9504,6,0,P|352:144|300:76,2,120,6|2|10,1:2|0:0|0:0,0:0:0:0:
272,240,10548,2,0,L|288:328,1,80,2|10,1:2|0:0,0:0:0:0:
364,364,11070,1,2,0:0:0:0:
368,368,11330,1,10,0:0:0:0:
372,372,11591,2,0,P|404:336|484:340,2,120,2|2|10,1:2|0:0|0:0,0:0:0:0:
283,384,12635,2,0,P|244:377|206:365,1,80,2|8,1:2|0:0,0:0:0:0:
128,324,13157,1,2,0:0:0:0:
280,236,13678,6,0,P|312:192|272:96,1,160,6|0,1:2|0:0,0:0:0:0:
200,56,14461,1,8,0:0:0:0:
148,128,14722,2,0,L|64:116,1,80,0|8,1:0|0:0,0:0:0:0:
52,204,15243,2,0,L|136:216,1,80,2|8,0:0|0:0,0:0:0:0:
216,188,15765,6,0,P|261:249|235:322,1,160,2|0,1:2|3:0,0:0:0:0:
152,352,16548,1,4,3:0:0:0:
92,288,16809,1,4,1:2:0:0:
100,300,17852,6,0,L|111:156,1,143.999995605469,6|0,1:2|1:2,0:0:0:0:
200,144,18635,1,2,0:2:0:0:
204,148,18896,2,0,L|215:291,1,143.999995605469,2|0,1:2|1:2,0:0:0:0:
280,352,19678,5,2,0:2:0:0:
284,356,19939,2,0,L|368:328,1,71.9999978027344,2|2,1:2|0:2,0:0:0:0:
416,272,20461,2,0,P|379:213|309:209,1,143.999995605469,2|0,1:2|1:2,0:0:0:0:
164,112,21504,5,2,1:2:0:0:
168,116,21765,1,2,0:2:0:0:
172,120,22026,2,0,P|241:115|278:57,1,143.999995605469,2|0,1:2|1:2,0:0:0:0:
364,64,22809,1,2,0:2:0:0:
368,68,23070,2,0,L|380:148,1,71.9999978027344,2|2,1:2|0:2,0:0:0:0:
464,164,23591,2,0,L|484:8,1,143.999995605469,2|0,1:2|1:2,0:0:0:0:
304,0,24635,1,0,1:2:0:0:
228,160,25157,5,0,1:2:0:0:
232,164,25417,2,0,P|166:187|106:152,1,143.999995605469,4|4,1:2|1:3,0:0:0:0:
16,164,26200,6,0,P|34:241|46:320,1,160,6|0,1:2|0:2,0:0:0:0:
128,356,26983,1,10,0:2:0:0:
180,284,27243,2,0,P|198:206|210:127,1,160,2|0,1:2|0:2,0:0:0:0:
192,40,28026,1,10,0:2:0:0:
280,60,28287,6,0,L|376:40,1,80,2|10,1:2|0:0,0:0:0:0:
448,28,28809,2,0,P|488:91|443:151,1,160,2|0,0:0|1:2,0:0:0:0:
360,184,29591,1,8,0:2:0:0:
364,188,29852,2,0,L|285:171,1,80,2|8,0:2|0:2,0:0:0:0:
199,152,30374,6,0,P|153:211|194:275,1,160,2|2,1:2|0:2,0:0:0:0:
248,344,31157,1,10,0:2:0:0:
168,384,31417,2,0,L|84:373,1,80,2|8,1:2|0:2,0:0:0:0:
56,288,31939,1,2,0:2:0:0:
52,284,32200,1,10,0:2:0:0:
48,280,32461,2,0,L|212:256,1,160,2|0,1:2|0:2,0:0:0:0:
280,208,33243,1,4,0:0:0:0:
212,152,33504,2,0,L|220:64,1,80,0|0,3:0|3:0,0:0:0:0:
296,24,34026,5,8,3:0:0:0:
300,28,34287,1,4,3:0:0:0:
304,32,34548,2,0,P|357:75|425:58,1,143.999995605469,6|2,1:2|0:0,0:0:0:0:
492,220,35591,1,2,1:2:0:0:
496,224,35852,1,2,1:2:0:0:
500,228,36113,2,0,P|435:252|416:319,1,143.999995605469,10|2,0:0|1:2,0:0:0:0:
244,364,37157,1,2,0:0:0:0:
172,204,37678,1,2,1:2:0:0:
176,208,37939,1,2,1:2:0:0:
180,212,38200,2,0,L|108:204,1,71.9999978027344,8|4,3:0|3:0,0:0:0:0:
19,195,38722,6,0,P|7:127|56:79,1,143.999995605469,2|0,1:2|0:0,0:0:0:0:
144,60,39504,1,2,0:0:0:0:
168,144,39765,2,0,L|239:136,1,71.9999978027344,2|0,1:2|1:0,0:0:0:0:
328,123,40287,2,0,P|377:172|364:240,1,143.999995605469,10|2,0:0|1:2,0:0:0:0:
196,296,41330,2,0,P|146:247|159:179,1,143.999995605469,2|2,0:0|1:2,0:0:0:0:
236,132,42113,1,6,1:2:0:0:
156,92,42374,2,0,L|68:104,1,80,8|8,0:2|0:2,0:0:0:0:
32,24,42896,6,0,L|190:3,1,160,6|0,1:2|0:0,0:0:0:0:
268,48,43678,1,10,0:0:0:0:
272,52,43939,2,0,L|261:131,1,80,2|8,1:2|0:0,0:0:0:0:
352,136,44461,2,0,L|362:215,1,80,2|10,0:0|0:0,0:0:0:0:
304,284,44983,6,0,L|216:260,1,80,2|10,1:2|0:2,0:0:0:0:
140,240,45504,2,0,P|83:292|96:368,1,160,2|0,0:2|1:0,0:0:0:0:
184,368,46287,1,12,0:0:0:0:
271,367,46547,1,10,1:2:0:0:
228,240,46939,6,0,P|212:192|264:120,1,120,6|8,1:2|0:0,0:0:0:0:
324,100,47591,1,0,0:0:0:0:
368,176,47852,2,0,L|447:163,1,80,8|0,0:0|1:0,0:0:0:0:
476,248,48374,2,0,L|288:276,1,160,10|8,0:0|0:0,0:0:0:0:
228,284,49157,6,0,P|187:218|219:149,1,160,2|0,1:2|0:0,0:0:0:0:
300,108,49939,1,8,0:0:0:0:
380,152,50200,2,0,L|372:231,1,80,2|0,1:2|3:0,0:0:0:0:
460,244,50722,2,0,L|467:164,1,80,2|0,3:2|3:0,0:0:0:0:
472,76,51243,1,2,3:2:0:0:
484,88,52287,6,0,L|292:68,1,160,0|2,0:0|0:2,0:0:0:0:
244,112,53070,1,2,0:2:0:0:
312,172,53330,6,0,L|304:256,1,80,6|10,1:2|0:2,0:0:0:0:
292,340,53852,2,0,P|217:359|156:312,1,160,2|2,0:2|1:2,0:0:0:0:
124,228,54635,1,10,0:2:0:0:
200,180,54896,2,0,L|189:100,1,80,2|8,0:2|0:2,0:0:0:0:
164,16,55417,6,0,P|88:1|31:52,1,160,2|0,1:2|0:2,0:0:0:0:
12,140,56200,1,10,0:2:0:0:
96,168,56461,1,2,1:2:0:0:
100,172,56722,1,10,1:2:0:0:
104,176,56983,1,2,0:2:0:0:
216,36,57504,6,0,L|295:25,1,80,2|10,1:2|0:2,0:0:0:0:
300,116,58026,2,0,L|379:126,1,80,2|8,0:2|0:2,0:0:0:0:
464,160,58548,2,0,P|502:117|492:60,2,120,2|2|8,1:2|1:2|0:2,0:0:0:0:
404,228,59591,6,0,L|421:306,1,80,0|12,1:2|0:0,0:0:0:0:
332,292,60113,2,0,L|263:332,1,80,2|12,1:2|0:0,0:0:0:0:
248,243,60635,1,2,1:2:0:0:
252,239,60896,1,12,0:2:0:0:
256,235,61157,2,0,L|195:182,1,80,2|8,0:2|0:2,0:0:0:0:
152,103,61678,6,0,P|206:49|283:56,1,160,6|0,1:2|0:2,0:0:0:0:
360,100,62461,1,10,0:2:0:0:
364,104,62722,2,0,L|348:188,1,80,2|8,1:2|0:2,0:0:0:0:
328,268,63243,5,2,0:2:0:0:
332,272,63504,1,10,0:2:0:0:
334,275,63765,2,0,P|264:306|199:264,1,160,6|0,1:2|0:2,0:0:0:0:
152,188,64548,1,10,0:2:0:0:
216,128,64809,2,0,L|308:136,1,80,2|8,1:2|0:2,0:0:0:0:
384,148,65330,5,2,0:2:0:0:
388,152,65591,1,10,0:2:0:0:
392,155,65852,2,0,P|420:105|398:51,2,120,2|2|10,1:2|0:2|0:2,0:0:0:0:
320,208,66896,2,0,P|291:258|313:312,2,120,2|2|10,1:2|1:2|0:2,0:0:0:0:
284,127,67939,5,2,1:2:0:0:
208,172,68200,2,0,P|128:167|48:156,1,160,14|10,0:2|0:2,0:0:0:0:
12,76,68983,1,0,1:2:0:0:
77,16,69244,1,0,3:0:0:0:
154,59,69504,2,0,P|193:56|231:44,1,80,8|4,0:3|0:3,0:0:0:0:
316,16,70026,5,6,1:2:0:0:
320,20,70287,1,10,0:0:0:0:
324,24,70548,1,2,0:0:0:0:
220,168,71070,2,0,L|234:246,1,80,2|8,1:2|0:0,0:0:0:0:
148,268,71591,2,0,L|133:189,1,80,2|8,0:0|0:2,0:0:0:0:
124,100,72113,6,0,P|80:80|-8:140,1,160,2|0,1:2|0:2,0:0:0:0:
0,224,72896,1,10,0:2:0:0:
8,312,73157,1,2,1:2:0:0:
12,316,73417,1,10,0:0:0:0:
16,320,73678,1,2,0:0:0:0:
172,236,74200,6,0,L|256:252,1,80,2|10,1:2|0:2,0:0:0:0:
292,172,74722,2,0,L|124:132,1,160,2|2,0:2|1:2,0:0:0:0:
124,48,75504,1,10,0:2:0:0:
212,52,75765,2,0,L|324:20,1,80,0|8,0:2|0:2,0:0:0:0:
376,8,76287,6,0,P|404:35|420:72,1,80,0|12,1:2|0:0,0:0:0:0:
352,132,76809,2,0,P|334:167|304:193,1,80,2|12,1:2|0:0,0:0:0:0:
226,147,77330,1,2,1:2:0:0:
222,151,77591,1,12,0:0:0:0:
218,155,77852,2,0,P|178:149|144:129,1,80,2|8,0:2|0:2,0:0:0:0:
72,76,78374,6,0,P|9:120|13:197,1,160,6|0,1:2|0:0,0:0:0:0:
96,232,79157,1,10,0:0:0:0:
116,320,79417,2,0,L|200:312,1,80,2|8,1:2|0:0,0:0:0:0:
208,224,79939,2,0,L|292:216,1,80,2|8,0:0|0:0,0:0:0:0:
363,172,80461,6,0,P|429:213|435:290,1,160,6|4,1:2|1:2,0:0:0:0:
288,376,81504,2,0,P|222:334|216:257,1,160,4|2,1:2|0:0,0:0:0:0:
264,184,82287,1,10,0:0:0:0:
192,132,82548,5,6,1:2:0:0:
324,16,83070,2,0,L|402:32,1,80,4|0,3:0|3:0,0:0:0:0:
488,52,83591,1,4,1:3:0:0:
415,212,84113,2,0,B|352:196|352:196|328:216|328:216|267:200,1,160,0|8,3:0|1:3,0:0:0:0:
192,248,84896,6,0,L|204:356,1,80,4|0,1:2|3:0,0:0:0:0:
116,360,85417,2,0,L|95:184,1,160,4|10,1:2|0:0,0:0:0:0:
144,124,86200,1,2,0:0:0:0:
148,128,86461,1,10,0:0:0:0:
224,176,86722,6,0,P|281:183|326:146,2,120,6|2|10,1:2|1:2|0:0,0:0:0:0:
168,244,87765,2,0,L|189:321,1,80,2|8,1:2|0:0,0:0:0:0:
276,344,88287,2,0,L|297:266,1,80,2|8,0:0|0:0,0:0:0:0:
332,184,88809,6,0,P|388:176|448:244,2,120,6|2|10,1:2|0:0|0:2,0:0:0:0:
256,136,89852,1,2,1:2:0:0:
184,188,90113,2,0,L|192:276,2,80,10|2|10,0:0|0:0|0:0,0:0:0:0:
95,175,90896,6,0,P|39:124|56:50,1,160,2|0,1:2|0:0,0:0:0:0:
136,8,91678,1,10,0:0:0:0:
196,72,91939,2,0,L|274:57,1,80,2|8,1:2|0:0,0:0:0:0:
292,144,92461,2,0,L|213:158,1,80,2|8,0:0|0:0,0:0:0:0:
128,180,92983,6,0,P|112:240|164:292,2,120,6|2|10,1:2|0:2|0:2,0:0:0:0:
120,92,94026,2,0,L|216:76,1,80,2|10,1:2|0:0,0:0:0:0:
280,112,94548,1,2,0:0:0:0:
284,116,94809,1,10,0:0:0:0:
288,120,95070,2,0,L|272:260,2,120,2|2|10,1:2|0:0|0:0,0:0:0:0:
372,92,96113,2,0,P|408:107|448:112,1,80,2|8,1:2|0:0,0:0:0:0:
472,28,96635,2,0,P|435:12|395:7,1,80,2|8,0:0|0:0,0:0:0:0:
307,0,97157,6,0,P|255:55|181:37,1,160,6|0,1:2|0:0,0:0:0:0:
100,0,97939,1,8,0:0:0:0:
32,60,98200,2,0,L|46:138,1,80,0|8,1:0|0:0,0:0:0:0:
132,168,98722,2,0,L|117:246,1,80,2|8,0:0|0:0,0:0:0:0:
144,332,99243,5,2,1:2:0:0:
216,280,99504,2,0,P|294:293|372:311,1,160,12|12,0:0|0:0,0:0:0:0:
420,236,100287,2,0,L|408:156,1,80,2|0,1:2|3:0,0:0:0:0:
496,144,100809,2,0,L|507:223,1,80,8|4,3:0|3:0,0:0:0:0:
480,308,101330,6,0,P|436:336|360:304,2,120,2|2|2,1:2|1:2|1:2,0:0:0:0:
483,173,102504,2,0,B|419:155|419:155|359:183|359:183|277:158,1,200,0|4,3:0|3:0,0:0:0:0:
210,136,103417,1,6,1:2:0:0:
256,192,103548,12,0,107591,0:0:0:0:
