osu file format v14

[General]
AudioFilename: audio.mp3
AudioLeadIn: 0
PreviewTime: 52668
Countdown: 0
SampleSet: Soft
StackLeniency: 0.6
Mode: 0
LetterboxInBreaks: 0
WidescreenStoryboard: 1

[Editor]
DistanceSpacing: 1
BeatDivisor: 8
GridSize: 4
TimelineZoom: 2.1

[Metadata]
Title:MELODY
TitleUnicode:MELODY
Artist:Yuki Setsuna (CV: Kusunoki Tomori)
ArtistUnicode:優木せつ菜 (CV: 楠木ともり)
Creator:Doormat
Version:Insane
Source:ラブライブ!虹ヶ咲学園スクールアイドル同好会
Tags:love live! nijigasaki high school idol club gakuen doukoukai doukou kai nijigaku ニジガク nakagawa nana 中川菜々 llas sifas スクスタ festival all stars スクールアイドルフェスティバル perfect dream project pdp love u my friends Suzuki Ereka 鈴木エレカ Suzuki Manaka 鈴木まなか Hiroki Sagawa Saito Ryosuke サイトウ リョースケ anime video game japanese pop
BeatmapID:3115518
BeatmapSetID:1321136

[Difficulty]
HPDrainRate:5.5
CircleSize:4
OverallDifficulty:7.5
ApproachRate:9
SliderMultiplier:2.4
SliderTickRate:1

[Events]
//Background and Video events
0,0,"setsuna.jpg",0,0
//Break Periods
//Storyboard Layer 0 (Background)
//Storyboard Layer 1 (Fail)
//Storyboard Layer 2 (Pass)
//Storyboard Layer 3 (Foreground)
//Storyboard Layer 4 (Overlay)
//Storyboard Sound Samples

[TimingPoints]
1157,521.739130434783,4,2,1,40,1,0
1157,-125,4,2,1,40,0,0
5330,-111.111111111111,4,2,1,50,0,0
6374,-111.111111111111,4,2,1,60,0,0
7417,-111.111111111111,4,2,1,70,0,0
8461,-111.111111111111,4,2,1,80,0,0
8983,-111.111111111111,4,2,1,80,0,0
9504,-100,4,2,14,80,0,0
9570,-100,4,2,1,80,0,0
9765,-100,4,2,14,80,0,0
9961,-100,4,2,1,80,0,0
10157,-100,4,2,14,80,0,0
10352,-100,4,2,1,80,0,0
10548,-100,4,2,14,80,0,0
10613,-100,4,2,1,80,0,0
10809,-100,4,2,12,80,0,0
10874,-100,4,2,1,80,0,0
11070,-100,4,2,11,80,0,0
11135,-100,4,2,1,80,0,0
11330,-100,4,2,10,80,0,0
11396,-100,4,2,1,80,0,0
11591,-100,4,2,11,80,0,0
11657,-100,4,2,1,80,0,0
11983,-100,4,2,12,80,0,0
12048,-100,4,2,1,80,0,0
12374,-100,4,2,13,80,0,0
12439,-100,4,2,1,80,0,0
12635,-100,4,2,12,80,0,0
12700,-100,4,2,1,80,0,0
13157,-100,4,2,11,80,0,0
13222,-100,4,2,1,80,0,0
13678,-100,4,2,10,80,0,0
13743,-100,4,2,1,80,0,0
15243,-100,4,2,12,80,0,0
15309,-100,4,2,1,80,0,0
15765,-100,4,2,11,80,0,0
15830,-100,4,2,1,80,0,0
17852,-142.857142857143,4,2,1,50,0,0
25157,-100,4,2,1,70,0,0
26200,-100,4,2,1,60,0,0
34548,-142.857142857143,4,2,1,50,0,0
42113,-111.111111111111,4,2,1,70,0,0
42374,-100,4,2,1,80,0,0
42896,-100,4,2,1,70,0,0
46548,-100,4,2,1,80,0,0
46939,-100,4,2,1,70,0,0
49157,-100,4,2,14,70,0,0
49222,-100,4,2,1,70,0,0
50200,-100,4,2,14,70,0,0
50265,-100,4,2,1,70,0,0
50722,-100,4,2,15,70,0,0
50787,-100,4,2,1,70,0,0
51243,-100,4,2,16,70,0,0
52287,-66.6666666666667,4,2,1,40,0,0
52809,-100,4,2,1,60,0,0
53330,-90.9090909090909,4,2,1,80,0,1
59852,-90.9090909090909,4,2,1,90,0,1
60113,-90.9090909090909,4,2,17,80,0,1
60178,-90.9090909090909,4,2,1,80,0,1
60374,-90.9090909090909,4,2,1,90,0,1
60635,-90.9090909090909,4,2,16,80,0,1
60700,-90.9090909090909,4,2,1,80,0,1
60896,-90.9090909090909,4,2,1,90,0,1
61157,-90.9090909090909,4,2,14,80,0,1
61222,-90.9090909090909,4,2,1,80,0,1
61678,-90.9090909090909,4,2,15,80,0,1
61743,-90.9090909090909,4,2,1,80,0,1
69896,-90.9090909090909,4,2,1,80,0,0
70026,-90.9090909090909,4,2,1,80,0,1
76548,-90.9090909090909,4,2,1,90,0,1
76809,-90.9090909090909,4,2,17,80,0,1
76874,-90.9090909090909,4,2,1,80,0,1
77070,-90.9090909090909,4,2,1,90,0,1
77330,-90.9090909090909,4,2,16,80,0,1
77396,-90.9090909090909,4,2,1,80,0,1
77591,-90.9090909090909,4,2,1,90,0,1
77852,-90.9090909090909,4,2,14,80,0,1
77917,-90.9090909090909,4,2,1,80,0,1
78374,-90.9090909090909,4,2,15,80,0,1
78439,-90.9090909090909,4,2,1,80,0,1
81504,-125,4,2,1,80,0,1
82026,-90.9090909090909,4,2,1,80,0,1
83591,-100,4,2,1,60,0,0
84113,-66.6666666666667,4,2,1,40,0,0
84200,-66.6666666666667,4,2,1,45,0,0
84287,-66.6666666666667,4,2,1,50,0,0
84374,-66.6666666666667,4,2,1,55,0,0
84461,-66.6666666666667,4,2,1,60,0,0
84548,-66.6666666666667,4,2,1,65,0,0
84635,-100,4,2,1,70,0,0
84896,-100,4,2,1,90,0,0
84961,-100,4,2,1,80,0,0
85417,-100,4,2,1,90,0,0
85483,-100,4,2,1,80,0,0
85939,-100,4,2,12,80,0,0
86004,-100,4,2,1,80,0,0
86200,-100,4,2,11,80,0,0
86265,-100,4,2,1,80,0,0
86461,-100,4,2,10,80,0,0
86526,-100,4,2,1,80,0,0
86722,-100,4,2,11,80,0,0
86787,-100,4,2,1,80,0,0
87113,-100,4,2,12,80,0,0
87178,-100,4,2,1,80,0,0
87504,-100,4,2,13,80,0,0
87570,-100,4,2,1,80,0,0
87765,-100,4,2,12,80,0,0
87830,-100,4,2,1,80,0,0
88287,-100,4,2,10,80,0,0
88352,-100,4,2,1,80,0,0
88809,-100,4,2,14,80,0,0
88874,-100,4,2,1,80,0,0
89070,-100,4,2,14,80,0,0
89265,-100,4,2,1,80,0,0
89461,-100,4,2,14,80,0,0
89917,-100,4,2,1,80,0,0
90113,-100,4,2,13,80,0,0
90178,-100,4,2,1,80,0,0
90374,-100,4,2,12,80,0,0
90439,-100,4,2,1,80,0,0
90635,-100,4,2,15,80,0,0
90700,-100,4,2,1,80,0,0
90896,-100,4,2,14,80,0,0
90961,-100,4,2,1,80,0,0
91678,-100,4,2,12,80,0,0
91743,-100,4,2,1,80,0,0
91939,-100,4,2,11,80,0,0
92004,-100,4,2,1,80,0,0
92461,-100,4,2,10,80,0,0
92526,-100,4,2,1,80,0,0
92983,-100,4,2,14,80,0,0
93048,-100,4,2,1,80,0,0
93243,-100,4,2,14,80,0,0
93439,-100,4,2,1,80,0,0
93635,-100,4,2,14,80,0,0
93830,-100,4,2,1,80,0,0
94026,-100,4,2,14,80,0,0
94091,-100,4,2,1,80,0,0
94287,-100,4,2,12,80,0,0
94352,-100,4,2,1,80,0,0
94548,-100,4,2,11,80,0,0
94613,-100,4,2,1,80,0,0
94809,-100,4,2,10,80,0,0
94874,-100,4,2,1,80,0,0
95070,-100,4,2,11,80,0,0
95135,-100,4,2,1,80,0,0
95461,-100,4,2,12,80,0,0
95526,-100,4,2,1,80,0,0
95852,-100,4,2,13,80,0,0
95917,-100,4,2,1,80,0,0
96113,-100,4,2,12,80,0,0
96178,-100,4,2,1,80,0,0
96635,-100,4,2,11,80,0,0
96700,-100,4,2,1,80,0,0
97157,-100,4,2,10,80,0,0
97222,-100,4,2,1,80,0,0
98722,-100,4,2,12,80,0,0
98787,-100,4,2,1,80,0,0
99243,-100,4,2,11,80,0,0
99309,-100,4,2,1,80,0,0
100287,-100,4,2,14,80,0,0
100352,-100,4,2,1,80,0,0
100417,-100,4,2,1,60,0,0
101330,-100,4,2,10,80,0,0
102504,-100,4,2,1,60,0,0
103417,-100,4,2,10,80,0,0
107591,-100,4,2,1,10,0,0

[Colours]
Combo1 : 130,165,255
Combo2 : 225,35,65
Combo3 : 70,110,240
Combo4 : 230,80,65

[HitObjects]
132,124,1157,5,4,1:2:0:0:
250,189,1417,2,0,L|343:168,1,96,8|0,1:2|1:0,0:0:0:0:
366,249,1809,2,0,L|272:269,1,96,8|0,1:2|1:0,0:0:0:0:
191,293,2200,5,8,1:2:0:0:
191,293,2330,2,0,P|161:252|171:200,1,96,8|0,1:3|0:0,0:0:0:0:
218,144,2722,1,8,1:2:0:0:
218,144,2852,1,8,1:3:0:0:
218,144,2983,2,0,L|209:74,1,48,4|0,1:3|0:0,0:0:0:0:
248,24,3243,5,4,1:2:0:0:
129,89,3504,2,0,L|36:68,1,96,8|0,1:2|1:0,0:0:0:0:
13,148,3896,2,0,L|106:169,1,96,8|0,1:2|1:0,0:0:0:0:
187,190,4287,5,8,1:2:0:0:
187,190,4417,2,0,P|203:238|183:278,1,96,8|0,1:3|0:0,0:0:0:0:
112,316,4809,1,8,1:2:0:0:
112,316,4939,1,8,1:3:0:0:
112,316,5070,2,0,L|124:372,1,48,4|0,1:3|0:0,0:0:0:0:
40,276,5330,5,4,1:2:0:0:
84,132,5591,1,0,1:0:0:0:
228,176,5852,1,0,1:0:0:0:
184,320,6113,1,0,1:0:0:0:
328,364,6374,6,0,L|404:348,1,53.9999983520508,4|0,1:2|0:0,0:0:0:0:
463,364,6635,2,0,L|471:286,1,53.9999983520508,0|0,1:0|0:0,0:0:0:0:
504,235,6896,2,0,L|433:203,1,53.9999983520508,0|0,1:0|0:0,0:0:0:0:
394,155,7157,2,0,L|341:213,1,53.9999983520508,0|0,1:0|0:0,0:0:0:0:
272,196,7417,6,0,P|257:173|251:147,1,53.9999983520508,0|0,1:0|0:0,0:0:0:0:
196,84,7678,2,0,P|218:69|244:63,1,53.9999983520508,0|0,1:0|0:0,0:0:0:0:
308,8,7939,2,0,P|322:30|328:56,1,53.9999983520508,0|0,1:0|0:0,0:0:0:0:
384,120,8200,2,0,P|362:135|336:141,1,53.9999983520508,0|0,1:0|0:0,0:0:0:0:
196,84,8461,5,8,1:2:0:0:
196,84,8591,1,0,1:2:0:0:
468,160,8983,6,0,L|460:216,5,35.9999989013672,0|0|0|0|0|0,3:0|3:0|3:0|3:0|0:0|0:0,0:0:0:0:
456,228,9504,6,0,P|397:224|361:179,1,120,6|10,1:2|0:0,0:0:0:0:
288,136,9896,2,0,P|242:172|239:230,1,120,2|2,0:0|1:2,0:0:0:0:
192,300,10287,2,0,L|128:284,1,60,10|0,0:0|0:0,0:0:0:0:
52,260,10548,5,2,1:2:0:0:
136,136,10809,1,10,0:0:0:0:
279,177,11070,1,2,0:0:0:0:
283,326,11330,1,10,0:0:0:0:
425,368,11591,6,0,P|479:348|497:293,1,120,2|8,1:2|0:0,0:0:0:0:
452,220,11983,2,0,P|397:200|379:145,1,120,2|0,0:0|1:0,0:0:0:0:
432,80,12374,2,0,L|496:88,1,60,10|0,0:0|0:0,0:0:0:0:
368,16,12635,6,0,L|240:28,1,120,2|8,1:2|0:0,0:0:0:0:
176,72,13026,1,0,1:2:0:0:
243,127,13157,2,0,L|231:255,1,120,2|8,0:0|0:0,0:0:0:0:
232,247,13678,6,0,P|282:215|340:221,1,120,6|8,1:2|0:0,0:0:0:0:
364,304,14070,2,0,P|314:336|256:329,1,120,0|0,0:0|1:0,0:0:0:0:
176,312,14461,1,8,0:0:0:0:
176,312,14591,1,0,0:0:0:0:
232,247,14722,6,0,P|252:193|226:141,1,120,0|8,1:0|0:0,0:0:0:0:
148,108,15113,1,0,1:0:0:0:
188,36,15243,2,0,P|242:15|294:41,1,120,2|8,0:0|0:0,0:0:0:0:
344,108,15635,1,0,0:0:0:0:
384,180,15765,6,0,P|339:252|255:239,1,180,2|0,1:2|3:0,0:0:0:0:
184,284,16287,1,0,3:0:0:0:
184,284,16417,1,8,1:3:0:0:
184,284,16548,2,0,L|194:343,1,60,4|4,3:0|3:0,0:0:0:0:
168,192,16809,1,4,1:2:0:0:
84,136,17852,6,0,B|144:119|144:119|184:143|184:143|248:125,1,167.999994873047,6|0,1:2|1:2,0:0:0:0:
328,32,18635,1,2,0:2:0:0:
432,104,18896,2,0,P|416:186|404:269,1,167.999994873047,2|0,1:2|1:2,0:0:0:0:
476,376,19678,1,2,0:2:0:0:
348,384,19939,6,0,L|265:368,1,83.9999974365235,2|2,1:2|0:2,0:0:0:0:
260,240,20461,2,0,L|384:261,1,125.999996154785,2|2,1:2|0:2,0:0:0:0:
384,261,20983,2,0,P|404:228|396:180,1,83.9999974365235,0|0,1:2|0:2,0:0:0:0:
320,84,21504,1,2,1:2:0:0:
320,84,21765,1,2,0:2:0:0:
268,200,22026,6,0,P|228:216|132:136,1,167.999994873047,2|0,1:2|1:2,0:0:0:0:
100,28,22809,1,2,0:2:0:0:
12,120,23070,2,0,L|24:216,1,83.9999974365235,2|2,1:2|0:2,0:0:0:0:
147,227,23591,2,0,L|162:101,1,125.999996154785,2|2,1:2|0:2,0:0:0:0:
162,101,24113,6,0,P|198:122|240:121,1,83.9999974365235,0|0,1:2|0:2,0:0:0:0:
252,248,24635,2,0,P|210:246|174:267,1,83.9999974365235,0|0,1:2|0:2,0:0:0:0:
260,376,25157,5,0,1:2:0:0:
260,376,25417,2,0,B|304:342|349:366|349:366|395:394|464:351,1,180,4|4,1:2|1:3,0:0:0:0:
436,358,25939,1,4,1:3:0:0:
385,202,26200,6,0,L|264:220,1,120,6|8,1:2|0:2,0:0:0:0:
190,183,26591,1,0,0:2:0:0:
190,183,26722,2,0,L|197:116,1,60,0|0,0:2|1:2,0:0:0:0:
266,219,26983,2,0,L|259:286,1,60,10|0,0:2|0:2,0:0:0:0:
242,375,27243,6,0,P|185:385|137:351,1,120,2|8,1:2|0:2,0:0:0:0:
121,266,27635,2,0,P|172:238|190:183,1,120,0|0,1:2|1:2,0:0:0:0:
174,99,28026,2,0,L|110:93,1,60,10|0,0:2|0:2,0:0:0:0:
190,183,28287,6,0,L|319:195,1,120,2|10,1:2|0:0,0:0:0:0:
382,147,28678,1,0,0:0:0:0:
382,147,28809,2,0,L|370:83,1,60,2|0,0:0|1:0,0:0:0:0:
442,39,29070,1,10,0:0:0:0:
442,39,29200,1,2,0:2:0:0:
494,123,29330,6,0,L|482:256,1,120,0|8,1:2|0:2,0:0:0:0:
430,311,29722,1,0,1:2:0:0:
364,234,29852,6,0,L|352:101,1,120,2|8,0:2|0:2,0:0:0:0:
300,46,30244,1,0,0:0:0:0:
244,138,30374,6,0,P|189:157|141:124,1,120,2|10,1:2|0:2,0:0:0:0:
128,40,30765,1,0,0:0:0:0:
59,88,30896,2,0,L|1:80,1,60,2|0,0:2|1:0,0:0:0:0:
61,182,31157,2,0,L|120:174,1,60,10|0,0:2|0:2,0:0:0:0:
232,156,31417,6,0,P|266:202|256:260,1,120,2|8,1:2|0:2,0:0:0:0:
176,288,31809,1,0,1:2:0:0:
244,348,31939,1,2,0:2:0:0:
244,348,32070,1,0,1:2:0:0:
164,368,32200,2,0,L|99:358,1,60,10|0,0:2|0:2,0:0:0:0:
96,256,32461,6,0,L|170:241,1,60,2|0,1:2|0:2,0:0:0:0:
220,188,32722,1,8,0:2:0:0:
220,188,32852,1,0,0:2:0:0:
297,227,32983,2,0,L|289:290,1,60,0|0,0:2|1:2,0:0:0:0:
386,333,33243,6,0,L|402:211,1,120,4|0,0:0|3:0,0:0:0:0:
468,160,33635,1,0,3:0:0:0:
412,96,33765,2,0,L|338:111,1,60,0|0,3:0|3:0,0:0:0:0:
284,156,34026,1,8,3:0:0:0:
284,156,34157,1,8,3:0:0:0:
224,96,34287,1,4,3:0:0:0:
224,96,34417,1,4,3:0:0:0:
154,144,34548,6,0,P|133:201|163:255,1,125.999996154785,6|0,1:2|1:0,0:0:0:0:
161,253,35070,2,0,P|120:255|81:271,1,83.9999974365235,2|0,0:0|0:0,0:0:0:0:
148,380,35591,1,2,1:2:0:0:
266,332,35852,1,2,1:2:0:0:
384,284,36113,1,10,0:0:0:0:
384,284,36243,2,0,L|474:299,1,83.9999974365235,2|0,1:2|0:0,0:0:0:0:
466,297,36635,6,0,P|498:256|481:185,1,125.999996154785,2|0,1:2|1:0,0:0:0:0:
483,187,37157,2,0,P|510:158|507:112,1,83.9999974365235,2|0,0:0|0:0,0:0:0:0:
437,12,37678,1,2,1:2:0:0:
383,125,37939,1,2,1:2:0:0:
311,21,38200,2,0,L|269:25,1,41.9999987182618,8|8,3:0|3:0,0:0:0:0:
217,73,38461,2,0,L|175:77,1,41.9999987182618,4|4,3:0|3:0,0:0:0:0:
112,39,38722,5,2,1:2:0:0:
220,190,39113,2,0,L|205:324,1,125.999996154785,0|2,1:0|0:0,0:0:0:0:
313,381,39765,2,0,L|408:361,1,83.9999974365235,2|0,1:2|1:0,0:0:0:0:
418,238,40287,1,10,0:0:0:0:
418,238,40417,2,0,L|323:218,1,83.9999974365235,2|0,1:2|0:0,0:0:0:0:
264,203,40809,6,0,P|250:143|287:94,1,125.999996154785,2|0,1:2|1:0,0:0:0:0:
286,94,41330,2,0,P|244:99|200:87,1,83.9999974365235,2|0,0:0|0:0,0:0:0:0:
102,16,41852,1,2,1:2:0:0:
29,118,42113,1,6,1:2:0:0:
131,190,42373,1,8,0:2:0:0:
131,190,42504,1,8,0:2:0:0:
131,190,42635,2,0,L|123:257,1,60,8|8,0:2|0:2,0:0:0:0:
146,107,42896,6,0,P|203:98|252:130,1,120,6|8,1:2|0:0,0:0:0:0:
276,212,43287,2,0,P|333:221|382:189,1,120,0|0,0:0|1:0,0:0:0:0:
448,244,43678,2,0,L|442:303,1,60,10|0,0:0|0:0,0:0:0:0:
512,192,43939,6,0,L|506:132,1,60,2|0,1:2|0:0,0:0:0:0:
512,48,44200,2,0,L|453:35,1,60,8|0,0:0|1:0,0:0:0:0:
375,3,44461,2,0,L|343:54,1,60,2|0,0:0|1:0,0:0:0:0:
289,119,44722,2,0,L|328:165,1,60,10|0,0:0|0:0,0:0:0:0:
304,248,44983,5,2,1:2:0:0:
304,248,45113,1,2,0:2:0:0:
220,232,45243,1,10,0:2:0:0:
220,232,45374,1,2,0:2:0:0:
136,216,45504,1,2,0:2:0:0:
136,216,45635,2,0,P|109:268|128:323,1,120,2|2,1:2|0:0,0:0:0:0:
64,380,46026,6,0,L|5:366,1,60,0|0,1:0|0:0,0:0:0:0:
164,328,46287,2,0,L|222:314,1,60,12|0,0:0|1:0,0:0:0:0:
312,340,46548,5,10,1:2:0:0:
264,228,46678,1,2,1:2:0:0:
312,340,46939,6,0,P|368:353|415:319,1,120,6|0,1:2|1:2,0:0:0:0:
436,236,47330,2,0,P|378:226|348:177,1,120,8|0,0:0|0:0,0:0:0:0:
376,96,47722,1,0,1:0:0:0:
376,96,47852,2,0,L|444:104,1,60,8|0,0:0|0:0,0:0:0:0:
348,177,48113,6,0,L|276:189,1,60,0|0,1:0|0:0,0:0:0:0:
208,212,48374,2,0,P|176:180|188:108,1,120,10|2,0:0|0:0,0:0:0:0:
256,64,48765,2,0,L|240:0,1,60,2|8,1:2|0:0,0:0:0:0:
328,12,49026,1,2,0:0:0:0:
384,88,49157,6,0,L|372:232,1,120,2|8,1:2|0:0,0:0:0:0:
292,236,49548,2,0,L|280:100,1,120,0|0,0:0|1:0,0:0:0:0:
204,80,49939,2,0,L|192:144,1,60,8|0,0:0|0:0,0:0:0:0:
196,236,50200,6,0,P|140:254|91:223,1,120,2|0,1:2|3:0,0:0:0:0:
56,144,50591,1,0,3:0:0:0:
142,152,50722,1,2,3:2:0:0:
106,72,50852,1,0,3:0:0:0:
192,80,50983,1,0,3:0:0:0:
156,0,51113,1,0,3:0:0:0:
242,8,51243,1,2,3:2:0:0:
238,37,52287,6,0,L|242:8,10,30.0000011444092,0|0|0|0|0|0|0|0|0|0|0,0:0|0:0|0:0|0:0|0:0|0:0|0:0|0:0|0:0|0:0|0:0,0:0:0:0:
220,52,52809,6,0,P|267:86|325:79,1,120,2|2,0:2|0:2,0:0:0:0:
388,24,53200,1,2,0:2:0:0:
448,84,53330,6,0,L|437:149,1,66.0000020141602,6|0,1:2|0:2,0:0:0:0:
356,176,53591,2,0,L|366:241,1,66.0000020141602,10|0,0:2|0:0,0:0:0:0:
404,320,53852,2,0,P|376:352|284:340,1,132.00000402832,2|8,0:2|0:2,0:0:0:0:
268,264,54243,1,2,0:2:0:0:
208,344,54374,6,0,L|136:328,1,66.0000020141602,2|0,1:2|0:2,0:0:0:0:
92,260,54635,1,10,0:2:0:0:
92,260,54765,1,0,1:2:0:0:
168,216,54896,2,0,P|196:184|164:104,1,132.00000402832,2|8,0:2|0:2,0:0:0:0:
88,80,55287,1,0,0:2:0:0:
168,20,55417,6,0,L|233:26,1,66.0000020141602,2|0,1:2|0:2,0:0:0:0:
248,116,55678,1,10,0:2:0:0:
248,116,55809,2,0,L|313:109,1,66.0000020141602,2|0,0:2|0:2,0:0:0:0:
388,156,56070,1,2,1:2:0:0:
440,88,56200,1,10,0:2:0:0:
440,88,56330,1,2,0:2:0:0:
504,148,56461,6,0,L|496:220,1,66.0000020141602,2|0,1:2|0:2,0:0:0:0:
440,88,56722,2,0,L|432:16,1,66.0000020141602,10|0,1:2|1:2,0:0:0:0:
388,156,56983,2,0,L|380:228,1,66.0000020141602,2|0,0:2|1:2,0:0:0:0:
313,109,57243,1,8,1:2:0:0:
313,109,57504,6,0,P|280:112|248:106,1,66.0000020141602,2|0,1:2|0:2,0:0:0:0:
228,192,57765,2,0,P|195:188|163:195,1,66.0000020141602,10|0,0:2|0:2,0:0:0:0:
100,256,58026,2,0,P|60:240|48:148,1,132.00000402832,2|8,0:2|0:2,0:0:0:0:
92,88,58417,1,0,0:2:0:0:
159,144,58548,6,0,P|225:134|289:118,1,132.00000402832,2|10,1:2|0:2,0:0:0:0:
312,204,58939,2,0,P|246:213|182:229,1,132.00000402832,2|2,1:2|1:2,0:0:0:0:
112,280,59330,2,0,L|128:352,1,66.0000020141602,8|2,0:2|0:2,0:0:0:0:
8,320,59591,6,0,L|20:221,1,99.0000030212403,0|0,1:2|0:2,0:0:0:0:
32,220,59852,2,0,L|44:139,1,66.0000020141602,12|0,0:0|0:0,0:0:0:0:
132,100,60113,6,0,L|144:199,1,99.0000030212403,2|0,1:2|0:2,0:0:0:0:
156,200,60374,2,0,L|168:281,1,66.0000020141602,12|0,0:0|0:0,0:0:0:0:
256,340,60635,5,2,1:2:0:0:
405,151,60896,1,12,0:2:0:0:
168,116,61157,1,2,0:2:0:0:
19,305,61417,5,8,0:2:0:0:
104,284,61548,1,8,0:2:0:0:
189,263,61678,2,0,P|251:283|316:297,1,132.00000402832,6|10,1:2|0:2,0:0:0:0:
336,212,62070,2,0,P|273:191|208:177,1,132.00000402832,2|0,0:0|1:2,0:0:0:0:
152,112,62461,2,0,L|164:40,1,66.0000020141602,10|0,0:2|0:2,0:0:0:0:
56,72,62722,6,0,L|72:216,1,132.00000402832,2|8,1:2|0:2,0:0:0:0:
128,272,63113,1,0,1:2:0:0:
128,272,63243,2,0,L|204:252,1,66.0000020141602,2|0,0:2|1:2,0:0:0:0:
84,352,63504,2,0,L|8:332,1,66.0000020141602,10|0,0:2|0:2,0:0:0:0:
168,384,63765,5,6,1:2:0:0:
168,384,63895,1,2,0:2:0:0:
252,356,64026,1,10,0:2:0:0:
252,356,64157,2,0,P|272:320|240:236,1,132.00000402832,2|0,0:2|1:2,0:0:0:0:
184,176,64548,2,0,L|112:192,1,66.0000020141602,10|0,0:2|0:2,0:0:0:0:
140,80,64809,6,0,L|280:92,1,132.00000402832,2|8,1:2|0:2,0:0:0:0:
348,140,65200,1,0,1:2:0:0:
348,140,65330,2,0,L|332:212,1,66.0000020141602,2|0,0:2|1:2,0:0:0:0:
252,236,65591,2,0,L|268:308,1,66.0000020141602,10|0,0:2|0:2,0:0:0:0:
336,379,65852,6,0,P|398:367|430:312,1,132.00000402832,2|10,1:2|0:2,0:0:0:0:
464,232,66243,2,0,P|408:200|396:137,1,132.00000402832,2|0,0:2|1:2,0:0:0:0:
444,64,66635,2,0,L|512:80,1,66.0000020141602,10|0,0:2|0:2,0:0:0:0:
371,8,66896,6,0,P|324:51|260:48,1,132.00000402832,2|10,1:2|0:2,0:0:0:0:
192,104,67287,2,0,P|144:60|80:63,1,132.00000402832,2|0,1:2|1:2,0:0:0:0:
8,112,67678,2,0,L|24:192,1,66.0000020141602,10|0,0:2|0:2,0:0:0:0:
104,204,67939,5,2,1:2:0:0:
38,262,68070,1,2,0:2:0:0:
121,290,68200,1,14,0:2:0:0:
55,348,68330,2,0,P|96:376|180:352,1,132.00000402832,2|0,0:2|1:2,0:0:0:0:
240,304,68722,2,0,L|224:232,1,66.0000020141602,10|2,0:2|0:2,0:0:0:0:
196,135,68983,6,0,P|246:97|309:110,1,132.00000402832,0|0,1:2|3:0,0:0:0:0:
372,172,69374,1,0,3:2:0:0:
393,86,69504,1,8,0:3:0:0:
455,147,69635,1,8,0:3:0:0:
433,232,69765,1,4,0:3:0:0:
372,172,69896,1,4,0:3:0:0:
349,254,70026,6,0,P|287:267|236:228,1,132.00000402832,6|10,1:2|0:0,0:0:0:0:
216,144,70417,1,0,0:0:0:0:
216,144,70548,2,0,P|251:90|314:81,1,132.00000402832,2|8,0:0|0:0,0:0:0:0:
314,81,71070,6,0,L|182:69,1,132.00000402832,2|8,1:2|0:0,0:0:0:0:
108,116,71461,1,0,1:0:0:0:
108,116,71591,2,0,L|120:184,1,66.0000020141602,2|0,0:0|1:0,0:0:0:0:
34,200,71852,2,0,L|22:132,1,66.0000020141602,8|0,0:2|0:2,0:0:0:0:
51,283,72113,6,0,P|114:295|163:253,1,132.00000402832,2|10,1:2|0:2,0:0:0:0:
204,176,72504,2,0,P|266:164|315:206,1,132.00000402832,2|2,0:2|1:2,0:0:0:0:
300,296,72896,1,10,0:2:0:0:
300,296,73026,1,2,0:2:0:0:
408,244,73157,6,0,L|472:258,1,66.0000020141602,2|0,1:2|0:2,0:0:0:0:
360,164,73417,2,0,L|295:178,1,66.0000020141602,10|0,0:0|0:0,0:0:0:0:
408,84,73678,2,0,L|472:98,1,66.0000020141602,2|0,0:0|1:0,0:0:0:0:
360,4,73939,1,8,0:0:0:0:
359,4,74200,6,0,P|338:28|308:42,1,66.0000020141602,2|0,1:2|0:0,0:0:0:0:
220,40,74461,2,0,P|198:15|168:1,1,66.0000020141602,10|0,0:2|0:2,0:0:0:0:
96,52,74722,2,0,L|120:192,1,132.00000402832,2|8,0:2|0:2,0:0:0:0:
200,212,75113,1,0,0:2:0:0:
92,268,75243,6,0,L|20:260,1,66.0000020141602,2|0,1:2|0:2,0:0:0:0:
44,348,75504,1,10,0:2:0:0:
44,348,75635,2,0,L|176:364,1,132.00000402832,2|2,1:2|1:2,0:0:0:0:
260,340,76026,2,0,L|244:268,1,66.0000020141602,8|2,0:2|0:2,0:0:0:0:
208,176,76287,6,0,P|248:148|296:151,1,99.0000030212403,0|0,1:2|0:2,0:0:0:0:
303,159,76548,2,0,P|304:127|317:96,1,66.0000020141602,12|0,0:0|0:0,0:0:0:0:
424,84,76809,6,0,P|452:124|448:172,1,99.0000030212403,2|0,1:2|0:2,0:0:0:0:
440,179,77070,2,0,P|472:179|503:192,1,66.0000020141602,12|0,0:0|0:0,0:0:0:0:
448,284,77330,5,2,1:2:0:0:
276,116,77591,1,12,0:0:0:0:
216,348,77852,1,2,0:2:0:0:
44,180,78113,5,8,0:2:0:0:
128,156,78243,1,8,0:2:0:0:
210,130,78374,2,0,P|258:173|254:237,1,132.00000402832,6|8,1:2|0:0,0:0:0:0:
328,288,78765,2,0,P|391:291|434:244,1,132.00000402832,0|0,0:0|1:0,0:0:0:0:
432,156,79157,2,0,L|356:136,1,66.0000020141602,10|0,0:0|0:0,0:0:0:0:
263,139,79417,6,0,P|249:78|294:32,1,132.00000402832,2|8,1:2|0:0,0:0:0:0:
384,24,79809,1,0,1:0:0:0:
384,24,79939,2,0,P|440:53|446:116,1,132.00000402832,2|8,0:0|0:0,0:0:0:0:
263,139,80461,6,0,P|219:155|135:175,1,132.00000402832,6|2,1:2|1:2,0:0:0:0:
135,263,80852,1,2,0:0:0:0:
255,239,80983,6,0,P|299:255|383:275,1,132.00000402832,4|2,1:2|1:2,0:0:0:0:
383,363,81374,1,2,0:0:0:0:
262,339,81504,6,0,P|193:359|122:366,1,144,4|0,1:2|1:0,0:0:0:0:
51,315,82026,2,0,L|59:247,1,66.0000020141602,2|0,0:0|1:0,0:0:0:0:
131,195,82287,1,10,0:0:0:0:
23,159,82417,1,8,0:0:0:0:
103,107,82548,6,0,L|195:119,1,66.0000020141602,6|0,1:2|0:0,0:0:0:0:
172,28,82809,2,0,L|264:16,1,66.0000020141602,8|0,0:0|3:0,0:0:0:0:
312,72,83070,1,4,3:0:0:0:
312,72,83200,2,0,L|296:208,1,132.00000402832,8|8,3:0|3:0,0:0:0:0:
284,296,83591,1,4,1:3:0:0:
44,172,84113,6,0,L|36:224,12,30.0000011444092,0|0|0|0|0|0|0|0|0|0|0|0|8,3:0|0:0|3:0|0:0|3:0|0:0|3:0|0:0|3:0|0:0|3:0|0:0|1:3,0:0:0:0:
204,260,84896,6,0,P|240:213|298:206,1,120,4|0,1:2|3:0,0:0:0:0:
416,68,85417,2,0,P|380:24|296:32,1,120,4|0,1:2|1:2,0:0:0:0:
244,60,85809,1,0,1:0:0:0:
244,60,85939,2,0,L|255:118,1,60,10|0,0:0|1:0,0:0:0:0:
332,156,86200,2,0,L|320:214,1,60,2|0,0:0|1:0,0:0:0:0:
244,252,86461,2,0,L|255:310,1,60,10|0,0:0|0:0,0:0:0:0:
344,371,86722,6,0,P|385:330|444:332,1,120,6|8,1:2|0:0,0:0:0:0:
472,252,87113,2,0,P|430:211|371:213,1,120,2|0,1:2|1:0,0:0:0:0:
296,172,87504,2,0,L|304:100,1,60,10|0,0:0|0:0,0:0:0:0:
236,56,87765,6,0,P|188:76|100:88,1,120,2|8,1:2|0:0,0:0:0:0:
40,68,88157,1,0,1:0:0:0:
16,168,88287,6,0,P|64:188|152:200,1,120,2|8,0:0|0:0,0:0:0:0:
212,180,88679,1,0,0:0:0:0:
156,288,88809,6,0,L|161:347,1,60,6|0,1:2|0:0,0:0:0:0:
240,384,89070,1,10,0:0:0:0:
288,312,89200,2,0,P|348:304|396:336,1,120,2|2,0:0|1:2,0:0:0:0:
464,284,89591,2,0,L|452:212,1,60,10|0,0:2|0:0,0:0:0:0:
372,196,89852,2,0,L|384:124,1,60,2|0,1:2|0:0,0:0:0:0:
400,32,90113,5,10,0:0:0:0:
196,132,90374,1,2,0:0:0:0:
384,258,90635,1,10,0:0:0:0:
179,357,90896,6,0,P|123:337|64:325,1,120,2|8,1:2|0:0,0:0:0:0:
28,248,91287,2,0,P|84:227|143:215,1,120,0|0,0:0|1:0,0:0:0:0:
212,164,91678,2,0,L|200:80,1,60,10|0,0:0|0:0,0:0:0:0:
260,24,91939,6,0,P|315:6|368:31,1,120,2|8,1:2|0:0,0:0:0:0:
427,92,92330,1,0,1:0:0:0:
355,136,92461,2,0,P|329:188|347:244,1,120,2|8,0:0|0:0,0:0:0:0:
432,268,92852,1,0,0:0:0:0:
328,328,92983,6,0,P|269:315|209:311,1,120,6|10,1:2|0:2,0:0:0:0:
200,228,93374,2,0,P|259:223|318:211,1,120,2|2,0:2|1:2,0:0:0:0:
376,148,93765,2,0,L|362:89,1,60,10|0,0:2|0:0,0:0:0:0:
336,8,94026,5,2,1:2:0:0:
468,76,94287,1,10,0:0:0:0:
444,222,94548,1,2,0:0:0:0:
297,244,94809,1,10,0:0:0:0:
229,110,95070,6,0,P|180:79|123:89,1,120,2|8,1:2|0:0,0:0:0:0:
64,152,95461,2,0,P|95:201|85:258,1,120,2|0,0:0|1:0,0:0:0:0:
36,328,95852,2,0,L|-32:316,1,60,10|0,0:0|0:0,0:0:0:0:
100,384,96113,6,0,P|157:365|215:353,1,120,2|8,1:2|0:0,0:0:0:0:
240,272,96504,1,0,1:2:0:0:
180,212,96635,2,0,P|122:230|64:242,1,120,2|8,0:0|0:0,0:0:0:0:
64,242,97157,6,0,P|98:195|84:138,1,120,6|8,1:2|0:0,0:0:0:0:
108,56,97548,2,0,P|164:41|211:76,1,120,0|0,0:0|1:0,0:0:0:0:
260,152,97939,1,8,0:0:0:0:
260,152,98070,1,0,0:0:0:0:
192,204,98200,6,0,P|210:261|222:319,1,120,0|8,1:0|0:0,0:0:0:0:
296,364,98591,1,0,1:0:0:0:
336,288,98722,2,0,P|354:230|366:172,1,120,2|8,0:0|0:0,0:0:0:0:
328,96,99113,1,0,0:0:0:0:
448,136,99243,6,0,L|507:126,1,60,2|0,1:2|0:0,0:0:0:0:
492,256,99504,2,0,L|344:244,1,120,12|0,0:0|0:0,0:0:0:0:
328,172,99896,1,0,1:0:0:0:
288,296,100026,2,0,L|297:355,1,60,12|0,0:0|0:0,0:0:0:0:
167,343,100287,6,0,P|152:287|184:232,1,120,2|0,1:2|3:0,0:0:0:0:
256,196,100678,1,0,3:0:0:0:
216,119,100808,1,8,3:0:0:0:
139,158,100939,1,8,3:0:0:0:
99,81,101069,1,4,3:0:0:0:
22,120,101200,1,4,3:0:0:0:
62,197,101330,5,2,1:2:0:0:
74,201,101722,5,2,1:2:0:0:
86,205,102113,5,2,1:2:0:0:
98,209,102504,6,0,B|145:187|182:208|182:208|223:231|292:189,1,180,0|8,3:0|3:0,0:0:0:0:
316,128,103026,1,8,3:0:0:0:
388,173,103156,1,4,3:0:0:0:
342,245,103287,1,4,3:0:0:0:
414,290,103417,5,6,1:2:0:0:
256,192,103548,12,0,107591,0:0:0:0:
