osu file format v14

[General]
AudioFilename: audio.mp3
AudioLeadIn: 0
PreviewTime: 52668
Countdown: 0
SampleSet: Soft
StackLeniency: 0.4
Mode: 0
LetterboxInBreaks: 0
WidescreenStoryboard: 1

[Editor]
DistanceSpacing: 1
BeatDivisor: 12
GridSize: 4
TimelineZoom: 2.1

[Metadata]
Title:MELODY
TitleUnicode:MELODY
Artist:Yuki Setsuna (CV: Kusunoki Tomori)
ArtistUnicode:優木せつ菜 (CV: 楠木ともり)
Creator:Doormat
Version:Hard
Source:ラブライブ!虹ヶ咲学園スクールアイドル同好会
Tags:love live! nijigasaki high school idol club gakuen doukoukai doukou kai nijigaku ニジガク nakagawa nana 中川菜々 llas sifas スクスタ festival all stars スクールアイドルフェスティバル perfect dream project pdp love u my friends Suzuki Ereka 鈴木エレカ Suzuki Manaka 鈴木まなか Hiroki Sagawa Saito Ryosuke サイトウ リョースケ anime video game japanese pop
BeatmapID:2959881
BeatmapSetID:1321136

[Difficulty]
HPDrainRate:5
CircleSize:4
OverallDifficulty:6.5
ApproachRate:8
SliderMultiplier:2
SliderTickRate:1

[Events]
//Background and Video events
0,0,"setsuna.jpg",0,0
//Break Periods
//Storyboard Layer 0 (Background)
//Storyboard Layer 1 (Fail)
//Storyboard Layer 2 (Pass)
//Storyboard Layer 3 (Foreground)
//Storyboard Layer 4 (Overlay)
//Storyboard Sound Samples

[TimingPoints]
1157,521.739130434783,4,2,1,40,1,0
1157,-111.111111111111,4,2,1,40,0,0
5330,-111.111111111111,4,2,1,50,0,0
6374,-111.111111111111,4,2,1,60,0,0
7417,-111.111111111111,4,2,1,70,0,0
8461,-111.111111111111,4,2,1,80,0,0
8983,-111.111111111111,4,2,1,80,0,0
9504,-100,4,2,14,80,0,0
9570,-100,4,2,1,80,0,0
9765,-100,4,2,14,80,0,0
9961,-100,4,2,1,80,0,0
10157,-100,4,2,14,80,0,0
10352,-100,4,2,1,80,0,0
10548,-100,4,2,14,80,0,0
10613,-100,4,2,1,80,0,0
10809,-100,4,2,12,80,0,0
10874,-100,4,2,1,80,0,0
11070,-100,4,2,11,80,0,0
11135,-100,4,2,1,80,0,0
11330,-100,4,2,10,80,0,0
11396,-100,4,2,1,80,0,0
11591,-100,4,2,11,80,0,0
11657,-100,4,2,1,80,0,0
11983,-100,4,2,12,80,0,0
12048,-100,4,2,1,80,0,0
12374,-100,4,2,13,80,0,0
12439,-100,4,2,1,80,0,0
12635,-100,4,2,12,80,0,0
12700,-100,4,2,1,80,0,0
13157,-100,4,2,11,80,0,0
13222,-100,4,2,1,80,0,0
13678,-100,4,2,10,80,0,0
13743,-100,4,2,1,80,0,0
15243,-100,4,2,12,80,0,0
15309,-100,4,2,1,80,0,0
15765,-100,4,2,11,80,0,0
15830,-100,4,2,1,80,0,0
17852,-111.111111111111,4,2,1,50,0,0
25157,-100,4,2,1,70,0,0
26200,-100,4,2,1,60,0,0
34548,-111.111111111111,4,2,1,50,0,0
42113,-111.111111111111,4,2,1,70,0,0
42374,-100,4,2,1,80,0,0
42896,-100,4,2,1,70,0,0
46548,-100,4,2,1,80,0,0
46939,-100,4,2,1,70,0,0
49157,-100,4,2,14,70,0,0
49222,-100,4,2,1,70,0,0
50200,-100,4,2,14,70,0,0
50265,-100,4,2,1,70,0,0
50722,-100,4,2,15,70,0,0
50787,-100,4,2,1,70,0,0
51243,-100,4,2,16,70,0,0
52287,-100,4,2,1,40,0,0
52809,-100,4,2,1,60,0,0
53330,-100,4,2,1,80,0,1
59852,-100,4,2,1,90,0,1
60113,-100,4,2,17,80,0,1
60178,-100,4,2,1,80,0,1
60374,-100,4,2,1,90,0,1
60635,-100,4,2,16,80,0,1
60700,-100,4,2,1,80,0,1
60896,-100,4,2,1,90,0,1
61157,-100,4,2,14,80,0,1
61222,-100,4,2,1,80,0,1
61678,-100,4,2,15,80,0,1
61743,-100,4,2,1,80,0,1
69896,-100,4,2,1,80,0,0
70026,-100,4,2,1,80,0,1
76548,-100,4,2,1,90,0,1
76809,-100,4,2,17,80,0,1
76874,-100,4,2,1,80,0,1
77070,-100,4,2,1,90,0,1
77330,-100,4,2,16,80,0,1
77396,-100,4,2,1,80,0,1
77591,-100,4,2,1,90,0,1
77852,-100,4,2,14,80,0,1
77917,-100,4,2,1,80,0,1
78374,-100,4,2,15,80,0,1
78439,-100,4,2,1,80,0,1
81504,-100,4,2,1,80,0,1
82026,-100,4,2,1,80,0,1
83591,-100,4,2,1,60,0,0
84113,-50,4,2,1,40,0,0
84200,-50,4,2,1,45,0,0
84287,-50,4,2,1,50,0,0
84374,-50,4,2,1,55,0,0
84461,-50,4,2,1,60,0,0
84548,-50,4,2,1,65,0,0
84635,-100,4,2,1,70,0,0
84896,-100,4,2,1,90,0,0
84961,-100,4,2,1,80,0,0
85417,-100,4,2,1,90,0,0
85483,-100,4,2,1,80,0,0
85939,-100,4,2,12,80,0,0
86004,-100,4,2,1,80,0,0
86200,-100,4,2,11,80,0,0
86265,-100,4,2,1,80,0,0
86461,-100,4,2,10,80,0,0
86526,-100,4,2,1,80,0,0
86722,-100,4,2,11,80,0,0
86787,-100,4,2,1,80,0,0
87113,-100,4,2,12,80,0,0
87178,-100,4,2,1,80,0,0
87504,-100,4,2,13,80,0,0
87570,-100,4,2,1,80,0,0
87765,-100,4,2,12,80,0,0
87830,-100,4,2,1,80,0,0
88287,-100,4,2,10,80,0,0
88352,-100,4,2,1,80,0,0
88809,-100,4,2,14,80,0,0
88874,-100,4,2,1,80,0,0
89070,-100,4,2,14,80,0,0
89265,-100,4,2,1,80,0,0
89461,-100,4,2,14,80,0,0
89917,-100,4,2,1,80,0,0
90113,-100,4,2,13,80,0,0
90178,-100,4,2,1,80,0,0
90374,-100,4,2,12,80,0,0
90439,-100,4,2,1,80,0,0
90635,-100,4,2,15,80,0,0
90700,-100,4,2,1,80,0,0
90896,-100,4,2,14,80,0,0
90961,-100,4,2,1,80,0,0
91678,-100,4,2,12,80,0,0
91743,-100,4,2,1,80,0,0
91939,-100,4,2,11,80,0,0
92004,-100,4,2,1,80,0,0
92461,-100,4,2,10,80,0,0
92526,-100,4,2,1,80,0,0
92983,-100,4,2,14,80,0,0
93048,-100,4,2,1,80,0,0
93243,-100,4,2,14,80,0,0
93439,-100,4,2,1,80,0,0
93635,-100,4,2,14,80,0,0
93830,-100,4,2,1,80,0,0
94026,-100,4,2,14,80,0,0
94091,-100,4,2,1,80,0,0
94287,-100,4,2,12,80,0,0
94352,-100,4,2,1,80,0,0
94548,-100,4,2,11,80,0,0
94613,-100,4,2,1,80,0,0
94809,-100,4,2,10,80,0,0
94874,-100,4,2,1,80,0,0
95070,-100,4,2,11,80,0,0
95135,-100,4,2,1,80,0,0
95461,-100,4,2,12,80,0,0
95526,-100,4,2,1,80,0,0
95852,-100,4,2,13,80,0,0
95917,-100,4,2,1,80,0,0
96113,-100,4,2,12,80,0,0
96178,-100,4,2,1,80,0,0
96635,-100,4,2,11,80,0,0
96700,-100,4,2,1,80,0,0
97157,-100,4,2,10,80,0,0
97222,-100,4,2,1,80,0,0
98722,-100,4,2,12,80,0,0
98787,-100,4,2,1,80,0,0
99243,-100,4,2,11,80,0,0
99309,-100,4,2,1,80,0,0
100287,-100,4,2,14,80,0,0
100352,-100,4,2,1,80,0,0
100417,-100,4,2,1,60,0,0
101330,-100,4,2,10,80,0,0
102504,-100,4,2,1,60,0,0
103417,-100,4,2,10,80,0,0
107591,-100,4,2,1,10,0,0

[Colours]
Combo1 : 130,165,255
Combo2 : 225,35,65
Combo3 : 70,110,240
Combo4 : 230,80,65

[HitObjects]
295,91,1157,6,0,B|231:109|231:109|189:88|189:88|124:103,1,179.999994506836,4|0,1:2|1:0,0:0:0:0:
103,133,1809,2,0,L|119:222,1,89.9999972534181,8|0,1:2|1:0,0:0:0:0:
149,242,2200,2,0,L|192:228,2,44.999998626709,8|8|0,1:2|1:3|0:0,0:0:0:0:
42,311,2722,2,0,L|-1:297,2,44.999998626709,8|8|4,1:2|1:3|1:3,0:0:0:0:
160,361,3243,6,0,B|225:345|225:345|266:366|266:366|330:348,1,179.999994506836,4|0,1:2|1:0,0:0:0:0:
365,361,3896,2,0,L|369:269,1,89.9999972534181,8|0,1:2|1:0,0:0:0:0:
350,239,4287,2,0,L|394:230,2,44.999998626709,8|8|0,1:2|1:3|0:0,0:0:0:0:
231,193,4809,2,0,L|186:184,2,44.999998626709,8|8|4,1:2|1:3|1:3,0:0:0:0:
327,112,5330,6,0,P|325:67|306:27,1,89.9999972534181,4|0,1:2|1:0,0:0:0:0:
181,18,5852,2,0,P|161:58|160:102,1,89.9999972534181,0|0,1:0|1:0,0:0:0:0:
230,208,6374,1,4,1:2:0:0:
151,306,6635,1,0,1:0:0:0:
32,262,6896,1,0,1:0:0:0:
37,135,7157,1,0,1:0:0:0:
160,102,7417,5,0,1:0:0:0:
230,208,7678,1,0,1:0:0:0:
336,138,7939,1,0,1:0:0:0:
406,244,8200,1,0,1:0:0:0:
512,174,8461,1,8,1:2:0:0:
512,174,8591,1,0,1:2:0:0:
331,167,8983,6,0,L|336:138,5,29.9999990844727,0|0|0|0|0|0,3:0|3:0|3:0|3:0|0:0|0:0,0:0:0:0:
339,100,9504,6,0,P|290:108|247:84,1,100,6|10,1:2|0:0,0:0:0:0:
220,107,9896,2,0,P|171:99|128:123,1,100,2|2,0:0|1:2,0:0:0:0:
119,156,10287,1,10,0:0:0:0:
0,103,10548,1,2,1:2:0:0:
13,232,10809,1,10,0:0:0:0:
131,285,11070,1,2,0:0:0:0:
236,209,11330,1,10,0:0:0:0:
222,80,11591,6,0,P|259:47|308:46,1,100,2|8,1:2|0:0,0:0:0:0:
335,24,11983,2,0,P|371:56|420:57,1,100,2|0,0:0|1:0,0:0:0:0:
446,33,12374,1,10,0:0:0:0:
512,144,12635,2,0,L|501:245,1,100,2|8,1:2|0:0,0:0:0:0:
477,270,13026,1,0,1:2:0:0:
477,270,13157,2,0,L|374:235,1,100,2|8,0:0|0:0,0:0:0:0:
269,174,13678,6,0,P|239:211|243:260,1,100,6|8,1:2|0:0,0:0:0:0:
214,280,14070,2,0,P|165:284|127:253,1,100,0|0,0:0|1:0,0:0:0:0:
119,219,14461,1,8,0:0:0:0:
181,106,14722,2,0,L|286:120,1,100,0|8,1:0|0:0,0:0:0:0:
305,144,15113,1,0,1:0:0:0:
305,144,15243,2,0,L|357:57,1,100,2|8,0:0|0:0,0:0:0:0:
478,111,15765,6,0,P|522:167|500:236,1,150,2|0,1:2|3:0,0:0:0:0:
474,261,16287,2,0,L|425:252,1,50,0|8,3:0|1:3,0:0:0:0:
397,274,16548,2,0,L|348:265,1,50,4|4,3:0|3:0,0:0:0:0:
317,281,16809,1,4,1:2:0:0:
481,362,17852,6,0,P|488:272|498:182,1,179.999994506836,6|0,1:2|1:2,0:0:0:0:
424,80,18635,1,2,0:2:0:0:
342,174,18896,2,0,P|253:157|165:140,1,179.999994506836,2|0,1:2|1:2,0:0:0:0:
62,68,19678,1,2,0:2:0:0:
29,189,19939,6,0,L|47:277,1,89.9999972534181,2|2,1:2|0:2,0:0:0:0:
165,321,20461,2,0,L|193:182,1,134.999995880127,2|2,1:2|0:2,0:0:0:0:
203,154,20983,2,0,P|285:126|354:177,1,179.999994506836,0|2,1:2|1:2,0:0:0:0:
412,289,21765,1,2,0:2:0:0:
285,290,22026,6,0,L|105:306,1,179.999994506836,2|0,1:2|1:2,0:0:0:0:
25,210,22809,1,2,0:2:0:0:
135,150,23070,2,0,P|157:112|155:68,1,89.9999972534181,2|2,1:2|0:2,0:0:0:0:
281,45,23591,2,0,P|264:109|294:171,1,134.999995880127,2|2,1:2|0:2,0:0:0:0:
325,184,24113,2,0,P|361:158|405:155,1,89.9999972534181,0|0,1:2|0:2,0:0:0:0:
450,275,24635,2,0,P|413:300|369:303,1,89.9999972534181,0|0,1:2|0:2,0:0:0:0:
325,184,25157,5,0,1:2:0:0:
325,184,25417,2,0,B|277:152|227:181|227:181|185:204|135:174,1,200,4|4,1:2|1:3,0:0:0:0:
13,222,26200,6,0,P|-8:314|70:364,1,200,6|0,1:2|0:2,0:0:0:0:
152,267,26983,1,10,0:2:0:0:
239,360,27243,2,0,P|287:351|321:315,1,100,2|8,1:2|0:2,0:0:0:0:
335,283,27635,2,0,P|366:321|414:332,1,100,0|0,1:2|1:2,0:0:0:0:
448,323,28026,1,10,0:2:0:0:
474,196,28287,6,0,L|490:97,1,100,2|10,1:2|0:0,0:0:0:0:
369,45,28809,2,0,L|353:143,1,100,2|10,0:0|0:0,0:0:0:0:
329,170,29200,1,2,0:2:0:0:
328,170,29330,2,0,P|279:171|243:138,1,100,0|8,1:2|0:2,0:0:0:0:
209,140,29722,1,0,1:2:0:0:
209,140,29852,2,0,P|167:166|156:213,1,100,2|8,0:2|0:2,0:0:0:0:
190,341,30374,6,0,L|303:315,1,100,2|10,1:2|0:2,0:0:0:0:
328,195,30896,1,2,0:2:0:0:
414,291,31157,1,10,0:2:0:0:
454,167,31417,2,0,L|430:53,1,100,2|8,1:2|0:2,0:0:0:0:
320,5,31939,1,2,0:2:0:0:
321,135,32200,1,10,0:2:0:0:
207,70,32461,6,0,L|108:86,1,100,2|8,1:2|0:2,0:0:0:0:
108,86,32852,1,0,0:2:0:0:
108,86,32983,1,0,0:2:0:0:
194,184,33243,1,4,0:0:0:0:
88,255,33504,2,0,P|76:293|114:349,1,100,0|0,3:0|3:0,0:0:0:0:
135,359,33896,1,0,3:0:0:0:
135,359,34026,2,0,L|183:346,1,50,8|8,3:0|3:0,0:0:0:0:
209,369,34287,2,0,L|257:356,1,50,4|4,3:0|3:0,0:0:0:0:
292,346,34548,6,0,P|319:305|284:223,1,134.999995880127,6|0,1:2|1:0,0:0:0:0:
266,205,35070,2,0,L|370:193,1,89.9999972534181,2|0,0:0|0:0,0:0:0:0:
454,119,35591,1,2,1:2:0:0:
378,21,35852,1,2,1:2:0:0:
279,96,36113,1,10,0:0:0:0:
279,96,36243,2,0,L|189:86,1,89.9999972534181,2|0,1:2|0:0,0:0:0:0:
154,80,36635,6,0,P|172:151|119:194,1,134.999995880127,2|0,1:2|1:0,0:0:0:0:
98,192,37157,2,0,L|118:300,1,89.9999972534181,2|0,0:0|0:0,0:0:0:0:
228,333,37678,1,2,1:2:0:0:
313,241,37939,1,2,1:2:0:0:
251,131,38200,2,0,L|254:86,1,44.999998626709,8|8,3:0|3:0,0:0:0:0:
287,69,38461,2,0,L|290:24,1,44.999998626709,4|4,3:0|3:0,0:0:0:0:
318,0,38722,5,2,1:2:0:0:
379,146,39113,2,0,L|547:122,1,134.999995880127,0|2,1:0|0:0,0:0:0:0:
512,252,39765,2,0,L|422:264,1,89.9999972534181,2|0,1:2|1:0,0:0:0:0:
298,280,40287,1,10,0:0:0:0:
298,280,40417,2,0,P|287:322|306:362,1,89.9999972534181,2|0,1:2|0:0,0:0:0:0:
276,384,40809,6,0,L|141:368,1,134.999995880127,2|0,1:2|1:0,0:0:0:0:
108,380,41330,2,0,L|125:274,1,89.9999972534181,2|0,0:0|0:0,0:0:0:0:
227,221,41852,1,2,1:2:0:0:
110,172,42113,1,6,1:2:0:0:
220,86,42374,2,0,L|269:91,1,50,8|8,0:2|0:2,0:0:0:0:
297,61,42635,2,0,L|346:66,1,50,8|8,0:2|0:2,0:0:0:0:
377,46,42896,6,0,P|428:123|371:198,1,200,6|0,1:2|0:0,0:0:0:0:
238,226,43678,1,10,0:0:0:0:
328,322,43939,2,0,L|404:314,1,50,2|0,1:2|0:0,0:0:0:0:
408,314,44200,1,8,0:0:0:0:
405,185,44461,2,0,L|329:177,1,50,2|0,0:0|1:0,0:0:0:0:
325,177,44722,1,10,0:0:0:0:
240,81,44983,6,0,L|254:23,2,50,2|2|10,1:2|0:2|0:2,0:0:0:0:
128,143,45504,1,2,0:2:0:0:
128,143,45635,2,0,P|138:194|142:241,1,100,2|2,1:2|0:0,0:0:0:0:
127,273,46026,5,0,1:0:0:0:
248,223,46287,1,12,0:0:0:0:
285,347,46548,1,10,1:2:0:0:
285,347,46678,1,2,1:2:0:0:
248,223,46939,6,0,L|267:84,1,100,6|0,1:2|1:2,0:0:0:0:
239,98,47330,1,8,0:0:0:0:
342,21,47591,1,0,0:0:0:0:
391,139,47852,2,0,P|441:143|487:125,1,100,8|0,0:0|1:0,0:0:0:0:
512,252,48374,2,0,P|462:249|416:267,1,100,10|2,0:0|0:0,0:0:0:0:
396,298,48765,2,0,P|349:279|300:283,1,100,2|2,1:2|0:0,0:0:0:0:
275,309,49157,6,0,P|208:239|247:148,1,200,2|0,1:2|0:0,0:0:0:0:
358,96,49939,1,8,0:0:0:0:
253,21,50200,2,0,L|152:36,1,100,2|0,1:2|3:0,0:0:0:0:
46,106,50722,2,0,L|63:160,1,50,2|0,3:2|3:0,0:0:0:0:
40,184,50983,2,0,L|57:238,1,50,0|0,3:0|3:0,0:0:0:0:
89,244,51243,1,2,3:2:0:0:
89,244,52287,6,0,P|183:235|231:316,1,200,0|2,0:0|0:2,0:0:0:0:
350,368,53070,2,0,L|359:308,1,50,2|2,0:2|0:2,0:0:0:0:
377,288,53330,6,0,P|416:317|465:315,1,100,6|10,1:2|0:2,0:0:0:0:
493,186,53852,2,0,P|453:156|404:158,1,100,2|8,0:2|0:2,0:0:0:0:
284,203,54374,2,0,L|167:178,1,100,2|10,1:2|0:2,0:0:0:0:
159,205,54765,1,0,1:2:0:0:
159,205,54896,2,0,L|178:314,1,100,2|8,0:2|0:2,0:0:0:0:
67,374,55417,5,2,1:2:0:0:
0,262,55678,1,10,0:2:0:0:
0,262,55809,2,0,L|16:149,1,100,2|2,0:2|1:2,0:0:0:0:
39,137,56200,2,0,L|94:157,1,50,10|2,0:2|0:2,0:0:0:0:
120,140,56461,1,2,1:2:0:0:
175,23,56722,1,10,1:2:0:0:
299,64,56983,2,0,P|320:107|304:153,1,100,2|8,0:2|1:2,0:0:0:0:
191,221,57504,5,2,1:2:0:0:
306,277,57765,2,0,L|355:267,1,50,10|0,0:2|0:2,0:0:0:0:
390,259,58026,2,0,P|420:297|416:345,1,100,2|8,0:2|0:2,0:0:0:0:
290,384,58548,2,0,L|191:367,1,100,2|10,1:2|0:2,0:0:0:0:
158,381,58939,2,0,L|140:282,1,100,2|2,1:2|1:2,0:0:0:0:
108,265,59330,2,0,L|117:215,1,50,8|2,0:2|0:2,0:0:0:0:
98,187,59591,5,0,1:2:0:0:
222,233,59852,2,0,L|281:220,1,50,12|0,0:0|0:0,0:0:0:0:
303,214,60113,1,2,1:2:0:0:
323,342,60374,2,0,L|382:355,1,50,12|0,0:0|0:0,0:0:0:0:
404,361,60635,1,2,1:2:0:0:
489,260,60896,1,12,0:2:0:0:
419,147,61157,1,2,0:2:0:0:
290,178,61417,5,8,0:2:0:0:
290,178,61548,1,8,0:2:0:0:
290,178,61678,2,0,P|241:182|199:155,1,100,6|10,1:2|0:2,0:0:0:0:
166,147,62070,2,0,P|139:188|144:237,1,100,2|0,0:0|1:2,0:0:0:0:
167,263,62461,1,10,0:2:0:0:
106,377,62722,2,0,L|-18:361,1,100,2|8,1:2|0:2,0:0:0:0:
0,330,63113,1,0,1:2:0:0:
0,330,63243,2,0,P|34:296|36:247,1,100,2|10,0:2|0:2,0:0:0:0:
50,115,63765,6,0,L|-12:101,2,50,6|2|10,1:2|0:2|0:2,0:0:0:0:
79,95,64157,2,0,L|187:73,1,100,2|0,0:2|1:2,0:0:0:0:
207,95,64548,1,10,0:2:0:0:
159,213,64809,2,0,P|142:260|172:319,1,100,2|8,1:2|0:2,0:0:0:0:
157,305,65200,1,0,1:2:0:0:
157,305,65330,1,2,0:2:0:0:
282,269,65591,1,10,0:2:0:0:
374,362,65852,6,0,P|421:349|441:305,1,100,2|10,1:2|0:2,0:0:0:0:
450,271,66243,2,0,P|403:256|383:212,1,100,2|0,0:2|1:2,0:0:0:0:
402,181,66635,1,10,0:2:0:0:
346,65,66896,2,0,L|230:87,1,100,2|10,1:2|0:2,0:0:0:0:
230,115,67287,2,0,L|131:96,1,100,2|0,1:2|1:2,0:0:0:0:
96,90,67678,1,10,0:2:0:0:
46,209,67939,6,0,L|61:296,1,50,2|2,1:2|0:2,0:0:0:0:
63,292,68200,1,14,0:2:0:0:
63,292,68330,2,0,P|125:255|192:283,1,150,2|10,0:2|0:2,0:0:0:0:
281,380,68983,5,0,1:2:0:0:
358,276,69243,1,0,3:0:0:0:
358,276,69374,1,0,3:2:0:0:
358,276,69504,2,0,L|352:226,1,50,8|8,0:3|0:3,0:0:0:0:
380,203,69765,2,0,L|372:129,1,50,4|4,0:3|0:3,0:0:0:0:
349,128,70026,6,0,P|301:117|260:143,1,100,6|10,1:2|0:0,0:0:0:0:
228,268,70548,2,0,P|181:279|140:253,1,100,2|8,0:0|0:0,0:0:0:0:
40,170,71070,2,0,L|56:71,1,100,2|8,1:2|0:0,0:0:0:0:
64,38,71461,1,0,1:0:0:0:
63,38,71591,2,0,P|110:25|153:48,1,100,2|8,0:0|0:2,0:0:0:0:
215,164,72113,5,2,1:2:0:0:
292,59,72374,1,10,0:2:0:0:
292,59,72504,2,0,L|406:71,1,100,2|2,0:2|1:2,0:0:0:0:
400,103,72896,2,0,L|385:169,1,50,10|2,0:2|0:2,0:0:0:0:
376,185,73157,1,2,1:2:0:0:
253,148,73417,1,10,0:0:0:0:
164,244,73678,2,0,L|183:342,1,100,2|8,0:0|0:0,0:0:0:0:
308,375,74200,6,0,L|357:359,1,50,2|0,1:2|0:0,0:0:0:0:
382,384,74461,2,0,L|431:368,1,50,10|0,0:2|0:2,0:0:0:0:
463,355,74722,2,0,P|473:313|439:258,1,100,2|8,0:2|0:2,0:0:0:0:
325,217,75243,6,0,P|325:168|359:133,1,100,2|10,1:2|0:2,0:0:0:0:
377,101,75635,2,0,P|342:66|294:64,1,100,2|2,1:2|1:2,0:0:0:0:
264,82,76026,2,0,L|204:72,1,50,8|2,0:2|0:2,0:0:0:0:
173,67,76287,5,0,1:2:0:0:
224,189,76548,2,0,L|214:249,1,50,12|0,0:0|0:0,0:0:0:0:
210,272,76809,1,2,1:2:0:0:
338,293,77070,2,0,L|348:353,1,50,12|0,0:0|0:0,0:0:0:0:
352,376,77331,1,2,1:2:0:0:
456,298,77591,1,12,0:0:0:0:
413,174,77852,1,2,0:2:0:0:
283,175,78113,5,8,0:2:0:0:
283,175,78243,1,8,0:2:0:0:
283,175,78374,2,0,B|216:165|216:165|155:195|155:195|89:184,1,200,6|0,1:2|0:0,0:0:0:0:
31,70,79157,1,10,0:0:0:0:
140,3,79417,2,0,P|177:36|226:32,1,100,2|8,1:2|0:0,0:0:0:0:
256,53,79809,1,0,1:0:0:0:
256,53,79939,2,0,P|292:20|341:24,1,100,2|8,0:0|0:0,0:0:0:0:
462,70,80461,6,0,L|444:168,1,100,6|2,1:2|1:2,0:0:0:0:
336,242,80983,2,0,L|318:143,1,100,4|2,1:2|1:2,0:0:0:0:
210,70,81504,2,0,P|149:118|164:193,1,150,4|0,1:2|1:0,0:0:0:0:
188,202,82026,1,2,0:0:0:0:
134,319,82287,5,10,0:0:0:0:
134,319,82417,1,8,0:0:0:0:
134,319,82548,2,0,L|34:303,1,100,6|8,1:2|0:0,0:0:0:0:
2,174,83070,1,4,3:0:0:0:
2,174,83200,2,0,L|99:147,1,100,8|8,3:0|3:0,0:0:0:0:
132,138,83591,1,4,1:3:0:0:
321,268,84113,6,0,L|316:308,12,33.3333333333333,0|0|0|0|0|0|0|0|0|0|0|0|8,3:0|0:0|3:0|0:0|3:0|0:0|3:0|0:0|3:0|0:0|3:0|0:0|1:3,0:0:0:0:
262,152,84896,6,0,L|164:166,1,100,4|0,1:2|3:0,0:0:0:0:
141,37,85417,2,0,L|239:22,1,100,4|0,1:2|1:2,0:0:0:0:
239,21,85809,1,0,1:0:0:0:
239,21,85939,1,10,0:0:0:0:
359,68,86200,1,2,0:0:0:0:
262,152,86461,1,10,0:0:0:0:
382,202,86722,6,0,P|421:171|470:171,1,100,6|8,1:2|0:0,0:0:0:0:
499,192,87113,2,0,P|468:229|477:277,1,100,2|0,1:2|1:0,0:0:0:0:
500,304,87504,1,10,0:0:0:0:
395,378,87765,1,2,1:2:0:0:
318,277,88026,2,0,L|260:289,1,50,8|0,0:0|1:0,0:0:0:0:
235,295,88287,2,0,P|207:254|215:206,1,100,2|8,0:0|0:0,0:0:0:0:
331,146,88809,6,0,L|445:168,1,100,6|10,1:2|0:0,0:0:0:0:
463,173,89200,2,0,P|490:132|482:84,1,100,2|2,0:0|1:2,0:0:0:0:
462,55,89591,1,10,0:2:0:0:
341,7,89852,1,2,1:2:0:0:
293,128,90113,1,10,0:0:0:0:
414,176,90374,1,2,0:0:0:0:
366,297,90635,1,10,0:0:0:0:
244,249,90896,6,0,P|144:264|46:273,1,200,2|0,1:2|0:0,0:0:0:0:
82,147,91678,1,10,0:0:0:0:
210,172,91939,2,0,P|258:166|293:131,1,100,2|8,1:2|0:0,0:0:0:0:
325,150,92330,1,0,1:0:0:0:
325,150,92461,2,0,P|373:142|415:167,1,100,2|8,0:0|0:0,0:0:0:0:
426,294,92983,6,0,P|383:319|335:311,1,100,6|10,1:2|0:2,0:0:0:0:
304,329,93374,2,0,P|261:304|213:312,1,100,2|2,0:2|1:2,0:0:0:0:
184,333,93765,1,10,0:2:0:0:
94,239,94026,1,2,1:2:0:0:
155,124,94287,1,10,0:0:0:0:
283,147,94548,1,2,0:0:0:0:
344,32,94809,1,10,0:0:0:0:
472,55,95070,6,0,L|461:161,1,100,2|8,1:2|0:0,0:0:0:0:
455,188,95461,2,0,P|426:202|351:170,1,100,2|0,0:0|1:0,0:0:0:0:
341,157,95852,1,10,0:0:0:0:
239,240,96113,2,0,P|227:287|248:331,1,100,2|8,1:2|0:0,0:0:0:0:
276,353,96504,1,0,1:2:0:0:
276,353,96635,2,0,P|313:321|362:321,1,100,2|8,0:0|0:0,0:0:0:0:
485,370,97157,6,0,L|491:250,1,100,6|8,1:2|0:0,0:0:0:0:
512,243,97548,1,0,0:0:0:0:
409,165,97809,1,0,1:0:0:0:
409,165,97939,2,0,L|344:180,1,50,8|0,0:0|0:0,0:0:0:0:
328,162,98200,2,0,P|292:194|290:243,1,100,0|8,1:0|0:0,0:0:0:0:
261,264,98591,1,0,1:0:0:0:
261,264,98722,2,0,P|212:253|187:211,1,100,2|8,0:0|0:0,0:0:0:0:
245,96,99243,5,2,1:2:0:0:
140,19,99504,2,0,L|11:38,1,100,12|0,0:0|0:0,0:0:0:0:
39,164,100026,1,12,0:0:0:0:
76,288,100287,2,0,L|191:271,1,100,2|0,1:2|3:0,0:0:0:0:
195,245,100678,1,0,3:0:0:0:
195,245,100809,2,0,L|186:195,1,50,8|8,3:0|3:0,0:0:0:0:
210,170,101070,2,0,L|201:120,1,50,4|4,3:0|3:0,0:0:0:0:
225,96,101330,5,2,1:2:0:0:
395,193,101722,1,2,1:2:0:0:
225,286,102113,1,2,1:2:0:0:
394,193,102504,6,0,P|425:124|367:65,1,150,0|8,3:0|3:0,0:0:0:0:
352,56,103026,1,8,3:0:0:0:
352,56,103157,2,0,L|303:63,1,50,4|4,3:0|3:0,0:0:0:0:
268,68,103417,5,6,1:2:0:0:
256,192,103548,12,0,107591,0:0:0:0:
