osu file format v14

[General]
AudioFilename: audio.mp3
AudioLeadIn: 0
PreviewTime: 52668
Countdown: 0
SampleSet: Soft
StackLeniency: 0.4
Mode: 0
LetterboxInBreaks: 0
WidescreenStoryboard: 1

[Editor]
DistanceSpacing: 1
BeatDivisor: 8
GridSize: 4
TimelineZoom: 2.1

[Metadata]
Title:MELODY
TitleUnicode:MELODY
Artist:Yuki Setsuna (CV: Kusunoki Tomori)
ArtistUnicode:優木せつ菜 (CV: 楠木ともり)
Creator:Doormat
Version:Expert
Source:ラブライブ!虹ヶ咲学園スクールアイドル同好会
Tags:love live! nijigasaki high school idol club gakuen doukoukai doukou kai nijigaku ニジガク nakagawa nana 中川菜々 llas sifas スクスタ festival all stars スクールアイドルフェスティバル perfect dream project pdp love u my friends Suzuki Ereka 鈴木エレカ Suzuki Manaka 鈴木まなか Hiroki Sagawa Saito Ryosuke サイトウ リョースケ anime video game japanese pop
BeatmapID:3125095
BeatmapSetID:1321136

[Difficulty]
HPDrainRate:6
CircleSize:4
OverallDifficulty:8.5
ApproachRate:9.2
SliderMultiplier:3
SliderTickRate:1

[Events]
//Background and Video events
0,0,"setsuna.jpg",0,0
//Break Periods
//Storyboard Layer 0 (Background)
//Storyboard Layer 1 (Fail)
//Storyboard Layer 2 (Pass)
//Storyboard Layer 3 (Foreground)
//Storyboard Layer 4 (Overlay)
//Storyboard Sound Samples

[TimingPoints]
1157,521.739130434783,4,2,1,40,1,0
1157,-133.333333333333,4,2,1,40,0,0
5330,-100,4,2,1,50,0,0
6374,-100,4,2,1,60,0,0
7417,-83.3333333333333,4,2,1,70,0,0
8461,-100,4,2,1,80,0,0
8983,-100,4,2,1,80,0,0
9504,-100,4,2,14,80,0,0
9570,-100,4,2,1,80,0,0
9765,-100,4,2,14,80,0,0
9961,-100,4,2,1,80,0,0
10157,-100,4,2,14,80,0,0
10352,-100,4,2,1,80,0,0
10548,-100,4,2,14,80,0,0
10613,-100,4,2,1,80,0,0
10809,-100,4,2,12,80,0,0
10874,-100,4,2,1,80,0,0
11070,-100,4,2,11,80,0,0
11135,-100,4,2,1,80,0,0
11330,-100,4,2,10,80,0,0
11396,-100,4,2,1,80,0,0
11591,-100,4,2,11,80,0,0
11657,-100,4,2,1,80,0,0
11983,-100,4,2,12,80,0,0
12048,-100,4,2,1,80,0,0
12374,-100,4,2,13,80,0,0
12439,-100,4,2,1,80,0,0
12635,-100,4,2,12,80,0,0
12700,-100,4,2,1,80,0,0
13157,-100,4,2,11,80,0,0
13222,-100,4,2,1,80,0,0
13678,-100,4,2,10,80,0,0
13743,-100,4,2,1,80,0,0
15243,-100,4,2,12,80,0,0
15309,-100,4,2,1,80,0,0
15765,-100,4,2,11,80,0,0
15830,-100,4,2,1,80,0,0
17852,-200,4,2,1,50,0,0
25157,-133.333333333333,4,2,1,70,0,0
26200,-100,4,2,1,60,0,0
34548,-166.666666666667,4,2,1,50,0,0
42113,-100,4,2,1,70,0,0
42374,-100,4,2,1,80,0,0
42896,-100,4,2,1,70,0,0
46548,-100,4,2,1,80,0,0
46939,-100,4,2,1,70,0,0
49157,-100,4,2,14,70,0,0
49222,-100,4,2,1,70,0,0
50200,-100,4,2,14,70,0,0
50265,-100,4,2,1,70,0,0
50722,-100,4,2,15,70,0,0
50787,-100,4,2,1,70,0,0
51243,-100,4,2,16,70,0,0
52287,-100,4,2,1,40,0,0
52809,-100,4,2,1,60,0,0
53330,-90.9090909090909,4,2,1,80,0,1
59852,-76.9230769230769,4,2,1,90,0,1
60113,-90.9090909090909,4,2,17,80,0,1
60178,-90.9090909090909,4,2,1,80,0,1
60374,-76.9230769230769,4,2,1,90,0,1
60635,-90.9090909090909,4,2,16,80,0,1
60700,-90.9090909090909,4,2,1,80,0,1
60896,-90.9090909090909,4,2,1,90,0,1
61157,-90.9090909090909,4,2,14,80,0,1
61222,-90.9090909090909,4,2,1,80,0,1
61678,-90.9090909090909,4,2,15,80,0,1
61743,-90.9090909090909,4,2,1,80,0,1
69896,-90.9090909090909,4,2,1,80,0,0
70026,-90.9090909090909,4,2,1,80,0,1
76548,-76.9230769230769,4,2,1,90,0,1
76809,-90.9090909090909,4,2,17,80,0,1
76874,-90.9090909090909,4,2,1,80,0,1
77070,-76.9230769230769,4,2,1,90,0,1
77330,-90.9090909090909,4,2,16,80,0,1
77396,-90.9090909090909,4,2,1,80,0,1
77591,-90.9090909090909,4,2,1,90,0,1
77852,-90.9090909090909,4,2,14,80,0,1
77917,-90.9090909090909,4,2,1,80,0,1
78374,-90.9090909090909,4,2,15,80,0,1
78439,-90.9090909090909,4,2,1,80,0,1
81504,-125,4,2,1,80,0,1
82026,-90.9090909090909,4,2,1,80,0,1
83591,-100,4,2,1,60,0,0
84113,-100,4,2,1,40,0,0
84200,-100,4,2,1,45,0,0
84287,-100,4,2,1,50,0,0
84374,-100,4,2,1,55,0,0
84461,-100,4,2,1,60,0,0
84548,-100,4,2,1,65,0,0
84635,-100,4,2,1,70,0,0
84896,-100,4,2,1,90,0,0
84961,-100,4,2,1,80,0,0
85417,-100,4,2,1,90,0,0
85483,-100,4,2,1,80,0,0
85939,-100,4,2,12,80,0,0
86004,-100,4,2,1,80,0,0
86200,-100,4,2,11,80,0,0
86265,-100,4,2,1,80,0,0
86461,-100,4,2,10,80,0,0
86526,-100,4,2,1,80,0,0
86722,-100,4,2,11,80,0,0
86787,-100,4,2,1,80,0,0
87113,-100,4,2,12,80,0,0
87178,-100,4,2,1,80,0,0
87504,-100,4,2,13,80,0,0
87570,-100,4,2,1,80,0,0
87765,-100,4,2,12,80,0,0
87830,-100,4,2,1,80,0,0
88287,-100,4,2,10,80,0,0
88352,-100,4,2,1,80,0,0
88809,-100,4,2,14,80,0,0
88874,-100,4,2,1,80,0,0
89070,-100,4,2,14,80,0,0
89265,-100,4,2,1,80,0,0
89461,-100,4,2,14,80,0,0
89917,-100,4,2,1,80,0,0
90113,-100,4,2,13,80,0,0
90178,-100,4,2,1,80,0,0
90374,-100,4,2,12,80,0,0
90439,-100,4,2,1,80,0,0
90635,-100,4,2,15,80,0,0
90700,-100,4,2,1,80,0,0
90896,-100,4,2,14,80,0,0
90961,-100,4,2,1,80,0,0
91678,-100,4,2,12,80,0,0
91743,-100,4,2,1,80,0,0
91939,-100,4,2,11,80,0,0
92004,-100,4,2,1,80,0,0
92461,-100,4,2,10,80,0,0
92526,-100,4,2,1,80,0,0
92983,-100,4,2,14,80,0,0
93048,-100,4,2,1,80,0,0
93243,-100,4,2,14,80,0,0
93439,-100,4,2,1,80,0,0
93635,-100,4,2,14,80,0,0
93830,-100,4,2,1,80,0,0
94026,-100,4,2,14,80,0,0
94091,-100,4,2,1,80,0,0
94287,-100,4,2,12,80,0,0
94352,-100,4,2,1,80,0,0
94548,-100,4,2,11,80,0,0
94613,-100,4,2,1,80,0,0
94809,-100,4,2,10,80,0,0
94874,-100,4,2,1,80,0,0
95070,-100,4,2,11,80,0,0
95135,-100,4,2,1,80,0,0
95461,-100,4,2,12,80,0,0
95526,-100,4,2,1,80,0,0
95852,-100,4,2,13,80,0,0
95917,-100,4,2,1,80,0,0
96113,-100,4,2,12,80,0,0
96178,-100,4,2,1,80,0,0
96635,-100,4,2,11,80,0,0
96700,-100,4,2,1,80,0,0
97157,-100,4,2,10,80,0,0
97222,-100,4,2,1,80,0,0
98722,-100,4,2,12,80,0,0
98787,-100,4,2,1,80,0,0
99243,-100,4,2,11,80,0,0
99309,-100,4,2,1,80,0,0
100287,-100,4,2,14,80,0,0
100352,-100,4,2,1,80,0,0
100417,-100,4,2,1,60,0,0
101330,-100,4,2,10,80,0,0
102504,-133.333333333333,4,2,1,60,0,0
103417,-100,4,2,10,80,0,0
107591,-100,4,2,1,10,0,0

[Colours]
Combo1 : 130,165,255
Combo2 : 225,35,65
Combo3 : 70,110,240
Combo4 : 230,80,65

[HitObjects]
144,138,1157,5,4,1:2:0:0:
207,283,1417,2,0,L|318:269,1,112.500004291535,8|0,1:2|1:0,0:0:0:0:
371,355,1809,2,0,L|260:369,1,112.500004291535,8|0,1:2|1:0,0:0:0:0:
207,283,2200,5,8,1:2:0:0:
293,235,2330,2,0,P|311:198|273:117,1,112.500004291535,8|0,1:3|0:0,0:0:0:0:
196,109,2722,5,8,1:2:0:0:
196,109,2852,1,8,1:3:0:0:
292,49,2983,2,0,L|361:58,1,56.2500021457673,4|0,1:3|0:0,0:0:0:0:
446,72,3243,5,4,1:2:0:0:
343,194,3504,2,0,L|364:304,1,112.500004291535,8|0,1:2|1:0,0:0:0:0:
283,362,3896,2,0,L|261:251,1,112.500004291535,8|0,1:2|1:0,0:0:0:0:
343,194,4287,5,8,1:2:0:0:
274,125,4417,2,0,P|239:112|169:162,1,112.500004291535,8|0,1:3|0:0,0:0:0:0:
158,242,4809,5,8,1:2:0:0:
158,242,4939,1,8,1:3:0:0:
85,155,5070,2,0,L|94:86,1,56.2500021457673,4|0,1:3|0:0,0:0:0:0:
108,1,5330,5,4,1:2:0:0:
341,71,5591,1,0,1:0:0:0:
271,304,5852,1,0,1:0:0:0:
38,234,6113,1,0,1:0:0:0:
108,1,6374,6,0,L|182:12,1,75,4|0,1:2|0:0,0:0:0:0:
302,1,6635,2,0,L|314:75,1,75,0|0,1:0|0:0,0:0:0:0:
361,185,6896,2,0,L|294:219,1,75,0|0,1:0|0:0,0:0:0:0:
204,299,7157,2,0,L|150:246,1,75,0|0,1:0|0:0,0:0:0:0:
47,183,7417,6,0,P|67:144|68:99,1,89.9999972534181,0|0,1:0|0:0,0:0:0:0:
167,27,7678,2,0,P|206:47|251:48,1,89.9999972534181,0|0,1:0|0:0,0:0:0:0:
323,146,7939,2,0,P|302:185|301:230,1,89.9999972534181,0|0,1:0|0:0,0:0:0:0:
204,302,8200,2,0,P|164:281|119:280,1,89.9999972534181,0|0,1:0|0:0,0:0:0:0:
29,359,8461,5,8,1:2:0:0:
47,183,8591,1,0,1:2:0:0:
47,183,8983,5,0,3:0:0:0:
71,178,9070,1,0,3:0:0:0:
96,174,9157,1,0,3:0:0:0:
120,169,9243,1,0,3:0:0:0:
145,165,9330,1,0,3:0:0:0:
169,160,9417,1,0,3:0:0:0:
194,156,9504,6,0,P|266:164|353:183,1,150,6|10,1:2|0:0,0:0:0:0:
437,111,9896,2,0,P|428:74|426:37,1,75,2|0,0:0|0:0,0:0:0:0:
341,179,10157,1,2,1:2:0:0:
341,179,10287,2,0,P|349:215|351:252,1,75,10|0,0:0|0:0,0:0:0:0:
485,332,10548,2,0,P|476:295|474:258,1,75,2|0,1:2|0:0,0:0:0:0:
341,179,10809,6,0,L|270:204,1,75,10|0,0:0|1:0,0:0:0:0:
264,81,11070,2,0,L|277:7,1,75,2|0,0:0|1:0,0:0:0:0:
387,63,11330,2,0,L|444:111,1,75,10|0,0:0|0:0,0:0:0:0:
383,264,11591,6,0,P|328:213|258:228,1,150,2|8,1:2|0:0,0:0:0:0:
179,130,11983,2,0,L|192:51,1,75,2|0,0:0|0:0,0:0:0:0:
47,102,12243,1,0,1:0:0:0:
47,102,12374,2,0,L|59:176,1,75,10|0,0:0|0:0,0:0:0:0:
176,35,12635,6,0,P|231:84|302:73,1,150,2|8,1:2|0:0,0:0:0:0:
392,15,13026,1,0,1:2:0:0:
481,141,13157,6,0,P|426:189|355:178,1,150,2|8,0:0|0:0,0:0:0:0:
265,120,13548,1,0,0:0:0:0:
167,237,13678,6,0,P|183:310|196:384,1,150,6|8,1:2|0:0,0:0:0:0:
318,307,14070,2,0,P|320:270|326:233,1,75,0|0,0:0|0:0,0:0:0:0:
427,180,14330,1,0,1:0:0:0:
265,120,14461,1,8,0:0:0:0:
265,120,14591,1,0,0:0:0:0:
364,67,14722,6,0,P|438:83|512:91,1,150,0|8,1:0|0:0,0:0:0:0:
427,180,15113,1,0,1:0:0:0:
265,120,15243,6,0,P|191:136|117:144,1,150,2|8,0:0|0:0,0:0:0:0:
202,233,15634,1,0,0:0:0:0:
427,180,15765,6,0,P|463:188|500:193,1,75,2|0,1:2|0:0,0:0:0:0:
485,342,16026,2,0,P|448:333|411:328,1,75,0|0,3:0|3:0,0:0:0:0:
321,235,16287,1,0,3:0:0:0:
447,219,16417,1,8,1:3:0:0:
354,133,16548,1,4,3:0:0:0:
480,117,16678,1,4,3:0:0:0:
387,31,16809,1,4,1:2:0:0:
465,32,17852,6,0,P|433:97|362:102,1,150,6|0,1:2|1:2,0:0:0:0:
282,11,18635,1,2,0:2:0:0:
212,109,18896,2,0,P|231:163|250:264,1,150,2|0,1:2|1:2,0:0:0:0:
207,366,19678,1,2,0:2:0:0:
107,298,19939,6,0,L|19:307,1,75,2|2,1:2|0:2,0:0:0:0:
64,177,20461,2,0,L|183:184,1,112.5,2|2,1:2|0:2,0:0:0:0:
176,183,20983,2,0,P|190:152|184:99,1,75,0|0,1:2|0:2,0:0:0:0:
130,7,21504,1,2,1:2:0:0:
130,7,21765,1,2,0:2:0:0:
248,31,22026,6,0,B|305:18|305:18|338:37|338:37|401:22,1,150,2|0,1:2|1:2,0:0:0:0:
502,69,22809,1,2,0:2:0:0:
442,172,23070,2,0,L|457:253,1,75,2|2,1:2|0:2,0:0:0:0:
344,290,23591,2,0,L|324:176,1,112.5,2|2,1:2|0:2,0:0:0:0:
324,179,24113,6,0,P|292:198|255:201,1,75,0|0,1:2|0:2,0:0:0:0:
220,84,24635,2,0,P|252:65|289:61,1,75,0|0,1:2|0:2,0:0:0:0:
409,101,25157,5,0,1:2:0:0:
324,179,25417,2,0,P|294:253|348:312,1,168.750006437302,4|4,1:2|1:3,0:0:0:0:
348,312,25939,1,4,1:3:0:0:
409,101,26200,6,0,P|334:95|259:86,1,150,6|8,1:2|0:2,0:0:0:0:
324,179,26591,1,0,0:2:0:0:
245,238,26722,2,0,L|171:223,1,75,0|0,0:2|1:2,0:0:0:0:
345,280,26983,2,0,L|418:265,1,75,10|0,0:2|0:2,0:0:0:0:
298,371,27243,6,0,P|237:330|167:347,1,150,2|8,1:2|0:2,0:0:0:0:
74,279,27635,1,0,1:2:0:0:
201,224,27765,1,0,0:2:0:0:
201,224,27896,1,0,1:2:0:0:
103,163,28026,2,0,L|25:173,1,75,10|0,0:2|0:2,0:0:0:0:
198,132,28287,6,0,P|254:89|248:17,1,150,2|10,1:2|0:0,0:0:0:0:
358,43,28678,1,0,0:0:0:0:
334,176,28809,2,0,L|349:249,1,75,2|0,0:0|1:0,0:0:0:0:
446,384,29070,1,10,0:0:0:0:
463,267,29200,1,2,0:2:0:0:
331,366,29330,6,0,P|257:354|182:344,1,150,0|8,1:2|0:2,0:0:0:0:
265,253,29722,1,0,1:2:0:0:
148,167,29852,6,0,P|73:179|0:188,1,150,2|8,0:2|0:2,0:0:0:0:
82,281,30244,1,0,0:0:0:0:
265,253,30374,6,0,P|311:216|293:128,1,150,2|10,1:2|0:2,0:0:0:0:
190,102,30765,1,0,0:0:0:0:
316,31,30896,2,0,L|389:45,1,75,2|0,0:2|1:0,0:0:0:0:
420,187,31157,2,0,L|346:201,1,75,10|0,0:2|0:2,0:0:0:0:
178,216,31417,6,0,P|155:284|204:336,1,150,2|8,1:2|0:2,0:0:0:0:
287,259,31809,1,0,1:2:0:0:
328,384,31939,1,2,0:2:0:0:
328,384,32070,1,0,1:2:0:0:
407,304,32200,2,0,L|394:228,1,75,10|0,0:2|0:2,0:0:0:0:
258,143,32461,6,0,L|264:54,1,75,2|0,1:2|0:2,0:0:0:0:
369,141,32722,1,8,0:2:0:0:
369,141,32852,1,0,0:2:0:0:
255,253,32983,2,0,L|181:239,1,75,0|0,0:2|1:2,0:0:0:0:
145,64,33243,6,0,L|317:42,1,150,4|0,0:0|3:0,0:0:0:0:
397,118,33635,1,0,3:0:0:0:
397,118,33765,2,0,L|388:205,1,75,0|0,3:0|3:0,0:0:0:0:
295,240,34026,1,8,3:0:0:0:
431,291,34157,1,8,3:0:0:0:
269,331,34287,1,4,3:0:0:0:
405,382,34418,1,4,3:0:0:0:
295,240,34548,6,0,P|279:204|320:118,1,134.999995880127,6|0,1:2|1:0,0:0:0:0:
315,121,35070,2,0,P|269:127|227:112,1,89.9999972534181,2|0,0:0|0:0,0:0:0:0:
137,20,35591,1,2,1:2:0:0:
44,111,35852,1,2,1:2:0:0:
135,203,36113,1,10,0:0:0:0:
135,203,36243,2,0,P|155:242|147:285,1,89.9999972534181,2|0,1:2|0:0,0:0:0:0:
146,285,36635,6,0,L|286:257,1,134.999995880127,2|0,1:2|1:0,0:0:0:0:
278,258,37157,2,0,L|376:288,1,89.9999972534181,2|0,0:0|0:0,0:0:0:0:
473,212,37678,1,2,1:2:0:0:
356,155,37939,1,2,1:2:0:0:
239,97,38200,1,8,3:0:0:0:
239,97,38330,1,8,3:0:0:0:
239,97,38461,2,0,L|175:113,1,44.999998626709,4|4,3:0|3:0,0:0:0:0:
122,128,38722,5,2,1:2:0:0:
253,236,39113,2,0,P|246:289|240:344,1,89.9999972534181,0|0,1:0|0:0,0:0:0:0:
248,333,39504,1,2,0:0:0:0:
362,269,39765,2,0,L|451:281,1,89.9999972534181,2|0,1:2|1:0,0:0:0:0:
462,150,40287,1,10,0:0:0:0:
462,150,40417,2,0,L|372:137,1,89.9999972534181,2|0,1:2|0:0,0:0:0:0:
372,137,40809,6,0,P|396:77|361:22,1,134.999995880127,2|0,1:2|1:0,0:0:0:0:
362,23,41330,2,0,L|272:35,1,89.9999972534181,2|0,0:0|0:0,0:0:0:0:
161,105,41852,1,2,1:2:0:0:
277,167,42113,6,0,P|271:225|265:275,1,75,6|0,1:2|0:0,0:0:0:0:
160,293,42374,5,8,0:2:0:0:
296,250,42505,1,8,0:2:0:0:
186,384,42635,1,8,0:2:0:0:
322,341,42766,1,8,0:2:0:0:
159,293,42896,6,0,P|86:279|12:267,1,150,6|8,1:2|0:0,0:0:0:0:
30,147,43287,2,0,P|103:160|177:172,1,150,0|0,0:0|1:0,0:0:0:0:
271,94,43678,2,0,P|260:56|254:17,1,75,10|0,0:0|0:0,0:0:0:0:
461,97,43939,6,0,L|451:171,1,75,2|0,1:2|0:0,0:0:0:0:
324,259,44200,2,0,L|314:184,1,75,8|0,0:0|1:0,0:0:0:0:
187,97,44461,2,0,L|177:171,1,75,2|0,0:0|1:0,0:0:0:0:
50,259,44722,2,0,L|40:184,1,75,10|0,0:0|0:0,0:0:0:0:
114,7,44983,5,2,1:2:0:0:
202,82,45113,1,2,0:2:0:0:
93,120,45243,1,10,0:2:0:0:
181,195,45374,1,2,0:2:0:0:
72,233,45504,1,2,0:2:0:0:
160,308,45635,2,0,P|216:296|331:286,1,150,2|2,1:2|0:0,0:0:0:0:
411,172,46026,6,0,P|402:135|396:98,1,75,0|0,1:0|0:0,0:0:0:0:
308,286,46287,2,0,P|316:322|322:359,1,75,12|0,0:0|1:0,0:0:0:0:
176,266,46548,1,10,1:2:0:0:
382,159,46678,1,2,1:2:0:0:
176,265,46939,6,0,P|108:291|46:252,1,150,6|0,1:2|1:2,0:0:0:0:
57,132,47330,2,0,P|124:106|186:145,1,150,8|0,0:0|0:0,0:0:0:0:
176,265,47722,1,0,1:0:0:0:
302,159,47852,2,0,L|290:84,1,75,8|0,0:0|0:0,0:0:0:0:
456,162,48113,6,0,P|446:197|443:235,1,75,0|0,1:0|0:0,0:0:0:0:
328,344,48374,2,0,P|317:308|314:270,1,75,10|0,0:0|1:0,0:0:0:0:
199,162,48635,1,2,0:0:0:0:
199,162,48765,2,0,P|188:197|185:235,1,75,2|8,1:2|0:0,0:0:0:0:
154,55,49026,5,2,0:0:0:0:
311,130,49157,2,0,P|383:111|457:97,1,150,2|8,1:2|0:0,0:0:0:0:
455,239,49548,2,0,P|419:250|382:259,1,75,0|0,0:0|0:0,0:0:0:0:
263,348,49809,1,0,1:0:0:0:
263,348,49939,2,0,P|298:359|335:368,1,75,8|0,0:0|0:0,0:0:0:0:
144,368,50200,6,0,P|114:308|167:238,1,150,2|0,1:2|3:0,0:0:0:0:
280,217,50591,1,0,3:0:0:0:
127,143,50722,1,2,3:2:0:0:
240,311,50852,1,0,3:0:0:0:
245,109,50983,1,0,3:0:0:0:
366,270,51113,1,0,3:0:0:0:
376,70,51243,1,2,3:2:0:0:
135,100,52287,6,0,L|130:137,10,25,0|0|0|0|0|0|0|0|0|0|0,0:0|0:0|0:0|0:0|0:0|0:0|0:0|0:0|0:0|0:0|0:0,0:0:0:0:
116,150,52809,6,0,P|189:146|236:200,1,150,2|2,0:2|0:2,0:0:0:0:
142,247,53200,1,2,0:2:0:0:
313,292,53330,6,0,L|401:272,1,82.5000025177003,6|0,1:2|0:2,0:0:0:0:
506,141,53591,2,0,L|324:123,1,165.000005035401,10|2,0:2|0:2,0:0:0:0:
260,29,53983,1,0,1:2:0:0:
221,214,54113,1,8,0:2:0:0:
221,214,54243,1,2,0:2:0:0:
137,120,54374,6,0,L|147:38,1,82.5000025177003,2|0,1:2|0:2,0:0:0:0:
21,149,54635,1,10,0:2:0:0:
21,149,54765,1,0,1:2:0:0:
191,236,54896,2,0,P|230:224|270:215,1,82.5000025177003,2|0,0:2|1:2,0:0:0:0:
79,296,55157,2,0,P|39:284|0:275,1,82.5000025177003,8|0,0:2|0:2,0:0:0:0:
136,119,55417,6,0,P|177:114|208:87,1,82.5000025177003,2|0,1:2|0:2,0:0:0:0:
270,215,55678,1,10,0:2:0:0:
270,215,55809,2,0,P|310:220|341:247,1,82.5000025177003,2|0,0:2|0:2,0:0:0:0:
372,347,56070,1,2,1:2:0:0:
438,196,56200,1,10,0:2:0:0:
483,291,56330,1,2,0:2:0:0:
270,215,56461,6,0,L|274:132,1,82.5000025177003,2|0,1:2|0:2,0:0:0:0:
438,196,56722,2,0,L|442:113,1,82.5000025177003,10|0,1:2|1:2,0:0:0:0:
274,132,56983,2,0,L|278:49,1,82.5000025177003,2|0,0:2|1:2,0:0:0:0:
442,113,57243,1,8,1:2:0:0:
442,113,57504,6,0,P|404:129|363:131,1,82.5000025177003,2|0,1:2|0:2,0:0:0:0:
403,277,57765,2,0,P|440:261|481:259,1,82.5000025177003,10|0,0:2|0:2,0:0:0:0:
311,366,58026,2,0,P|261:324|149:322,1,165.000005035401,2|8,0:2|0:2,0:0:0:0:
190,183,58417,1,0,0:2:0:0:
347,209,58548,6,0,P|387:201|427:193,1,82.5000025177003,2|0,1:2|0:2,0:0:0:0:
334,92,58809,1,10,0:2:0:0:
246,248,58939,2,0,L|263:328,1,82.5000025177003,2|0,1:2|0:2,0:0:0:0:
77,257,59200,2,0,L|94:176,1,82.5000025177003,2|8,1:2|0:2,0:0:0:0:
123,39,59461,1,2,0:2:0:0:
267,145,59591,6,0,P|326:149|366:105,1,123.75000377655,0|0,1:2|0:2,0:0:0:0:
366,105,59852,2,0,P|386:149|427:176,1,97.4999955368044,12|0,0:0|0:0,0:0:0:0:
409,341,60113,6,0,P|350:337|310:381,1,123.75000377655,2|0,1:2|0:2,0:0:0:0:
310,381,60374,2,0,P|290:337|249:310,1,97.4999955368044,12|0,0:0|0:0,0:0:0:0:
139,185,60635,6,0,P|149:146|156:105,1,82.5000025177003,2|0,1:2|0:2,0:0:0:0:
326,142,60896,2,0,P|315:181|308:222,1,82.5000025177003,12|0,0:2|1:2,0:0:0:0:
483,120,61157,6,0,L|467:32,1,82.5000025177003,2|0,0:2|1:2,0:0:0:0:
326,142,61417,1,8,0:2:0:0:
512,257,61548,1,8,0:2:0:0:
356,323,61678,6,0,P|276:302|194:289,1,165.000005035401,6|10,1:2|0:2,0:0:0:0:
326,142,62070,2,0,P|407:128|487:108,1,165.000005035401,2|0,0:0|1:2,0:0:0:0:
318,9,62461,2,0,P|274:8|225:1,1,82.5000025177003,10|0,0:2|0:2,0:0:0:0:
107,197,62722,6,0,P|161:138|240:149,1,165.000005035401,2|8,1:2|0:2,0:0:0:0:
199,249,63113,1,0,1:2:0:0:
70,308,63243,2,0,L|-10:290,1,82.5000025177003,2|0,0:2|1:2,0:0:0:0:
164,371,63504,2,0,L|244:353,1,82.5000025177003,10|0,0:2|0:2,0:0:0:0:
421,231,63765,5,6,1:2:0:0:
336,295,63896,1,2,0:2:0:0:
248,233,64026,1,10,0:2:0:0:
333,169,64157,2,0,P|360:116|297:32,1,165.000005035401,2|0,0:2|1:2,0:0:0:0:
165,81,64548,2,0,L|184:161,1,82.5000025177003,10|0,0:2|0:2,0:0:0:0:
235,333,64809,6,0,P|289:312|395:285,1,165.000005035401,2|8,1:2|0:2,0:0:0:0:
316,154,65200,1,0,1:2:0:0:
232,220,65330,2,0,P|191:217|151:211,1,82.5000025177003,2|0,0:2|1:2,0:0:0:0:
392,285,65591,2,0,P|433:282|473:276,1,82.5000025177003,10|0,0:2|0:2,0:0:0:0:
501,83,65852,6,0,P|423:97|365:43,1,165.000005035401,2|10,1:2|0:2,0:0:0:0:
329,206,66243,2,0,P|407:191|465:245,1,165.000005035401,2|0,0:2|1:2,0:0:0:0:
363,380,66635,2,0,L|281:365,1,82.5000025177003,10|0,0:2|0:2,0:0:0:0:
127,207,66896,6,0,L|208:192,1,82.5000025177003,2|0,1:2|0:2,0:0:0:0:
106,93,67157,1,10,0:2:0:0:
16,223,67287,2,0,P|32:281|56:392,1,165.000005035401,2|0,1:2|1:2,0:0:0:0:
214,294,67678,2,0,P|220:240|229:200,1,82.5000025177003,10|0,0:2|0:2,0:0:0:0:
344,48,67939,5,2,1:2:0:0:
430,119,68070,1,2,0:2:0:0:
389,222,68200,1,14,0:2:0:0:
303,151,68330,2,0,P|254:140|136:124,1,165.000005035401,2|0,0:2|1:2,0:0:0:0:
65,33,68722,1,10,0:2:0:0:
20,194,68852,1,2,0:2:0:0:
199,102,68983,6,0,L|185:20,1,82.5000025177003,0|0,1:2|3:2,0:0:0:0:
363,94,69243,2,0,L|349:175,1,82.5000025177003,0|0,3:0|3:2,0:0:0:0:
232,256,69504,5,8,0:3:0:0:
395,321,69634,1,8,0:3:0:0:
224,284,69765,5,4,0:3:0:0:
387,349,69895,1,4,0:3:0:0:
383,123,70026,6,0,P|374:83|368:42,1,82.5000025177003,6|0,1:2|0:0,0:0:0:0:
232,168,70287,2,0,P|241:208|247:249,1,82.5000025177003,10|0,0:0|0:0,0:0:0:0:
68,196,70548,2,0,P|119:136|92:56,1,165.000005035401,2|8,0:0|0:0,0:0:0:0:
96,59,71070,6,0,P|156:72|268:84,1,165.000005035401,2|8,1:2|0:0,0:0:0:0:
204,220,71461,1,0,1:0:0:0:
100,172,71591,2,0,P|59:177|19:188,1,82.5000025177003,2|0,0:0|1:0,0:0:0:0:
258,83,71852,2,0,P|297:93|338:99,1,82.5000025177003,8|0,0:2|0:2,0:0:0:0:
144,48,72113,6,0,P|82:95|99:171,1,165.000005035401,2|10,1:2|0:2,0:0:0:0:
228,292,72504,2,0,P|290:244|273:168,1,165.000005035401,2|2,0:2|1:2,0:0:0:0:
164,120,72896,1,10,0:2:0:0:
316,72,73026,1,2,0:2:0:0:
208,4,73157,6,0,L|116:20,1,82.5000025177003,2|0,1:2|0:2,0:0:0:0:
316,72,73417,2,0,L|408:88,1,82.5000025177003,10|0,0:0|0:0,0:0:0:0:
208,140,73678,2,0,L|116:156,1,82.5000025177003,2|0,0:0|1:0,0:0:0:0:
316,208,73939,1,8,0:0:0:0:
316,207,74200,6,0,P|321:248|339:285,1,82.5000025177003,2|0,1:2|0:0,0:0:0:0:
172,285,74461,2,0,P|190:248|196:207,1,82.5000025177003,10|0,0:2|0:2,0:0:0:0:
48,132,74722,2,0,P|20:200|16:296,1,165.000005035401,2|8,0:2|0:2,0:0:0:0:
88,372,75113,1,0,0:2:0:0:
192,252,75243,6,0,L|288:268,1,82.5000025177003,2|0,1:2|0:2,0:0:0:0:
208,368,75504,1,10,0:2:0:0:
92,260,75635,2,0,L|106:178,1,82.5000025177003,2|0,1:2|0:2,0:0:0:0:
272,100,75896,2,0,L|286:181,1,82.5000025177003,2|8,1:2|0:2,0:0:0:0:
384,104,76157,1,2,0:2:0:0:
232,10,76287,6,0,P|175:34|115:46,1,123.75000377655,0|0,1:2|0:2,0:0:0:0:
115,46,76548,2,0,P|77:14|31:0,1,97.4999955368044,12|0,0:0|0:0,0:0:0:0:
45,249,76809,6,0,P|102:225|163:214,1,123.75000377655,2|0,1:2|0:2,0:0:0:0:
163,214,77070,2,0,P|200:244|246:260,1,97.4999955368044,12|0,0:0|0:0,0:0:0:0:
292,45,77330,6,0,L|284:127,1,82.5000025177003,2|0,1:2|0:0,0:0:0:0:
471,194,77591,2,0,L|463:111,1,82.5000025177003,12|0,0:0|1:2,0:0:0:0:
328,288,77852,6,0,P|376:300|420:328,1,82.5000025177003,2|0,0:2|1:2,0:0:0:0:
304,172,78113,1,8,0:2:0:0:
240,360,78244,1,8,0:2:0:0:
164,208,78374,6,0,P|179:126|187:44,1,165.000005035401,6|8,1:2|0:0,0:0:0:0:
348,64,78765,2,0,P|332:145|324:227,1,165.000005035401,0|0,0:0|1:0,0:0:0:0:
488,216,79157,2,0,P|504:160|508:128,1,82.5000025177003,10|0,0:0|0:0,0:0:0:0:
464,328,79417,6,0,P|388:351|327:300,1,165.000005035401,2|8,1:2|0:0,0:0:0:0:
344,172,79809,1,0,1:0:0:0:
208,264,79939,2,0,L|128:240,1,82.5000025177003,2|0,0:0|1:0,0:0:0:0:
228,104,80200,2,0,L|307:80,1,82.5000025177003,8|0,0:0|0:0,0:0:0:0:
127,7,80461,6,0,P|55:37|48:116,1,165.000005035401,6|2,1:2|1:2,0:0:0:0:
144,100,80852,1,2,0:0:0:0:
296,116,80983,6,0,P|368:145|375:224,1,165.000005035401,4|2,1:2|1:2,0:0:0:0:
280,208,81374,1,2,0:0:0:0:
128,224,81504,6,0,P|55:253|60:356,1,180,4|0,1:2|1:0,0:0:0:0:
244,364,82026,6,0,L|340:340,1,82.5000025177003,2|0,0:0|1:0,0:0:0:0:
360,220,82287,1,10,0:0:0:0:
465,373,82417,1,8,0:0:0:0:
503,239,82548,6,0,P|492:199|483:158,1,82.5000025177003,6|0,1:2|0:0,0:0:0:0:
360,220,82809,2,0,P|370:259|379:300,1,82.5000025177003,8|0,0:0|3:0,0:0:0:0:
220,240,83070,1,4,3:0:0:0:
220,240,83200,2,0,P|240:144|252:64,1,165.000005035401,8|8,3:0|3:0,0:0:0:0:
124,140,83591,1,4,1:3:0:0:
456,136,84113,6,0,L|460:160,10,25,0|0|0|0|0|0|0|0|0|0|0,3:0|0:0|3:0|0:0|3:0|0:0|3:0|0:0|3:0|0:0|3:0,0:0:0:0:
451,111,84635,6,0,P|414:109|381:124,1,75,8|0,1:3|0:0,0:0:0:0:
420,284,84896,2,0,P|457:286|490:271,1,75,4|0,1:2|0:0,0:0:0:0:
381,124,85157,5,0,3:0:0:0:
356,120,85243,1,0,3:0:0:0:
331,116,85330,1,0,3:0:0:0:
306,112,85417,2,0,P|251:159|266:228,1,150,4|0,1:2|1:2,0:0:0:0:
376,260,85809,1,0,1:0:0:0:
236,344,85939,6,0,L|159:335,1,75,10|0,0:0|1:0,0:0:0:0:
37,253,86200,2,0,L|114:244,1,75,2|0,0:0|1:0,0:0:0:0:
236,162,86461,2,0,L|159:153,1,75,10|0,0:0|0:0,0:0:0:0:
289,50,86722,6,0,P|359:63|388:129,1,150,6|8,1:2|0:0,0:0:0:0:
336,240,87113,2,0,P|265:227|236:160,1,150,2|0,1:2|1:0,0:0:0:0:
143,242,87504,2,0,P|131:322|127:338,1,75,10|0,0:0|0:0,0:0:0:0:
15,147,87765,6,0,P|86:156|133:101,1,150,2|8,1:2|0:0,0:0:0:0:
47,56,88157,1,0,1:0:0:0:
207,18,88287,6,0,P|278:10|325:64,1,150,2|8,0:0|0:0,0:0:0:0:
239,109,88679,1,0,0:0:0:0:
387,164,88809,6,0,P|436:152|536:132,1,150,6|10,1:2|0:0,0:0:0:0:
504,271,89200,2,0,P|496:308|495:346,1,75,2|0,0:0|0:0,0:0:0:0:
368,372,89461,1,2,1:2:0:0:
368,372,89591,2,0,P|367:334|359:297,1,75,10|0,0:2|0:0,0:0:0:0:
232,260,89852,2,0,P|224:296|223:334,1,75,2|0,1:2|0:0,0:0:0:0:
160,156,90113,6,0,L|233:141,1,75,10|0,0:0|1:0,0:0:0:0:
272,12,90374,2,0,L|345:26,1,75,2|0,0:0|1:0,0:0:0:0:
384,156,90635,2,0,L|457:141,1,75,10|0,0:0|0:0,0:0:0:0:
392,320,90896,6,0,P|345:264|272:266,1,150,2|8,1:2|0:0,0:0:0:0:
152,160,91287,2,0,P|224:162|271:106,1,150,0|0,0:0|1:0,0:0:0:0:
144,8,91678,2,0,L|60:28,1,75,10|0,0:0|0:0,0:0:0:0:
279,20,91939,6,0,P|354:24|428:35,1,150,2|8,1:2|0:0,0:0:0:0:
348,128,92330,1,0,1:0:0:0:
184,132,92461,6,0,P|109:136|35:147,1,150,2|8,0:0|0:0,0:0:0:0:
115,240,92852,1,0,0:0:0:0:
333,251,92983,6,0,P|376:193|347:127,1,150,6|10,1:2|0:2,0:0:0:0:
432,12,93374,2,0,P|467:25|503:34,1,75,2|0,0:2|0:0,0:0:0:0:
347,127,93635,1,2,1:2:0:0:
347,127,93765,2,0,P|311:140|275:149,1,75,10|0,0:2|0:0,0:0:0:0:
432,242,94026,2,0,P|467:255|503:264,1,75,2|0,1:2|0:0,0:0:0:0:
352,384,94287,6,0,L|337:310,1,75,10|0,0:0|1:0,0:0:0:0:
223,235,94548,2,0,L|208:309,1,75,2|0,0:0|1:0,0:0:0:0:
94,384,94809,2,0,L|79:310,1,75,10|0,0:0|0:0,0:0:0:0:
111,99,95070,6,0,P|179:74|239:115,1,150,2|8,1:2|0:0,0:0:0:0:
223,235,95461,2,0,P|156:259|96:218,1,150,2|0,0:0|1:0,0:0:0:0:
183,370,95852,2,0,L|267:350,1,75,10|0,0:0|0:0,0:0:0:0:
427,255,96113,6,0,P|398:188|327:176,1,150,2|8,1:2|0:0,0:0:0:0:
223,235,96504,1,0,1:2:0:0:
155,103,96635,6,0,P|183:36|254:24,1,150,2|8,0:0|0:0,0:0:0:0:
359,83,97026,1,0,0:0:0:0:
296,224,97157,6,0,P|236:212|132:200,1,150,6|8,1:2|0:0,0:0:0:0:
20,272,97548,2,0,P|33:306|41:343,1,75,0|0,0:0|0:0,0:0:0:0:
147,201,97809,1,0,1:0:0:0:
147,201,97939,2,0,P|160:166|168:129,1,75,8|0,0:0|0:0,0:0:0:0:
324,208,98200,6,0,L|344:292,1,75,0|0,1:0|0:0,0:0:0:0:
420,184,98461,1,8,0:0:0:0:
256,124,98591,1,0,1:0:0:0:
356,56,98722,2,0,P|404:68|508:84,1,150,2|8,0:0|0:0,0:0:0:0:
420,184,99113,1,0,0:0:0:0:
256,124,99243,6,0,P|208:132|172:136,1,75,2|0,1:2|0:0,0:0:0:0:
168,300,99504,2,0,P|241:285|316:277,1,150,12|0,0:0|0:0,0:0:0:0:
360,172,99896,1,0,1:0:0:0:
468,308,100026,2,0,L|460:388,1,75,12|0,0:0|0:0,0:0:0:0:
288,252,100287,6,0,P|236:202|253:132,1,150,2|0,1:2|3:0,0:0:0:0:
384,84,100678,1,0,3:0:0:0:
212,60,100809,1,8,3:0:0:0:
380,184,100939,1,8,3:0:0:0:
200,164,101070,1,4,3:0:0:0:
368,296,101200,1,4,3:0:0:0:
188,276,101330,5,2,1:2:0:0:
200,268,101722,5,2,1:2:0:0:
212,260,102113,5,2,1:2:0:0:
224,252,102504,6,0,L|44:224,1,168.750006437302,0|8,3:0|3:0,0:0:0:0:
12,116,103026,1,8,3:0:0:0:
102,38,103156,1,4,3:0:0:0:
147,148,103287,1,4,3:0:0:0:
57,226,103417,5,6,1:2:0:0:
256,192,103548,12,0,107591,0:0:0:0:
