osu file format v14

[General]
AudioFilename: audio.mp3
AudioLeadIn: 0
PreviewTime: 52668
Countdown: 0
SampleSet: Soft
StackLeniency: 0.4
Mode: 0
LetterboxInBreaks: 0
WidescreenStoryboard: 1

[Editor]
DistanceSpacing: 1
BeatDivisor: 8
GridSize: 4
TimelineZoom: 2.1

[Metadata]
Title:MELODY
TitleUnicode:MELODY
Artist:Yuki Setsuna (CV: Kusunoki Tomori)
ArtistUnicode:優木せつ菜 (CV: 楠木ともり)
Creator:Doormat
Version:Easy
Source:ラブライブ!虹ヶ咲学園スクールアイドル同好会
Tags:love live! nijigasaki high school idol club gakuen doukoukai doukou kai nijigaku ニジガク nakagawa nana 中川菜々 llas sifas スクスタ festival all stars スクールアイドルフェスティバル perfect dream project pdp love u my friends Suzuki Ereka 鈴木エレカ Suzuki Manaka 鈴木まなか Hiroki Sagawa Saito Ryosuke サイトウ リョースケ anime video game japanese pop
BeatmapID:3125094
BeatmapSetID:1321136

[Difficulty]
HPDrainRate:3
CircleSize:3
OverallDifficulty:3
ApproachRate:3.5
SliderMultiplier:1.4
SliderTickRate:1

[Events]
//Background and Video events
0,0,"setsuna.jpg",0,0
//Break Periods
//Storyboard Layer 0 (Background)
//Storyboard Layer 1 (Fail)
//Storyboard Layer 2 (Pass)
//Storyboard Layer 3 (Foreground)
//Storyboard Layer 4 (Overlay)
//Storyboard Sound Samples

[TimingPoints]
1157,521.739130434783,4,2,1,40,1,0
1157,-100,4,2,1,40,0,0
5330,-100,4,2,1,50,0,0
6374,-100,4,2,1,60,0,0
7417,-100,4,2,1,70,0,0
8461,-100,4,2,1,80,0,0
8983,-100,4,2,1,80,0,0
9504,-100,4,2,14,80,0,0
9570,-100,4,2,1,80,0,0
9765,-100,4,2,14,80,0,0
9961,-100,4,2,1,80,0,0
10157,-100,4,2,14,80,0,0
10352,-100,4,2,1,80,0,0
10548,-100,4,2,14,80,0,0
10613,-100,4,2,1,80,0,0
10809,-100,4,2,12,80,0,0
10874,-100,4,2,1,80,0,0
11070,-100,4,2,11,80,0,0
11135,-100,4,2,1,80,0,0
11330,-100,4,2,10,80,0,0
11396,-100,4,2,1,80,0,0
11591,-100,4,2,11,80,0,0
11657,-100,4,2,1,80,0,0
11983,-100,4,2,12,80,0,0
12048,-100,4,2,1,80,0,0
12374,-100,4,2,13,80,0,0
12439,-100,4,2,1,80,0,0
12635,-100,4,2,12,80,0,0
12700,-100,4,2,1,80,0,0
13157,-100,4,2,11,80,0,0
13222,-100,4,2,1,80,0,0
13678,-100,4,2,10,80,0,0
13743,-100,4,2,1,80,0,0
15243,-100,4,2,12,80,0,0
15309,-100,4,2,1,80,0,0
15765,-100,4,2,11,80,0,0
15830,-100,4,2,1,80,0,0
17852,-100,4,2,1,50,0,0
25157,-100,4,2,1,70,0,0
26200,-100,4,2,1,60,0,0
34548,-100,4,2,1,50,0,0
42113,-100,4,2,1,70,0,0
42374,-100,4,2,1,80,0,0
42896,-100,4,2,1,70,0,0
46548,-100,4,2,1,80,0,0
46939,-100,4,2,1,70,0,0
49157,-100,4,2,14,70,0,0
49222,-100,4,2,1,70,0,0
50200,-100,4,2,14,70,0,0
50265,-100,4,2,1,70,0,0
50722,-100,4,2,15,70,0,0
50787,-100,4,2,1,70,0,0
51243,-100,4,2,16,70,0,0
52287,-100,4,2,1,40,0,0
52809,-100,4,2,1,60,0,0
53330,-100,4,2,1,80,0,1
59852,-100,4,2,1,90,0,1
60113,-100,4,2,17,80,0,1
60178,-100,4,2,1,80,0,1
60374,-100,4,2,1,90,0,1
60635,-100,4,2,16,80,0,1
60700,-100,4,2,1,80,0,1
60896,-100,4,2,1,90,0,1
61157,-100,4,2,14,80,0,1
61222,-100,4,2,1,80,0,1
61678,-100,4,2,15,80,0,1
61743,-100,4,2,1,80,0,1
69896,-100,4,2,1,80,0,0
70026,-100,4,2,1,80,0,1
76548,-100,4,2,1,90,0,1
76809,-100,4,2,17,80,0,1
76874,-100,4,2,1,80,0,1
77070,-100,4,2,1,90,0,1
77330,-100,4,2,16,80,0,1
77396,-100,4,2,1,80,0,1
77591,-100,4,2,1,90,0,1
77852,-100,4,2,14,80,0,1
77917,-100,4,2,1,80,0,1
78374,-100,4,2,15,80,0,1
78439,-100,4,2,1,80,0,1
81504,-100,4,2,1,80,0,1
82026,-100,4,2,1,80,0,1
83591,-100,4,2,1,60,0,0
84113,-100,4,2,1,40,0,0
84200,-100,4,2,1,45,0,0
84287,-100,4,2,1,50,0,0
84374,-100,4,2,1,55,0,0
84461,-100,4,2,1,60,0,0
84548,-100,4,2,1,65,0,0
84635,-100,4,2,1,70,0,0
84896,-100,4,2,1,90,0,0
84961,-100,4,2,1,80,0,0
85417,-100,4,2,1,90,0,0
85483,-100,4,2,1,80,0,0
85939,-100,4,2,12,80,0,0
86004,-100,4,2,1,80,0,0
86200,-100,4,2,11,80,0,0
86265,-100,4,2,1,80,0,0
86461,-100,4,2,10,80,0,0
86526,-100,4,2,1,80,0,0
86722,-100,4,2,11,80,0,0
86787,-100,4,2,1,80,0,0
87113,-100,4,2,12,80,0,0
87178,-100,4,2,1,80,0,0
87504,-100,4,2,13,80,0,0
87570,-100,4,2,1,80,0,0
87765,-100,4,2,12,80,0,0
87830,-100,4,2,1,80,0,0
88287,-100,4,2,10,80,0,0
88352,-100,4,2,1,80,0,0
88809,-100,4,2,14,80,0,0
88874,-100,4,2,1,80,0,0
89070,-100,4,2,14,80,0,0
89265,-100,4,2,1,80,0,0
89461,-100,4,2,14,80,0,0
89917,-100,4,2,1,80,0,0
90113,-100,4,2,13,80,0,0
90178,-100,4,2,1,80,0,0
90374,-100,4,2,12,80,0,0
90439,-100,4,2,1,80,0,0
90635,-100,4,2,15,80,0,0
90700,-100,4,2,1,80,0,0
90896,-100,4,2,14,80,0,0
90961,-100,4,2,1,80,0,0
91678,-100,4,2,12,80,0,0
91743,-100,4,2,1,80,0,0
91939,-100,4,2,11,80,0,0
92004,-100,4,2,1,80,0,0
92461,-100,4,2,10,80,0,0
92526,-100,4,2,1,80,0,0
92983,-100,4,2,14,80,0,0
93048,-100,4,2,1,80,0,0
93243,-100,4,2,14,80,0,0
93439,-100,4,2,1,80,0,0
93635,-100,4,2,14,80,0,0
93830,-100,4,2,1,80,0,0
94026,-100,4,2,14,80,0,0
94091,-100,4,2,1,80,0,0
94287,-100,4,2,12,80,0,0
94352,-100,4,2,1,80,0,0
94548,-100,4,2,11,80,0,0
94613,-100,4,2,1,80,0,0
94809,-100,4,2,10,80,0,0
94874,-100,4,2,1,80,0,0
95070,-100,4,2,11,80,0,0
95135,-100,4,2,1,80,0,0
95461,-100,4,2,12,80,0,0
95526,-100,4,2,1,80,0,0
95852,-100,4,2,13,80,0,0
95917,-100,4,2,1,80,0,0
96113,-100,4,2,12,80,0,0
96178,-100,4,2,1,80,0,0
96635,-100,4,2,11,80,0,0
96700,-100,4,2,1,80,0,0
97157,-100,4,2,10,80,0,0
97222,-100,4,2,1,80,0,0
98722,-100,4,2,12,80,0,0
98787,-100,4,2,1,80,0,0
99243,-100,4,2,11,80,0,0
99309,-100,4,2,1,80,0,0
100287,-100,4,2,14,80,0,0
100352,-100,4,2,1,80,0,0
100417,-100,4,2,1,60,0,0
101330,-100,4,2,10,80,0,0
102504,-100,4,2,1,60,0,0
103417,-100,4,2,10,80,0,0
107591,-100,4,2,1,10,0,0

[Colours]
Combo1 : 130,165,255
Combo2 : 225,35,65
Combo3 : 70,110,240
Combo4 : 230,80,65

[HitObjects]
164,376,1157,6,0,B|269:343|269:343|321:375|321:375|425:343,1,280,4|8,1:2|1:2,0:0:0:0:
468,212,2722,1,8,1:2:0:0:
328,192,3243,2,0,B|223:159|223:159|171:191|171:191|66:159,1,280,4|8,1:2|1:2,0:0:0:0:
20,28,4809,1,8,1:2:0:0:
160,4,5330,6,0,P|212:47|280:38,1,140,4|0,1:2|1:0,0:0:0:0:
296,180,6374,2,0,P|363:171|416:214,1,140,4|0,1:2|1:0,0:0:0:0:
348,336,7417,2,0,L|256:324,1,70,0|0,1:0|1:0,0:0:0:0:
252,360,7939,2,0,L|160:348,1,70,0|0,1:0|1:0,0:0:0:0:
156,384,8461,1,8,1:2:0:0:
56,288,8983,1,0,3:0:0:0:
152,187,9504,6,0,P|168:139|148:91,2,105,6|2|10,1:2|0:0|0:0,0:0:0:0:
192,204,10548,2,0,L|272:188,1,70,2|10,1:2|0:0,0:0:0:0:
288,224,11070,2,0,L|368:208,1,70,2|10,0:0|0:0,0:0:0:0:
388,240,11591,2,0,L|384:376,2,105,2|2|10,1:2|0:0|0:0,0:0:0:0:
420,212,12635,1,2,1:2:0:0:
364,84,13157,1,2,0:0:0:0:
244,156,13678,6,0,P|196:168|160:0,1,280,6|0,1:2|1:0,0:0:0:0:
292,40,15243,1,2,0:0:0:0:
428,76,15765,2,0,P|471:195|355:248,1,280,2|4,1:2|1:2,0:0:0:0:
80,304,17852,6,0,L|65:164,1,140,6|0,1:2|1:2,0:0:0:0:
196,116,18896,2,0,L|210:255,1,140,2|0,1:2|1:2,0:0:0:0:
332,324,19939,1,2,1:2:0:0:
401,202,20461,1,2,1:2:0:0:
279,133,20983,2,0,L|136:164,1,140,0|2,1:2|1:2,0:0:0:0:
108,136,21765,1,2,0:2:0:0:
103,140,22026,6,0,P|67:197|86:262,1,140,2|0,1:2|1:2,0:0:0:0:
180,364,23070,1,2,1:2:0:0:
220,231,23591,1,2,1:2:0:0:
313,332,24113,2,0,P|381:318|450:306,1,140,0|0,1:2|1:2,0:0:0:0:
448,168,25157,1,0,1:2:0:0:
444,172,25417,2,0,P|374:160|306:146,1,140,4|4,1:2|1:3,0:0:0:0:
288,107,26200,6,0,P|244:159|261:223,1,140,6|0,1:2|0:2,0:0:0:0:
124,236,27243,2,0,P|141:171|97:120,1,140,2|0,1:2|0:2,0:0:0:0:
60,100,28026,1,10,0:2:0:0:
56,104,28287,2,0,L|196:72,1,140,2|2,1:2|0:0,0:0:0:0:
232,208,29330,2,0,L|372:240,1,140,0|2,1:2|0:2,0:0:0:0:
476,328,30374,6,0,P|516:284|496:196,1,140,2|2,1:2|0:2,0:0:0:0:
480,176,31157,1,10,0:2:0:0:
476,180,31417,1,2,1:2:0:0:
348,124,31939,2,0,L|356:48,1,70,2|10,0:2|0:2,0:0:0:0:
387,23,32461,2,0,P|324:-6|261:20,1,140,2|0,1:2|0:2,0:0:0:0:
256,64,33243,1,4,0:0:0:0:
252,68,33504,2,0,P|199:24|131:32,1,140,0|8,3:0|3:0,0:0:0:0:
8,96,34548,6,0,L|24:244,1,140,6|2,1:2|0:0,0:0:0:0:
164,244,35591,2,0,L|160:328,1,70,2|2,1:2|1:2,0:0:0:0:
128,344,36113,2,0,P|191:367|250:333,1,140,10|2,0:0|1:2,0:0:0:0:
312,208,37157,1,2,0:0:0:0:
415,299,37678,1,2,1:2:0:0:
477,175,38200,2,0,L|468:96,1,70,8|4,3:0|3:0,0:0:0:0:
491,68,38722,6,0,P|408:112|320:40,1,210,2|2,1:2|0:0,0:0:0:0:
304,12,39765,1,2,1:2:0:0:
168,52,40287,2,0,L|184:210,1,140,10|2,0:0|1:2,0:0:0:0:
320,208,41330,2,0,L|304:366,1,140,2|2,0:0|1:2,0:0:0:0:
340,372,42113,1,6,1:2:0:0:
344,376,42374,2,0,L|420:356,1,70,8|8,0:2|0:2,0:0:0:0:
448,383,42896,6,0,P|487:329|464:266,1,140,6|0,1:2|0:0,0:0:0:0:
332,220,43939,2,0,P|308:156|348:102,1,140,2|2,1:2|0:0,0:0:0:0:
384,80,44722,1,10,0:0:0:0:
388,84,44983,2,0,L|308:64,1,70,2|10,1:2|0:2,0:0:0:0:
296,32,45504,2,0,L|156:56,1,140,2|0,0:2|1:0,0:0:0:0:
124,32,46287,1,12,0:0:0:0:
40,184,46939,6,0,P|83:211|134:204,1,105,6|8,1:2|0:0,0:0:0:0:
184,76,47852,1,8,0:0:0:0:
284,176,48374,2,0,P|296:244|236:304,1,140,10|8,0:0|0:0,0:0:0:0:
248,340,49157,6,0,L|406:348,1,140,2|0,1:2|0:0,0:0:0:0:
476,236,50200,1,2,1:2:0:0:
397,117,50722,1,2,3:2:0:0:
259,154,51243,1,2,3:2:0:0:
228,175,52287,2,0,P|239:245|246:314,1,140,0|2,0:0|0:2,0:0:0:0:
376,264,53330,6,0,L|394:125,1,140,6|2,1:2|0:2,0:0:0:0:
272,60,54374,2,0,L|250:150,1,70,2|10,1:2|0:2,0:0:0:0:
240,168,54896,1,2,0:2:0:0:
152,60,55417,2,0,P|104:48|28:128,1,140,2|0,1:2|0:2,0:0:0:0:
4,128,56200,1,10,0:2:0:0:
0,132,56461,2,0,L|16:208,2,70,2|10|2,1:2|1:2|0:2,0:0:0:0:
132,88,57504,6,0,L|146:19,1,70,2|10,1:2|0:2,0:0:0:0:
188,4,58026,1,2,0:2:0:0:
276,112,58548,2,0,L|392:84,2,105,2|2|8,1:2|1:2|0:2,0:0:0:0:
260,152,59591,1,0,1:2:0:0:
380,228,60113,1,2,1:2:0:0:
304,348,60635,1,2,1:2:0:0:
184,271,61157,2,0,L|92:249,1,70,2|8,0:2|0:2,0:0:0:0:
76,272,61678,6,0,P|56:206|93:149,1,140,6|0,1:2|0:2,0:0:0:0:
132,128,62461,1,10,0:2:0:0:
136,132,62722,1,2,1:2:0:0:
244,220,63243,2,0,L|335:197,1,70,2|10,0:2|0:2,0:0:0:0:
351,220,63765,2,0,P|387:162|368:97,1,140,6|0,1:2|0:2,0:0:0:0:
328,80,64548,1,10,0:2:0:0:
324,84,64809,1,2,1:2:0:0:
192,128,65330,2,0,L|180:48,1,70,2|10,0:2|0:2,0:0:0:0:
200,20,65852,6,0,P|133:4|77:43,1,140,2|0,1:2|0:0,0:0:0:0:
48,180,66896,2,0,P|97:226|165:221,1,140,2|0,1:2|0:0,0:0:0:0:
252,108,67939,1,2,1:2:0:0:
256,104,68200,2,0,P|322:88|378:127,1,140,14|10,0:2|0:2,0:0:0:0:
420,132,68983,2,0,L|400:220,1,70,0|0,1:2|3:0,0:0:0:0:
440,224,69504,2,0,L|420:312,1,70,8|4,0:3|0:3,0:0:0:0:
447,328,70026,6,0,P|379:339|312:361,1,140,6|2,1:2|0:0,0:0:0:0:
304,220,71070,2,0,P|235:208|168:186,1,140,2|2,1:2|0:0,0:0:0:0:
28,176,72113,2,0,P|31:124|68:88,2,105,2|2|10,1:2|0:2|0:2,0:0:0:0:
8,216,73157,2,0,L|0:285,1,70,2|10,1:2|0:0,0:0:0:0:
32,316,73678,1,2,0:0:0:0:
144,232,74200,6,0,L|224:244,1,70,2|10,1:2|0:2,0:0:0:0:
244,212,74722,1,2,0:2:0:0:
368,280,75243,2,0,L|356:396,2,105,2|2|8,1:2|1:2|0:2,0:0:0:0:
404,256,76287,1,0,1:2:0:0:
352,124,76809,1,2,1:2:0:0:
244,212,77330,2,0,L|175:197,1,70,2|12,1:2|0:0,0:0:0:0:
148,232,77852,2,0,L|79:217,1,70,2|8,0:2|0:2,0:0:0:0:
40,236,78374,6,0,P|18:171|56:115,2,140,6|0|2,1:2|0:0|1:2,0:0:0:0:
132,340,79939,1,2,0:0:0:0:
236,248,80461,1,6,1:2:0:0:
144,144,80983,1,4,1:2:0:0:
248,52,81504,1,4,1:2:0:0:
340,156,82026,2,0,L|420:140,1,70,2|10,0:0|0:0,0:0:0:0:
444,168,82548,6,0,P|428:240|420:312,1,140,6|4,1:2|3:0,0:0:0:0:
296,240,83591,1,4,1:3:0:0:
376,32,84896,5,4,1:2:0:0:
244,80,85417,2,0,L|260:240,1,140,4|10,1:2|0:0,0:0:0:0:
228,252,86200,2,0,L|159:238,1,70,2|10,0:0|0:0,0:0:0:0:
115,232,86722,2,0,P|83:272|89:322,2,105,6|2|10,1:2|1:2|0:0,0:0:0:0:
100,192,87765,1,2,1:2:0:0:
220,116,88287,1,2,0:0:0:0:
267,247,88809,6,0,P|388:296|472:192,1,280,6|2,1:2|1:2,0:0:0:0:
456,156,90113,2,0,L|532:164,2,70,10|2|10,0:0|0:0|0:0,0:0:0:0:
432,120,90896,2,0,P|377:160|310:148,1,140,2|0,1:2|0:0,0:0:0:0:
284,116,91678,1,10,0:0:0:0:
280,120,91939,1,2,1:2:0:0:
240,252,92461,1,2,0:0:0:0:
144,148,92983,6,0,P|162:81|172:17,2,105,6|2|10,1:2|0:2|0:2,0:0:0:0:
112,177,94026,2,0,L|128:262,1,70,2|10,1:2|0:0,0:0:0:0:
92,273,94548,2,0,L|108:358,1,70,2|10,0:0|0:0,0:0:0:0:
140,368,95070,2,0,P|89:357|43:380,2,105,2|2|10,1:2|0:0|0:0,0:0:0:0:
180,384,96113,1,2,1:2:0:0:
276,284,96635,1,2,0:0:0:0:
160,204,97157,6,0,P|126:81|246:42,1,280,6|0,1:2|1:0,0:0:0:0:
376,96,98722,1,2,0:0:0:0:
500,156,99243,1,2,1:2:0:0:
504,160,99504,2,0,P|523:225|485:280,1,140,12|12,0:0|0:0,0:0:0:0:
460,316,100287,2,0,P|413:266|346:272,1,140,2|8,1:2|3:0,0:0:0:0:
220,332,101330,6,0,L|208:216,2,105,2|2|2,1:2|1:2|1:2,0:0:0:0:
256,192,103417,12,0,107591,0:0:0:0:
