osu file format v14

[General]
AudioFilename: audio.mp3
AudioLeadIn: 0
PreviewTime: 55612
Countdown: 0
SampleSet: Soft
StackLeniency: 0.7
Mode: 0
LetterboxInBreaks: 0
WidescreenStoryboard: 0

[Editor]
DistanceSpacing: 0.9
BeatDivisor: 4
GridSize: 32
TimelineZoom: 1.7

[Metadata]
Title:MELODY
TitleUnicode:MELODY
Artist:Yuki Setsuna (CV: Kusunoki Tomori)
ArtistUnicode:優木せつ菜 (CV: 楠木ともり)
Creator:Adinda
Version:NORMAL
Source:ラブライブ!虹ヶ咲学園スクールアイドル同好会
Tags:Fuiba Fuyu love live! nijigasaki high school idol club gakuen doukoukai doukou kai nijigaku ニジガク nakagawa nana 中川菜々 llas sifas スクスタ festival all stars スクールアイドルフェスティバル perfect dream project pdp love u my friends anime video game japanese rock pop tycani pikaqours JRock J-Rock JPop J-Pop 鈴木エレカ Ereca Suzuki Hiroki Sagawa 鈴木まなか Suzuki Manaka サイトウ リョースケ Saito Ryosuke
BeatmapID:2959825
BeatmapSetID:1416320

[Difficulty]
HPDrainRate:3
CircleSize:3.2
OverallDifficulty:4.5
ApproachRate:6
SliderMultiplier:0.999999999999999
SliderTickRate:1

[Events]
//Background and Video events
0,0,"a.jpg",0,0
//Break Periods
//Storyboard Layer 0 (Background)
//Storyboard Layer 1 (Fail)
//Storyboard Layer 2 (Pass)
//Storyboard Layer 3 (Foreground)
//Storyboard Layer 4 (Overlay)
//Storyboard Sound Samples

[TimingPoints]
4026,260.869565217391,4,2,1,75,1,0
4026,-111.111111111111,4,2,1,75,0,0
8199,-105.263157894737,4,2,1,75,0,0
12373,-100,4,2,1,85,0,0
20460,-100,4,2,1,75,0,0
20721,-111.111111111111,4,2,1,55,0,0
28025,-100,4,2,1,75,0,0
28286,-100,4,2,1,80,0,0
29069,-105.263157894737,4,2,1,75,0,0
37417,-111.111111111111,4,2,1,65,0,0
44982,-111.111111111111,4,2,1,70,0,0
45243,-111.111111111111,4,2,1,75,0,0
45765,-105.263157894737,4,2,1,80,0,0
49417,-105.263157894737,4,2,1,85,0,0
49808,-105.263157894737,4,2,1,80,0,0
55156,-105.263157894737,4,2,1,30,0,0
55678,-105.263157894737,4,2,1,60,0,0
56199,-100,4,2,1,90,0,1
62656,-100,4,2,1,5,0,1
62721,-100,4,2,1,90,0,1
62917,-100,4,2,1,5,0,1
62982,-100,4,2,1,90,0,1
79352,-100,4,2,1,5,0,1
79417,-100,4,2,1,90,0,1
79612,-100,4,2,1,5,0,1
79677,-100,4,2,1,90,0,1
86460,-105.263157894737,4,2,1,80,0,0
88286,-100,4,2,1,85,0,0
106352,-90.9090909090909,4,2,1,85,0,0
106808,-90.9090909090909,4,2,1,80,0,0
107330,-90.9090909090909,4,2,1,75,0,0
107852,-90.9090909090909,4,2,1,63,0,0
108373,-90.9090909090909,4,2,1,50,0,0
108895,-90.9090909090909,4,2,1,38,0,0
109417,-90.9090909090909,4,2,1,25,0,0
109939,-90.9090909090909,4,2,1,13,0,0
110199,-90.9090909090909,4,2,1,5,0,0

[Colours]
Combo1 : 130,165,255
Combo2 : 225,35,65
Combo3 : 70,110,240
Combo4 : 0,255,0

[HitObjects]
34,46,4026,6,0,P|12:87|36:138,1,89.999997253418,14|8,0:1|0:0,0:0:0:0:
60,204,4547,1,8,0:1:0:0:
60,204,4678,2,0,B|105:191|105:191|163:221|250:197,1,179.999994506836,8|4,0:0|0:3,0:0:0:0:
339,138,5591,2,0,B|335:88|335:88|341:35,1,89.999997253418,8|4,0:0|0:3,0:0:0:0:
420,44,6112,6,0,B|425:93|425:93|421:139,1,89.999997253418,14|8,0:1|0:0,0:0:0:0:
448,215,6634,1,8,0:1:0:0:
448,215,6765,2,0,B|387:241|387:241|365:291|365:291|308:317,1,179.999994506836,8|4,0:0|0:3,0:0:0:0:
194,350,7678,1,8,0:3:0:0:
113,357,7939,1,4,0:3:0:0:
59,290,8199,6,0,L|43:186,1,94.9999974632263,14|4,3:1|3:0,0:0:0:0:
127,177,8721,2,0,L|141:273,1,94.9999974632263,4|4,3:0|3:0,0:0:0:0:
220,238,9243,2,0,B|242:252|242:252|327:234,1,94.9999974632263,14|4,3:1|3:0,0:0:0:0:
347,160,9765,2,0,B|369:146|369:146|454:164,1,94.9999974632263,4|4,3:0|3:0,0:0:0:0:
471,82,10286,5,6,3:0:0:0:
404,28,10547,1,4,3:0:0:0:
322,53,10808,1,6,3:0:0:0:
255,0,11069,1,4,3:0:0:0:
180,37,11330,1,10,0:0:0:0:
180,37,11460,1,10,0:0:0:0:
65,94,11852,2,0,L|55:208,1,94.9999974632263,10|10,0:0|0:0,0:0:0:0:
74,276,12373,6,0,B|113:273|113:273|133:280|133:280|178:277,1,99.9999999999999,14|10,0:1|0:0,0:0:0:0:
215,263,12765,2,0,P|224:213|259:159,1,99.9999999999999,2|10,0:0|0:1,0:0:0:0:
253,125,13156,1,10,0:0:0:0:
330,79,13417,1,10,0:1:0:0:
415,106,13678,5,10,0:0:0:0:
395,193,13939,1,2,0:0:0:0:
439,270,14199,1,10,0:0:0:0:
419,357,14460,2,0,P|382:357|314:356,1,99.9999999999999,10|8,0:1|0:0,0:0:0:0:
273,361,14852,6,0,P|236:361|168:360,1,99.9999999999999,2|8,0:0|0:1,0:0:0:0:
130,375,15243,1,10,0:0:0:0:
71,306,15504,2,0,B|79:256|79:256|65:193,1,99.9999999999999,10|8,0:1|0:0,0:0:0:0:
1,147,16025,2,0,B|-7:97|-7:97|7:34,1,99.9999999999999,2|8,0:0|0:0,0:0:0:0:
92,31,16547,6,0,P|104:59|174:77,1,99.9999999999999,10|8,0:1|0:0,0:0:0:0:
200,109,16939,2,0,P|212:137|282:155,1,99.9999999999999,2|10,0:0|0:1,0:0:0:0:
308,187,17330,1,10,0:0:0:0:
361,259,17591,2,0,P|354:311|362:374,1,99.9999999999999,10|8,0:1|0:0,0:0:0:0:
448,364,18112,2,0,P|455:312|447:249,1,99.9999999999999,2|8,0:0|0:0,0:0:0:0:
438,175,18634,6,0,B|446:126|446:126|435:62,1,99.9999999999999,10|8,0:1|0:0,0:0:0:0:
357,34,19156,2,0,L|297:17,1,50,8|8,0:0|0:3,0:0:0:0:
273,47,19417,2,0,L|213:30,1,50,4|4,0:3|0:3,0:0:0:0:
181,46,19678,2,0,B|134:155|212:255|212:255|147:330,1,300,14|2,0:1|0:0,0:0:0:0:
80,312,20721,6,0,P|81:246|79:127,1,179.999994506836,14|8,0:1|0:1,0:0:0:0:
100,53,21504,1,2,0:0:0:0:
181,46,21765,2,0,B|354:37|261:142|435:138,1,269.999991760254,10|2,0:1|0:0,0:0:0:0:
408,218,22808,5,10,0:1:0:0:
450,287,23069,1,2,0:0:0:0:
419,361,23330,2,0,B|370:353|370:353|318:362,1,89.999997253418,10|2,0:1|0:0,0:0:0:0:
292,344,23721,2,0,B|155:335|243:269|72:265,1,224.999993133545,2|10,0:0|0:1,0:0:0:0:
69,187,24634,1,2,0:0:0:0:
135,140,24895,6,0,B|206:133|206:133|235:151|235:151|319:143,1,179.999994506836,10|8,0:1|0:1,0:0:0:0:
361,81,25678,1,2,0:0:0:0:
293,36,25939,2,0,P|244:30|192:18,1,89.999997253418,10|2,0:1|0:0,0:0:0:0:
127,46,26460,2,0,P|78:40|26:28,1,89.999997253418,10|2,0:1|0:0,0:0:0:0:
24,69,26852,6,0,B|3:194|81:149|56:305,1,224.999993133545,2|8,0:0|0:1,0:0:0:0:
225,352,28025,1,14,0:1:0:0:
264,271,28286,2,0,B|239:215|295:170|295:170|345:197,1,150,14|8,0:1|0:1,0:0:0:0:
370,182,28808,1,6,0:3:0:0:
449,213,29069,6,0,P|461:266|465:314,1,94.9999974632263,14|8,0:1|0:0,0:0:0:0:
340,314,29721,1,8,0:1:0:0:
340,314,29852,1,10,0:0:0:0:
264,271,30112,2,0,B|171:308|171:308|77:262,1,189.999994926453,10|0,0:1|0:0,0:0:0:0:
32,204,30895,1,10,0:0:0:0:
70,127,31156,6,0,P|104:133|172:113,1,94.9999974632263,10|10,0:1|0:0,0:0:0:0:
208,47,31678,2,0,P|242:41|310:61,1,94.9999974632263,2|10,0:0|0:0,0:0:0:0:
312,95,32069,2,0,B|305:125|279:141|279:141|277:187|319:220,1,142.499996194839,2|8,0:0|0:0,0:0:0:0:
396,197,32721,2,0,B|421:207|421:207|411:276,1,94.9999974632263,2|8,0:0|0:0,0:0:0:0:
349,330,33243,6,0,P|298:325|239:331,1,94.9999974632263,10|8,0:1|0:0,0:0:0:0:
180,371,33765,1,2,0:0:0:0:
146,292,34025,1,10,0:0:0:0:
71,333,34286,2,0,P|49:326|20:256,1,94.9999974632263,10|8,0:1|0:0,0:0:0:0:
67,198,34808,1,2,0:0:0:0:
34,119,35068,1,10,0:0:0:0:
109,78,35330,6,0,B|197:68|197:68|236:98|236:98|340:83,1,237.499993658066,10|10,0:1|0:1,0:0:0:0:
362,116,36112,1,14,0:0:0:0:
352,200,36373,2,0,B|339:247|339:247|350:296,1,94.9999974632263,12|8,0:1|0:0,0:0:0:0:
434,283,36895,2,0,L|462:222,1,47.4999987316131,10|8,0:0|0:3,0:0:0:0:
450,196,37156,2,0,L|478:135,1,47.4999987316131,6|4,0:3|0:3,0:0:0:0:
466,112,37417,6,0,B|492:55|444:8|444:8|422:32,1,134.999995880127,14|8,0:1|0:1,0:0:0:0:
389,28,37939,1,2,0:0:0:0:
233,73,38460,2,0,P|210:77|133:68,2,89.999997253418,10|10|10,0:1|0:1|0:0,0:0:0:0:
266,49,39112,1,10,0:1:0:0:
326,154,39504,6,0,P|319:195|327:304,1,134.999995880127,8|8,0:1|0:1,0:0:0:0:
343,323,40025,1,2,0:0:0:0:
185,360,40547,2,0,L|78:366,2,89.999997253418,8|10|6,0:1|0:1|0:3,0:0:0:0:
215,333,41199,1,4,0:3:0:0:
111,268,41591,6,0,B|51:272|26:208|26:208|53:180,1,134.999995880127,10|8,0:1|0:1,0:0:0:0:
35,70,42373,1,2,0:1:0:0:
115,67,42634,2,0,P|147:66|224:66,2,89.999997253418,10|8|10,0:1|0:1|0:0,0:0:0:0:
112,107,43286,1,10,0:1:0:0:
169,163,43547,6,0,P|167:235|270:258,1,179.999994506836,2|8,0:1|0:1,0:0:0:0:
286,293,44199,1,2,0:0:0:0:
448,294,44721,1,10,0:1:0:0:
395,231,44982,1,12,0:0:0:0:
423,155,45243,2,0,P|423:120|420:90,1,44.999998626709,10|8,0:1|0:0,0:0:0:0:
390,84,45504,2,0,P|390:49|387:19,1,44.999998626709,10|8,0:0|0:0,0:0:0:0:
348,22,45765,6,0,B|261:8|303:33|153:16,1,189.999994926453,14|0,0:1|0:0,0:0:0:0:
89,66,46547,1,10,0:0:0:0:
127,147,46808,2,0,P|145:162|226:153,1,94.9999974632263,10|10,0:1|0:0,0:0:0:0:
274,222,47330,2,0,P|292:207|373:216,1,94.9999974632263,2|10,0:0|0:0,0:0:0:0:
436,247,47852,6,0,P|438:284|435:344,1,94.9999974632263,10|10,0:1|0:0,0:0:0:0:
393,368,48243,2,0,L|346:350,1,47.4999987316131,2|2,0:0|0:0,0:0:0:0:
306,359,48504,1,10,0:1:0:0:
224,331,48765,2,0,B|157:354|157:354|81:324,1,142.499996194839,2|12,0:0|0:0,0:0:0:0:
49,259,49417,1,10,0:0:0:0:
49,259,49547,1,14,0:1:0:0:
110,199,49808,6,0,P|95:168|112:100,1,94.9999974632263,14|8,0:1|0:1,0:0:0:0:
143,90,50199,1,8,0:0:0:0:
244,177,50591,1,8,0:1:0:0:
244,177,50721,2,0,B|290:187|290:187|352:169,1,94.9999974632263,8|8,0:0|0:1,0:0:0:0:
396,234,51243,2,0,P|394:275|395:340,1,94.9999974632263,10|2,0:0|0:0,0:0:0:0:
405,370,51634,1,10,0:1:0:0:
485,341,51895,6,0,P|485:293|482:192,1,142.499996194839,2|8,0:0|0:0,0:0:0:0:
436,78,52678,1,8,0:1:0:0:
436,78,52808,2,0,B|390:88|390:88|328:70,1,94.9999974632263,8|12,0:0|0:1,0:0:0:0:
313,53,53199,1,8,0:0:0:0:
313,53,53330,1,8,0:0:0:0:
236,90,53591,2,0,L|212:140,1,47.4999987316131,8|8,0:0|0:0,0:0:0:0:
188,166,53852,2,0,L|212:216,1,47.4999987316131,8|8,0:0|0:0,0:0:0:0:
199,250,54112,1,12,0:1:0:0:
199,250,55156,6,0,P|149:246|94:249,1,94.9999974632263,2|2,0:0|0:0,0:0:0:0:
88,163,55678,2,0,B|82:112|82:112|89:61,1,94.9999974632263,2|2,3:0|3:0,0:0:0:0:
129,56,56069,1,2,3:0:0:0:
129,56,56199,5,14,0:1:0:0:
216,78,56460,1,10,0:0:0:0:
303,55,56721,2,0,P|340:52|405:54,1,99.9999999999999,2|8,0:1|0:0,0:0:0:0:
419,95,57112,1,2,0:0:0:0:
419,95,57243,1,10,0:1:0:0:
379,176,57504,1,10,0:0:0:0:
335,253,57765,2,0,B|327:302|327:302|336:370,1,99.9999999999999,2|8,0:0|0:0,0:0:0:0:
422,366,58286,6,0,B|428:316|428:316|420:267,1,99.9999999999999,10|8,0:1|0:0,0:0:0:0:
454,236,58678,1,2,0:0:0:0:
505,163,58939,1,10,0:1:0:0:
505,163,59069,2,0,B|498:137|498:137|504:109,1,50,10|2,0:0|0:0,0:0:0:0:
507,69,59330,1,10,0:1:0:0:
421,39,59591,1,10,0:0:0:0:
332,69,59852,2,0,B|291:65|291:65|278:75|278:75|235:71,1,99.9999999999999,2|8,0:0|0:0,0:0:0:0:
170,133,60373,5,10,0:1:0:0:
229,200,60634,1,10,0:0:0:0:
180,276,60895,2,0,P|168:330|174:377,1,99.9999999999999,2|8,0:0|0:0,0:0:0:0:
89,338,61417,2,0,P|77:284|83:237,1,99.9999999999999,10|10,0:1|0:0,0:0:0:0:
107,202,61808,1,10,0:1:0:0:
170,133,62069,1,10,0:1:0:0:
242,195,62330,1,2,0:0:0:0:
242,195,62460,1,8,0:1:0:0:
319,149,62721,6,0,P|333:117|285:75,1,99.9999999999999,12|10,0:0|0:1,0:0:0:0:
268,43,63112,1,8,0:1:0:0:
268,43,63243,1,12,0:0:0:0:
178,31,63504,5,10,0:1:0:0:
104,83,63765,1,14,0:0:0:0:
137,166,64025,1,2,0:0:0:0:
68,224,64286,2,0,P|68:253|71:285,1,50,10|8,0:0|0:0,0:0:0:0:
110,293,64547,6,0,B|149:291|149:291|165:301|165:301|221:297,1,99.9999999999999,14|10,0:1|0:0,0:0:0:0:
250,311,64939,2,0,B|289:309|289:309|305:319|305:319|361:315,1,99.9999999999999,2|8,0:0|0:1,0:0:0:0:
388,333,65330,1,10,0:0:0:0:
398,243,65591,2,0,B|388:194|388:194|406:141,1,99.9999999999999,10|8,0:1|0:0,0:0:0:0:
322,107,66112,1,2,0:1:0:0:
251,150,66373,1,10,0:0:0:0:
169,112,66634,6,0,P|161:84|179:50,1,50,14|2,0:1|0:0,0:0:0:0:
201,34,66895,1,10,0:0:0:0:
201,34,67025,2,0,B|238:28|238:28|257:34|257:34|318:23,1,99.9999999999999,2|8,0:0|0:1,0:0:0:0:
344,24,67417,1,10,0:0:0:0:
322,107,67678,2,0,P|309:142|302:205,1,99.9999999999999,10|8,0:1|0:0,0:0:0:0:
378,250,68199,1,2,0:0:0:0:
450,199,68460,1,10,0:0:0:0:
504,270,68721,6,0,P|499:319|483:366,1,99.9999999999999,10|10,0:1|0:0,0:0:0:0:
438,369,69112,2,0,B|393:358|393:358|338:369,1,99.9999999999999,2|8,0:0|0:1,0:0:0:0:
297,352,69504,1,10,0:0:0:0:
210,327,69765,2,0,B|165:316|165:316|110:327,1,99.9999999999999,10|8,0:1|0:0,0:0:0:0:
81,293,70156,2,0,P|65:245|60:196,1,99.9999999999999,10|8,0:1|0:1,0:0:0:0:
37,157,70547,1,10,0:0:0:0:
104,97,70808,6,0,L|164:84,1,50,10|2,0:1|0:0,0:0:0:0:
185,117,71069,1,14,0:0:0:0:
185,117,71199,2,0,L|245:130,1,50,2|0,0:0|0:0,0:0:0:0:
283,202,71591,1,10,0:0:0:0:
283,202,71721,2,0,P|283:237|329:284,1,99.9999999999999,2|8,0:0|0:0,0:0:0:0:
357,313,72112,1,8,0:0:0:0:
421,249,72373,2,0,P|417:208|421:140,1,99.9999999999999,10|10,0:0|0:3,0:0:0:0:
406,111,72765,1,6,0:3:0:0:
406,111,72895,5,14,0:1:0:0:
378,25,73156,1,10,0:0:0:0:
288,12,73417,2,0,B|238:25|238:25|181:11,1,99.9999999999999,2|8,0:0|0:0,0:0:0:0:
125,76,73939,1,10,0:1:0:0:
190,137,74199,1,10,0:0:0:0:
132,206,74460,2,0,B|119:260|119:260|138:310,1,99.9999999999999,2|8,0:0|0:0,0:0:0:0:
218,268,74982,6,0,P|259:247|325:246,1,99.9999999999999,10|10,0:1|0:0,0:0:0:0:
339,207,75373,1,2,0:0:0:0:
365,120,75634,1,10,0:1:0:0:
365,120,75765,2,0,B|359:91|359:91|368:66,1,50,10|2,0:0|0:0,0:0:0:0:
405,51,76025,1,10,0:1:0:0:
450,128,76286,1,10,0:0:0:0:
498,203,76547,2,0,P|495:234|500:313,1,99.9999999999999,2|8,0:0|0:0,0:0:0:0:
470,339,76939,1,2,0:0:0:0:
470,339,77069,5,10,0:1:0:0:
386,306,77330,1,10,0:0:0:0:
301,336,77591,2,0,B|250:344|250:344|194:337,1,99.9999999999999,2|8,0:0|0:0,0:0:0:0:
159,258,78112,2,0,B|167:207|167:207|156:153,1,99.9999999999999,10|10,0:1|0:0,0:0:0:0:
189,126,78504,1,10,0:1:0:0:
270,163,78765,1,10,0:1:0:0:
325,93,79025,1,2,0:0:0:0:
325,93,79156,1,8,0:1:0:0:
244,52,79417,6,0,P|192:37|151:8,1,99.9999999999999,12|8,0:0|0:1,0:0:0:0:
116,32,79808,1,8,0:1:0:0:
116,32,79939,1,12,0:0:0:0:
60,102,80199,5,10,0:1:0:0:
114,173,80460,1,14,0:0:0:0:
67,249,80721,1,2,0:0:0:0:
129,314,80982,2,0,B|157:314|183:312,1,50,10|8,0:0|0:0,0:0:0:0:
219,292,81243,6,0,P|207:247|218:190,2,99.9999999999999,14|8|0,0:1|0:0|0:0,0:0:0:0:
264,312,81895,1,8,0:1:0:0:
264,312,82025,1,10,0:0:0:0:
337,260,82286,2,0,P|349:215|338:158,1,99.9999999999999,10|8,0:1|0:0,0:0:0:0:
272,102,82808,2,0,B|218:111|218:111|167:101,1,99.9999999999999,2|8,0:0|0:0,0:0:0:0:
182,12,83330,6,0,B|226:3|226:3|280:12,1,99.9999999999999,14|10,0:1|0:1,0:0:0:0:
363,59,83852,1,14,0:0:0:0:
363,59,83982,2,0,P|403:61|473:40,1,99.9999999999999,2|2,0:0|0:0,0:0:0:0:
479,87,84373,2,0,B|472:137|472:137|479:208,1,99.9999999999999,14|0,0:1|0:0,0:0:0:0:
472,231,84765,1,14,0:1:0:0:
472,231,84895,1,2,0:0:0:0:
385,254,85156,2,0,L|337:233,1,50,10|8,0:0|0:0,0:0:0:0:
297,250,85417,6,0,B|290:300|290:300|297:371,1,99.9999999999999,14|8,0:1|0:0,0:0:0:0:
205,364,85939,1,10,0:0:0:0:
205,364,86069,2,0,L|157:343,1,50,10|8,0:1|0:3,0:0:0:0:
120,362,86330,1,6,0:3:0:0:
120,362,86460,5,12,0:1:0:0:
33,214,86982,2,0,P|31:172|45:114,1,94.9999974632263,2|2,3:0|3:0,0:0:0:0:
101,58,87504,1,0,3:0:0:0:
179,91,87765,2,0,P|189:137|188:184,1,94.9999974632263,14|8,0:0|0:0,0:0:0:0:
204,224,88156,1,8,0:0:0:0:
204,224,88286,2,0,B|240:227|240:227|259:241|259:241|306:249,1,99.9999999999999,14|8,0:1|0:0,0:0:0:0:
360,313,88808,5,10,0:1:0:0:
412,239,89069,1,10,0:0:0:0:
375,156,89330,1,10,0:0:0:0:
427,82,89591,2,0,P|426:53|359:28,1,99.9999999999999,14|8,0:1|0:0,0:0:0:0:
323,23,89982,6,0,B|272:34|272:34|223:24,1,99.9999999999999,10|8,0:1|0:1,0:0:0:0:
180,16,90373,1,10,0:0:0:0:
117,80,90634,2,0,P|113:118|118:189,1,99.9999999999999,10|8,0:1|0:0,0:0:0:0:
38,224,91156,2,0,P|34:262|39:333,1,99.9999999999999,2|8,0:0|0:0,0:0:0:0:
120,358,91678,6,0,B|175:348|175:348|225:361,1,99.9999999999999,14|10,0:1|0:0,0:0:0:0:
255,333,92069,2,0,B|248:285|248:285|258:228,1,99.9999999999999,2|10,0:0|0:1,0:0:0:0:
249,189,92460,1,10,0:0:0:0:
284,106,92721,1,10,0:1:0:0:
370,81,92982,5,10,0:0:0:0:
419,155,93243,1,2,0:0:0:0:
409,244,93504,1,10,0:0:0:0:
458,318,93765,2,0,B|423:336|423:336|409:358|409:358|375:377,2,99.9999999999999,10|8|0,0:1|0:0|0:0,0:0:0:0:
492,288,94417,5,8,0:1:0:0:
492,288,94547,1,10,0:0:0:0:
409,244,94808,2,0,B|359:254|359:254|296:243,1,99.9999999999999,10|8,0:1|0:0,0:0:0:0:
257,318,95330,2,0,B|207:328|207:328|144:317,1,99.9999999999999,2|8,0:0|0:0,0:0:0:0:
108,244,95852,6,0,P|103:208|79:143,1,99.9999999999999,14|8,0:1|0:0,0:0:0:0:
42,126,96243,2,0,P|47:90|71:25,1,99.9999999999999,2|10,0:0|0:1,0:0:0:0:
109,12,96634,1,10,0:0:0:0:
174,73,96895,1,10,0:1:0:0:
260,46,97156,5,10,0:0:0:0:
283,132,97417,1,2,0:0:0:0:
245,214,97678,1,10,0:0:0:0:
268,300,97939,2,0,P|317:290|372:298,1,99.9999999999999,10|8,0:1|0:0,0:0:0:0:
392,259,98330,6,0,B|386:206|386:206|394:152,1,99.9999999999999,2|8,0:0|0:1,0:0:0:0:
425,129,98721,1,10,0:0:0:0:
381,50,98982,2,0,B|348:46|348:46|332:55|332:55|276:49,1,99.9999999999999,10|8,0:1|0:0,0:0:0:0:
193,51,99504,2,0,B|160:47|160:47|144:56|144:56|88:50,1,99.9999999999999,2|8,0:0|0:0,0:0:0:0:
90,140,100025,6,0,P|68:182|96:230,1,99.9999999999999,10|8,0:1|0:0,0:0:0:0:
117,261,100417,2,0,P|95:303|123:351,1,99.9999999999999,2|10,0:0|0:1,0:0:0:0:
159,360,100808,1,10,0:0:0:0:
218,292,101069,2,0,P|213:257|226:189,1,99.9999999999999,10|8,0:1|0:0,0:0:0:0:
306,156,101591,2,0,B|355:164|355:164|406:153,1,99.9999999999999,2|8,0:0|0:0,0:0:0:0:
494,152,102112,5,10,0:1:0:0:
504,241,102373,2,0,P|514:289|510:339,1,99.9999999999999,12|0,0:0|0:0,0:0:0:0:
469,360,102765,1,8,0:1:0:0:
469,360,102895,1,12,0:0:0:0:
378,359,103156,1,10,0:1:0:0:
332,281,103417,2,0,P|330:256|308:219,1,50,8|8,0:0|0:0,0:0:0:0:
275,227,103678,2,0,P|273:202|251:165,1,50,8|8,0:0|0:0,0:0:0:0:
224,154,103939,2,0,P|222:129|200:92,1,50,8|8,0:0|0:0,0:0:0:0:
177,77,104199,6,0,B|120:70|120:70|88:82|88:82|27:74,2,150,14|6|6,0:1|0:3|0:3,0:0:0:0:
109,193,105373,2,0,B|94:267|94:267|116:349,1,150,8|8,0:1|0:0,0:0:0:0:
154,356,105895,2,0,L|209:341,1,50,8|8,0:0|0:3,0:0:0:0:
250,354,106156,1,4,0:3:0:0:
250,354,106286,1,14,0:1:0:0:
256,192,106352,12,0,110199,0:0:0:0:
